#TITLE:Max Burning!!;
#SUBTITLE:;
#ARTIST:BlackY;
#TITLETRANSLIT:;
#SUBTITLETRANSLIT:;
#ARTISTTRANSLIT:;
#GENRE:;
#CREDIT:;
#BANNER:Max Burning!!.png;
#BACKGROUND:Max Burning!!-bg.png;
#JACKET:Max Burning!!-jacket.png;
#LYRICSPATH:;
#CDTITLE:;
#MUSIC:Max Burning!!.mp3;
#OFFSET:-1.646000;
#SAMPLESTART:73.620003;
#SAMPLELENGTH:12.000000;
#SELECTABLE:YES;
#DISPLAYBPM:*;
#BPMS:0.000000=190.000000
,68.000000=380.000000
,195.000000=190.000000
,287.000000=95.000000
,288.000000=380.000000
;
#STOPS:190.000000=0.158000,
288.000000=0.474000,
415.000000=0.158000,
552.000000=0.118000
;
#BGCHANGES:;
#KEYSOUNDS:;
#ATTACKS:;

//---------------dance-single - ----------------
#NOTES:
     dance-single:
     :
     Hard:
     13:
     1.000000,1.000000,0.748802,0.149760,0.278721,769.000000,90.000000,18.000000,0.000000,0.000000,0.000000,1.000000,1.000000,0.748802,0.149760,0.278721,769.000000,90.000000,18.000000,0.000000,0.000000,0.000000:
0000
0000
0000
0000
,
0000
0000
0000
0000
,
0000
0000
0000
0000
,
0000
0000
0000
0000
,
0000
0000
0000
0000
,
1010
1010
0010
0100
,
0001
0100
1000
0100
,
1000
0100
0010
0100
,
0001
0000
1000
0000
0001
1000
0001
1000
,
0110
0000
0110
0000
0100
0010
1000
0000
,
1010
0000
1010
0000
1000
0100
0010
0000
,
0011
0000
0011
0000
0001
0100
0010
0000
,
0100
0000
0001
0000
1000
1000
0100
0100
,
1000
0100
0010
0001
0100
0010
1000
0001
,
0010
0001
1000
0001
1000
0100
0010
0001
,
1000
0001
0100
0010
1000
0001
0100
0010
1000
0100
0010
0001
0010
0100
1000
0001
,
0101
0000
0000
0101
0000
0000
1100
0000
0000
1100
0000
0000
1001
0000
0010
0000
,
1001
0010
1001
0001
,
0100
0010
0000
0010
0000
0100
0001
0000
,
1000
0100
0010
0100
,
1000
0000
0000
0100
0000
0010
0000
0001
,
1000
0010
0100
0010
,
1000
0010
0000
0100
0000
0001
0010
0000
,
0100
0010
0001
1000
,
0020
1030
0020
0130
,
0101
0100
0101
0001
,
0010
0100
0000
0010
0000
0001
1000
0000
,
0010
0100
0001
1000
,
0100
0010
0000
0001
0000
0010
0000
0100
,
1000
0001
0100
0010
,
0100
0001
0000
0010
0000
0100
1000
0000
,
0001
0100
0001
1000
,
0100
0010
0100
0010
0001
0010
0001
1000
,
0001
0100
0010
1000
,
0010
1000
0000
0010
0000
0100
0001
0000
,
1000
0100
1000
0001
,
1000
0010
0000
1000
0000
0010
0100
0000
,
0001
0010
0100
0010
,
0001
0010
0000
0001
0000
1000
0010
0000
,
0100
0010
1000
0001
,
0020
0130
2000
3100
,
1100
0100
1100
1000
,
0001
0100
0000
0010
0000
0100
0001
0000
,
1000
0100
1000
0001
,
0100
0010
0000
0100
0000
0001
0000
1000
,
0010
0100
0001
1000
,
0100
0010
0100
1000
,
0001
0100
0010
1000
0002
0003
1001
0000
,
0000
0000
0101
0000
0000
0000
0000
0000
1010
0000
0000
0000
1001
0000
0000
0101
,
0000
0000
1001
0000
0000
0000
0000
0000
1100
0000
0000
1001
0000
0000
0101
0000
,
0000
1001
0000
0000
0110
0000
0000
0101
0000
0000
1010
0000
0000
0000
0101
0000
,
1001
0000
0000
0000
0000
0000
0101
0000
0000
0011
0000
0000
1001
0000
0000
1100
,
0000
0000
1001
0000
0000
0000
0000
0000
1001
0000
1000
0100
0000
0000
0110
0000
,
0000
0011
0000
0000
1001
0000
0101
0000
0000
1001
0000
0000
1100
0000
0000
1001
,
0000
0000
0101
0000
1001
0000
0000
0110
0000
0000
0101
0000
0000
1010
0000
0000
,
1001
0000
0000
0000
1010
0000
1010
0000
0000
0101
0000
0000
1010
0000
0000
1100
,
0000
0000
0011
0000
0000
0000
1000
0001
1000
0001
1000
0010
0100
0001
0100
0001
,
0100
0000
0010
0000
0100
0000
0010
0000
0100
0000
0001
0000
1000
0001
0010
0001
,
1000
0000
1000
0000
0010
0100
0001
0000
0010
0000
0100
1000
0001
1000
0001
1000
,
0100
0000
0000
0100
0000
0000
1000
0000
0000
0010
0000
0000
0100
0000
0001
0000
1000
0000
0001
0000
0000
0100
0000
0000
,
0001
0000
0010
0000
0001
0000
1000
0000
0100
0000
0010
0000
0001
0010
0001
0000
,
0100
0000
0010
1000
0010
0000
0100
0001
1000
0000
0100
0010
0001
0010
0100
1000
,
0001
0000
1000
0000
0100
0010
0001
1000
0001
0000
0100
0000
0001
0010
0001
0010
,
0001
0000
0100
0000
1000
0000
0100
0000
0010
1000
0001
0000
1000
0000
0001
0100
,
0010
0000
1000
0100
0000
0100
0010
0000
0010
0001
0000
0001
0200
0000
0000
0000
,
0301
0002
1003
2000
,
3100
0000
0200
0000
0310
0000
0001
0010
,
0100
0010
0001
0100
0010
1000
0001
0010
,
0001
0000
0010
0000
0100
0000
1000
0000
0001
0000
0100
0001
0100
0000
0010
0000
,
1000
0000
0001
0000
0010
0000
0001
0000
1000
0001
0100
0010
0100
0000
0010
0000
,
0100
0000
0001
0000
0010
0000
0001
1000
0010
0100
0001
0010
0001
0010
0100
1000
,
0100
0010
0001
1000
0010
0100
0001
1000
0001
1000
0100
0020
0002
0000
0000
0000
,
0000
0033
0000
0000
0000
0000
0000
0000
1001
0000
0000
0000
0000
0000
0000
0000
0001
0000
0000
0000
0000
0000
0000
0000
0010
0000
0000
0000
0000
0000
0000
0000
,
0001
0000
0100
0000
0010
1000
0000
1000
,
0001
0000
0010
0100
0010
0000
0100
0000
,
1000
0010
0100
0000
0010
0000
1000
0001
,
0100
0000
0010
1000
0010
0000
0100
0000
,
0001
0010
0100
0000
0100
0010
0000
0010
,
0001
0000
0001
0100
0010
1000
0001
0000
,
1000
0100
0010
0000
0010
0001
0100
0010
,
1000
0010
0100
0000
0001
0000
0010
0000
,
0100
0000
1000
0000
1000
0100
0000
0010
,
0001
0010
0100
1000
,
0010
0100
0001
0100
,
0010
0000
0100
0000
0001
0100
0001
0000
,
0100
0000
0010
0000
1000
0010
1000
0000
,
0010
0100
0010
1001
,
0000
0001
0100
0000
0010
1000
0010
0000
,
1000
1001
1000
0100
,
1000
0000
0010
0000
0100
0001
0000
0001
,
1000
0000
0100
0010
0100
0000
0010
0000
,
0001
0100
0010
0000
0100
0000
0001
1000
,
0010
0000
0100
0001
0100
0000
0010
0000
,
1000
0100
0010
0000
0010
0100
0000
0100
,
1000
0000
1000
0010
0100
0001
1000
0000
,
0001
0010
0100
0000
0100
1000
0010
0100
,
0001
0100
0010
0000
1000
0000
0100
0000
,
0010
0000
0001
0000
0001
0010
0000
0100
,
1000
0100
0010
0001
,
0100
0010
1000
0010
,
0100
0000
0010
0000
1000
0010
1000
0000
,
0010
0000
0100
0000
0001
0100
0001
0000
,
0100
0000
0010
0100
0010
1000
0001
0010
,
0100
0010
0001
1000
0010
1000
0200
0000
,
0310
0001
0100
0000
0010
1000
0001
0000
,
0010
0100
1000
0000
0001
0100
0010
0000
,
0010
0100
0010
1000
0001
0010
0100
0010
,
0001
0100
0010
1000
0100
0010
0001
0010
,
0100
1000
0010
0000
0100
0001
0010
0000
,
0100
1000
0010
0000
0100
0010
1000
0000
,
0010
1000
0010
0100
0001
0010
0100
0010
,
0001
0100
0010
1000
0100
0010
0001
0010
,
0001
1000
0100
0000
0010
0000
0001
0000
,
0010
0000
1000
0010
0000
0100
0010
0000
,
0010
0100
0001
0010
0100
1000
0100
1000
,
0010
0100
0010
1000
0001
0010
0100
1000
,
0001
0000
0001
1000
0100
0010
0100
0000
,
0110
0000
0010
0001
1000
0001
1000
0000
,
1001
1000
0100
0010
,
1001
0000
1001
0000
1000
0001
1000
0001
,
1001
0000
0001
0100
0020
0000
0130
0000
,
0100
0001
1000
0200
,
0000
0310
0001
0010
,
0100
1000
0010
0000
0100
0000
0001
0000
,
0000
0000
1010
0000
0000
0101
0000
0000
,
0011
0000
0000
0110
0000
0000
1100
0000
,
0000
1001
0000
0000
0101
0000
0000
1001
,
0000
0101
0100
0110
,
0010
1000
0100
0001
0100
0010
0100
1000
,
0100
0010
0001
1000
0010
0100
0001
0100
,
0010
1000
0001
1000
0010
0100
0010
1000
,
0100
0010
0001
0010
0100
1000
0001
0010
,
2002
0000
0000
3003
0110
0000
0000
1001
,
0000
0000
0101
0000
0000
1001
0000
0000
,
0110
0000
0000
0110
0000
0000
1001
0000
,
0000
0000
1100
0000
0000
1001
0000
0000
,
0101
0000
0000
1001
0000
0001
0100
0001
,
0010
0100
1000
0100
0010
0100
1000
0010
,
0100
2002
0000
0000
0000
0000
0000
0000
,
0000
0000
0000
0000
,
0000
0000
0000
0000
,
0000
0000
0000
0000
,
3003
0000
0000
0000
;

//---------------dance-single - ----------------
#NOTES:
     dance-single:
     :
     Medium:
     10:
     0.729785,1.000000,0.116480,0.116480,0.066560,586.000000,14.000000,14.000000,0.000000,0.000000,0.000000,0.729785,1.000000,0.116480,0.116480,0.066560,586.000000,14.000000,14.000000,0.000000,0.000000,0.000000:
0000
0000
0000
0000
,
0000
0000
0000
0000
,
0000
0000
0000
0000
,
0000
0000
0000
0000
,
0000
0000
0000
0000
,
1000
0001
0100
0001
,
0010
0000
0100
0000
0010
0001
0010
0100
,
0010
0001
0100
0010
,
1000
0000
0010
0000
0100
0001
1000
0100
,
0100
0010
0010
0001
,
0100
0000
0010
0000
1000
0010
0100
0001
,
0001
1000
0001
0100
,
0010
0000
1000
0000
0010
0100
0001
0010
,
0100
0010
0001
0000
0001
0100
1000
0000
,
1000
0100
0010
0000
0010
0100
0010
0000
,
0100
0001
1000
0001
0010
0100
1000
0100
,
1000
0000
0000
0100
0000
0000
0010
0000
0000
0100
0000
0000
1000
0000
0001
0000
,
0001
0000
0001
0000
,
0001
0010
0100
0010
,
0001
0000
1000
0000
,
0010
1000
0010
0100
,
0001
0000
0010
0000
,
0100
0010
0001
0100
,
0010
0000
1000
0000
,
0010
0010
0100
0100
,
0110
0000
1001
0000
,
0001
0010
1000
0010
,
0100
0000
1000
0000
,
0100
1000
0010
0100
,
0001
0000
0001
0000
,
1000
0100
0010
0001
,
0010
0001
1000
0010
,
1000
0001
0010
0100
,
1000
0001
0100
0001
,
0010
0000
0000
0100
0000
0000
1000
0000
,
0001
1000
0100
1000
,
0010
0000
0000
0010
0000
0000
0100
0000
,
0001
0010
0001
1000
,
0100
0000
0000
1000
0000
0000
0010
0000
,
0100
0001
1000
0100
,
0010
0000
0000
0100
0000
0000
1000
0000
,
0001
0100
0010
1000
,
1000
0001
0000
1000
0000
0001
1000
0000
,
0010
0100
0001
0010
,
0100
0010
0001
0100
,
0010
1000
0010
0100
,
0001
1000
0000
0001
0000
1000
0001
0000
,
0001
0010
0100
0100
,
0000
0000
0010
0000
0000
0000
0000
0000
0001
0000
0000
0000
1000
0000
0000
0001
,
0000
0000
0100
0000
0000
0000
0000
0000
0100
0000
0000
0001
0000
0000
0010
0000
,
0000
0001
0000
0000
0010
0000
0000
0001
0000
0000
0010
0000
0000
0000
0001
0000
,
1000
0000
0000
0000
0000
0000
0010
0000
0000
0100
0000
0000
0001
0000
0000
0100
,
0000
0000
0001
0000
0000
0000
0000
0000
0001
0000
1000
0100
0000
0000
0010
0000
,
0000
0001
0000
0000
0010
0000
0100
0000
0000
1000
0000
0000
0001
0000
0000
1000
,
0000
0000
0010
0000
0100
0000
0000
0010
0000
0000
1000
0000
0000
0010
0000
0000
,
0100
0000
0000
0000
0001
0000
0010
0000
0000
0010
0000
0000
0010
0000
0000
0100
,
0000
0100
0000
0010
0001
1000
0010
0001
,
0010
1000
0001
0010
1000
0010
0001
1000
,
0010
1000
0001
0010
0100
0000
0010
0001
,
1000
0010
0100
0001
0010
0100
0010
0001
,
1000
0010
1001
0010
1001
0000
0001
0100
,
0010
1000
0001
0010
0100
0010
0001
0100
,
0010
1000
0001
0010
0011
0000
0001
0010
,
0100
0010
0001
0100
0010
1000
0001
0010
,
0100
1000
0001
0010
0100
1000
0002
0000
,
0103
0200
0310
0020
,
1030
2000
3001
0002
,
0013
0020
0130
0200
,
1300
0000
2000
0000
3001
0000
0001
0100
,
0010
0000
0100
0010
1000
0000
0001
0010
,
0100
0000
0010
0001
0100
0000
0010
1000
,
0001
0010
1000
0010
0001
1000
0020
0000
,
0030
1000
0100
1000
,
0010
0100
0010
1000
,
0001
0010
0001
0100
,
0010
1000
0001
0100
,
0100
0001
0010
0001
,
0100
0010
1000
0010
,
0100
0001
1000
0001
,
0010
0100
0010
0001
,
1000
0010
0100
0001
,
0100
0010
1000
0010
,
1000
0001
0010
0100
,
0010
0001
1000
0001
,
1000
0001
0010
0100
,
1000
0001
0010
0100
,
1000
0001
0010
0100
,
1000
0100
0010
0001
,
0010
0100
0010
0001
,
1000
0010
1000
0001
,
0010
0001
0100
0010
,
1000
0001
1000
0001
,
1000
0001
0100
0010
,
1000
0100
0010
0100
,
1000
0010
0100
0010
,
0100
0001
0100
0010
,
0100
0001
0010
0100
,
0010
0001
1000
0010
,
0100
0001
0010
0100
,
0010
0001
1000
0010
,
0100
0001
1000
0100
,
1000
0001
0010
0100
,
0010
0001
1000
0010
,
0100
0001
1000
0020
,
0130
0010
1000
0001
,
0010
0100
1000
0100
,
1000
0100
1000
0000
1000
0001
1000
0000
,
1000
0010
1000
0000
1000
0001
1000
0000
,
0010
0100
0001
0010
,
0100
0010
0001
1000
,
0001
0100
0001
0000
0001
1000
0001
0000
,
0001
0010
0001
0000
0001
1000
0001
0000
,
0010
0100
0010
0001
,
0100
0010
1000
0001
,
0010
0100
0010
0001
,
0100
0010
1000
0001
,
0010
0010
0100
0100
,
1000
1000
0001
0001
,
1000
0100
0010
0001
,
0010
0000
0100
0000
0010
0100
0010
0100
,
1000
0000
0000
0001
0100
0000
0010
0000
,
1000
0010
0100
0002
,
0000
1003
0100
0001
,
0100
0010
0001
0100
,
0000
0000
0110
0000
0000
1010
0000
0000
,
0110
0000
0000
1001
0000
0000
0101
0000
,
0000
1010
0000
0000
1100
0000
0000
0011
,
0000
0001
0010
0100
,
0010
0100
0001
1000
,
0010
0100
0001
1000
,
0100
0010
0001
1000
,
0010
0100
0010
1000
0001
0010
0100
0000
,
2000
0000
0000
0000
3001
0000
0000
0010
,
0000
0000
0100
0000
0000
1000
0000
0000
,
1000
0000
0000
0001
0000
0000
0001
0000
,
0000
0000
0001
0000
0000
0010
0000
0000
,
0100
0000
0000
1000
0000
0000
0001
0100
,
0010
1000
0001
0100
0010
1000
0001
0100
,
0010
2002
0000
0000
0000
0000
0000
0000
,
0000
0000
0000
0000
,
0000
0000
0000
0000
,
0000
0000
0000
0000
,
3003
0000
0000
0000
;

//---------------dance-single - ----------------
#NOTES:
     dance-single:
     :
     Easy:
     8:
     0.585967,0.886082,0.291201,0.191360,0.000000,435.000000,35.000000,23.000000,0.000000,0.000000,0.000000,0.585967,0.886082,0.291201,0.191360,0.000000,435.000000,35.000000,23.000000,0.000000,0.000000,0.000000:
0000
0000
0000
0000
,
0000
0000
0000
0000
,
0000
0000
0000
0000
,
0000
0000
0000
0000
,
0000
0000
0000
0000
,
1001
0110
0000
0000
,
0000
0000
0010
0000
0000
0100
0000
0000
,
0010
0000
0000
0000
,
0000
0000
0000
0000
0100
0001
0100
0001
,
0101
1010
0000
0000
,
0000
0000
1000
0000
0000
0010
0000
0100
,
0001
0000
0000
0000
,
0000
0000
0000
0000
0001
0010
0100
1000
,
0002
0000
0000
0000
,
2000
0003
0000
0000
,
0000
0200
3000
0000
0000
0020
0300
0000
,
0002
0000
0000
0000
0000
0000
0000
0033
,
0011
0000
0011
0000
,
0001
0010
0001
0000
,
0100
0000
0010
0000
,
1000
0010
1000
0000
,
0010
0000
0100
0000
,
0001
0100
0001
0000
,
0100
0000
0010
0000
,
1000
0100
0010
0001
,
0011
0000
1100
0000
,
1000
0100
1000
0000
,
0100
0000
0010
0000
,
0100
1000
0010
0000
,
0100
0000
0001
0000
,
0100
0001
0100
0000
,
0001
0100
0010
0000
,
0100
0010
1000
0000
,
0001
0100
0010
1000
,
0001
0000
1001
0000
,
0001
0010
0100
1000
,
0100
0000
1100
0000
,
1000
0010
0100
0001
,
1000
0000
1001
0000
,
0001
0000
0100
0000
,
0010
0100
0010
0100
,
0010
1000
0001
0100
,
0010
0000
0100
0000
,
0001
0010
0100
0010
,
0001
0000
1000
0000
,
0010
1000
0001
0100
,
0010
1000
0001
0010
,
0100
1000
0001
1001
,
0000
1001
0000
0000
1001
0000
0001
0000
,
0100
0010
0100
0010
,
1000
0100
0001
0100
,
1000
0010
0001
0010
,
0100
0001
1000
0100
,
0010
0100
1000
0010
,
0001
0010
0100
0001
,
1000
0100
0010
0001
,
0010
0000
0001
0000
0100
0000
0010
0100
,
0010
0000
0100
0001
1000
0000
0001
0010
,
1000
0010
0100
0010
0100
0000
0100
1000
,
0010
0000
0100
0001
1000
0000
1000
0100
,
0010
0001
0010
0001
0010
0000
0001
0100
,
0010
0000
0100
0001
1000
0000
0100
0010
,
0001
0000
0010
0100
1000
0000
0100
1000
,
0010
0000
0100
0001
0100
0000
0001
0100
,
1000
0000
1000
0100
0010
0001
2002
0000
,
0000
0000
3003
0220
,
0000
0000
0330
2020
,
0000
0000
3030
0202
,
0000
0000
0303
0001
,
0100
0010
1000
0100
,
0010
0000
0001
0000
0010
0000
0100
0010
,
0001
0100
0010
1000
0010
0100
2002
0000
,
3003
0001
0000
1010
,
0000
0001
0000
0011
,
0000
0010
0100
0100
,
0000
0010
0001
0001
,
0000
1000
0000
0101
,
0000
0100
0000
0110
,
0000
0100
0001
1000
,
0000
0100
0010
0001
,
0000
0001
0010
0100
,
1000
0001
0000
0101
,
0000
0001
0100
1000
,
0100
0010
0000
1010
,
0000
0010
1000
0100
,
0000
0100
0001
0010
,
0000
0010
0001
0100
,
1000
0100
0010
1000
,
0000
0001
0000
1100
,
0000
0100
0000
0011
,
0000
0001
0100
0010
,
0000
0100
0010
1000
,
0000
0010
0000
0101
,
0000
0010
0000
1100
,
0000
0100
0010
0001
,
0000
1000
0001
0100
,
0000
0001
0100
0010
,
1000
0010
0000
0110
,
0000
0100
0010
0001
,
1000
0010
0000
1010
,
0000
1000
0010
0100
,
0010
1000
0001
0010
,
0001
1000
0001
0100
,
0001
1000
0010
1000
,
0100
0010
0001
0010
,
0001
0100
0010
1000
,
0010
0100
0001
1000
,
0100
0010
0100
1000
,
0010
0100
0001
1000
,
0100
1000
0010
0100
,
0001
0010
0100
1000
,
0001
0001
0100
0100
,
0010
1000
0010
0100
,
0001
0010
0001
1000
,
0100
1000
0010
0100
,
0001
1000
0001
0100
,
0001
0010
0100
1000
,
0001
0010
0100
1000
,
0001
0010
0100
1000
,
1100
0011
0201
0000
,
0310
0000
0100
0010
,
1000
1000
0010
0100
,
0000
0100
0001
0010
,
0100
0010
0001
1000
,
0000
0000
0001
0000
0000
1000
0000
0000
,
0001
0000
0000
0100
0000
0000
0001
0000
,
0000
0010
0000
0000
0100
0000
0000
1000
,
0000
0001
1000
0001
,
1001
1000
0001
0100
,
0001
0010
0100
0010
,
0001
1000
0010
0100
,
0010
1000
0001
0010
,
0100
0000
0000
0000
1000
0000
0000
0001
,
0000
0000
1000
0000
0000
0001
0000
0000
,
1000
0000
0000
0001
0000
0000
1000
0000
,
0000
0000
0001
0000
0000
1000
0000
0000
,
0001
0000
0000
1000
0000
0000
0002
0000
,
0203
0320
2030
3200
,
0320
0002
0000
0000
0000
0000
0000
0000
,
0000
0000
0000
0000
,
0000
0000
0000
0000
,
0000
0000
0000
0000
,
0033
0000
0000
0000
;

//---------------dance-single - ----------------
#NOTES:
     dance-single:
     :
     Beginner:
     4:
     0.306652,0.402221,0.266241,0.000000,0.000000,226.000000,32.000000,0.000000,0.000000,0.000000,0.000000,0.306652,0.402221,0.266241,0.000000,0.000000,226.000000,32.000000,0.000000,0.000000,0.000000,0.000000:
0000
0000
0000
0000
,
0000
0000
0000
0000
,
0000
0000
0000
0000
,
0000
0000
0000
0000
,
0000
0000
0000
0000
,
0000
0000
0000
0000
,
0000
0000
0000
0000
,
0000
0000
0000
0000
,
0000
0000
0000
0000
,
0010
0010
0000
0000
,
0000
0100
0000
0000
,
0100
0000
0000
0000
,
0000
0000
0001
0001
,
1001
0000
0000
0000
,
0110
0000
0000
0000
,
1001
0000
0000
0000
,
1001
0000
0000
0000
,
1001
0000
1001
0000
,
0000
0000
0000
0000
,
0001
0000
0000
0000
,
1000
0000
0000
0000
,
0001
0000
0001
0000
,
0000
0000
0100
0000
,
0000
0000
0010
0000
,
1000
0000
1000
0000
,
1001
0000
1001
0000
,
0000
0000
0001
0000
,
0000
0000
0001
0000
,
0000
0000
1000
0000
,
1000
0000
0001
0000
,
0000
0000
0001
0000
,
0000
0000
0100
0000
,
0000
0000
0010
0000
,
0100
0000
0100
0000
,
0100
0000
0000
0000
,
0010
0000
0010
0000
,
0010
0000
0000
0000
,
1000
0000
1000
0000
,
1000
0000
0000
0000
,
0001
0000
0001
0000
,
1000
0000
1000
0000
,
0001
0000
0100
0000
,
0010
0000
0000
0000
,
0100
0000
0010
0000
,
1000
0000
0000
0000
,
0001
0000
0001
0000
,
0001
0000
0000
0000
,
1000
0000
1001
0001
,
0000
0000
0000
1001
,
0000
0000
0110
0000
,
0000
0110
0000
0000
,
1001
0000
0110
0010
,
0000
0000
0100
0000
,
0010
0000
0000
1001
,
0000
0000
0001
0000
,
0000
1000
0000
0000
,
0001
0000
0000
1000
,
0000
0001
0000
0100
,
0000
0001
0001
1000
,
0000
0100
0000
0001
,
0000
0100
0000
0010
,
0000
0100
0000
0010
,
0000
0001
0001
1000
,
0000
0001
0000
0100
,
0000
0010
0110
0100
,
0000
0000
0000
0010
,
0000
0000
0000
1000
,
0000
0000
0000
0001
,
0000
0000
0000
0001
,
0000
1000
0000
0010
,
0000
0100
0000
0010
,
1000
0001
1000
1001
,
0000
1001
0000
1001
,
0000
1001
0000
0000
,
0000
0010
0000
0010
,
0000
0100
0000
0100
,
0000
0110
0000
0110
,
0000
0110
0000
0000
,
0000
0010
0000
0010
,
0000
1000
0000
1000
,
0000
0001
0000
0001
,
0000
0001
0000
0000
,
0000
1000
0000
1000
,
0000
1000
0000
0000
,
0000
0010
0000
0000
,
0000
0100
0000
0000
,
0000
0010
0000
0000
,
0000
1000
0000
0000
,
0000
1001
0000
1001
,
0000
1001
0000
0000
,
0000
0001
0000
1000
,
0000
0010
0000
0100
,
0000
0110
0000
0110
,
0000
0110
0000
0000
,
0000
0010
0000
0100
,
0000
0001
0000
1000
,
0000
0001
0000
0000
,
0000
0100
0000
0000
,
0000
0010
0000
0000
,
0000
1000
0000
0000
,
0000
0010
0000
0000
,
0000
0100
0000
0000
,
0000
0001
0000
0000
,
0000
1000
0000
0001
,
1001
0000
1001
0000
,
0001
0000
1000
0000
,
0001
0001
1000
0000
,
0100
0100
0010
0000
,
0010
0000
0001
0000
,
0100
0000
0010
0000
,
1000
1000
0010
0000
,
0010
0010
0100
0000
,
0010
0000
1000
0000
,
0001
0000
0010
0000
,
0100
0000
0010
0000
,
0001
0000
1000
0000
,
0010
0000
0100
0000
,
0010
0000
1000
0000
,
0001
0000
1000
0000
,
0001
0100
0001
0100
,
0001
0000
0100
0000
,
0010
1000
0010
1000
,
0000
0000
0010
0000
,
0100
0010
0100
0010
,
0000
0010
0000
0000
,
0100
0000
0000
0010
,
0000
0000
0100
0000
,
0000
0010
1000
0001
,
1000
0000
0001
0000
,
0001
0010
0100
0000
,
0010
0000
0001
0000
,
1000
0100
0001
0100
,
0010
0000
0001
0000
,
0100
0000
1000
0000
,
0100
0000
0010
0000
,
1000
0000
0001
0000
,
1000
0000
0100
0000
,
0010
0000
0001
0000
,
0000
1001
0000
0000
0000
0000
0000
0000
;

//---------------dance-single - ----------------
#NOTES:
     dance-single:
     :
     Challenge:
     14:
     1.000000,1.000000,0.956802,0.291201,0.328641,816.000000,115.000000,35.000000,0.000000,0.000000,0.000000,1.000000,1.000000,0.956802,0.291201,0.328641,816.000000,115.000000,35.000000,0.000000,0.000000,0.000000:
// measure 0
0000
0000
0000
0000
,  // measure 1
0000
0000
0000
0000
,  // measure 2
0000
0000
0000
0000
,  // measure 3
0000
0000
0000
0000
,  // measure 4
0000
0000
0000
0000
,  // measure 5
1010
0000
1010
0000
1000
0001
0010
0100
,  // measure 6
0000
0010
0001
0100
0000
0010
1000
0001
,  // measure 7
0010
0000
0100
0000
1000
0000
0001
0000
0010
0000
0000
0100
0000
0000
1000
0000
,  // measure 8
0001
0100
1000
0100
0020
1030
0020
0130
,  // measure 9
1010
0000
0101
0000
0100
0010
1000
0000
,  // measure 10
1010
0000
1100
0000
1000
0100
0010
0000
,  // measure 11
0011
0000
1001
0000
0001
0100
0010
0000
,  // measure 12
0110
0000
1001
0000
1000
1000
0100
0100
,  // measure 13
1000
0100
0010
0001
0100
0010
1000
0001
,  // measure 14
0010
0001
1000
0001
1000
0100
0010
0001
,  // measure 15
1000
0001
0100
0010
1000
0001
0100
0010
1000
0100
0010
0001
0010
0100
1000
0001
,  // measure 16
0101
0000
0000
0101
0000
0000
1100
0000
0000
1100
0000
0000
1001
0000
0010
0000
,  // measure 17
1002
0013
2001
3001
,  // measure 18
0100
0010
0000
0010
0000
0100
0001
0000
,  // measure 19
1000
0100
0010
0100
,  // measure 20
1000
0000
0000
0100
0000
0010
0000
0001
,  // measure 21
1000
0010
0100
0010
,  // measure 22
1000
0010
0000
0100
0000
0001
0010
0000
,  // measure 23
0100
0010
0001
1000
,  // measure 24
1020
1030
0120
0130
,  // measure 25
0101
0100
0101
0001
,  // measure 26
0010
0100
0000
0010
0000
0001
1000
0000
,  // measure 27
0010
0100
0001
1000
,  // measure 28
0100
0010
0000
0001
0000
0010
0000
0100
,  // measure 29
1000
0001
0100
0010
,  // measure 30
0100
0001
0000
0010
0000
0100
1000
0000
,  // measure 31
0001
1000
0001
0100
0010
1000
0001
0010
,  // measure 32
0200
0310
0200
1300
0200
0310
0002
1003
,  // measure 33
0001
0100
0010
1000
,  // measure 34
0010
1000
0000
0010
0000
0100
0001
0000
,  // measure 35
1000
0100
1000
0001
,  // measure 36
1000
0010
0000
1000
0000
0010
0100
0000
,  // measure 37
0001
0010
0100
0010
,  // measure 38
0001
0010
0000
0001
0000
1000
0010
0000
,  // measure 39
0100
0010
1000
0001
,  // measure 40
0120
0130
2100
3100
,  // measure 41
1100
0100
1100
1000
,  // measure 42
0001
0100
0000
0010
0000
0100
0001
0000
,  // measure 43
1000
0100
1000
0001
,  // measure 44
0100
0010
0000
0100
0000
0001
0000
1000
,  // measure 45
0010
0100
0001
1000
,  // measure 46
0100
0010
0100
1000
,  // measure 47
0001
0100
0010
1000
1002
0003
1001
0000
,  // measure 48
0000
0000
0101
0000
0000
0000
0000
0000
1010
0000
0000
0000
1100
0000
0000
1001
,  // measure 49
0000
0000
1100
0000
0000
0000
0000
0000
0101
0000
0000
1010
0000
0000
0110
0000
,  // measure 50
0000
1010
0000
0000
0110
0000
0000
0101
0000
0000
1100
0000
0000
0000
1001
0000
,  // measure 51
1001
0000
0000
0000
0000
0000
0101
0000
0000
1100
0000
0000
0101
0000
0000
1100
,  // measure 52
0000
0000
1001
0000
0000
0000
0000
0000
1010
0000
0100
0001
0000
0000
0101
0000
,  // measure 53
0000
1100
0000
0000
0110
0000
1100
0000
0000
0011
0000
0000
1010
0000
0000
1100
,  // measure 54
0000
0000
1001
0000
0101
0000
0000
1100
0000
0000
0101
0000
0000
1001
0000
0000
,  // measure 55
1100
0000
0000
0000
1001
0000
1010
0000
0000
0011
0000
0000
1010
0000
0000
1100
,  // measure 56
0000
0000
0011
0000
0000
0000
1000
0001
1000
0001
1000
0010
0200
0302
0203
0302
,  // measure 57
0203
0000
0000
0000
0000
0000
0310
0000
0000
0100
0000
0000
0002
0000
0000
0000
0000
0000
0013
0000
0000
0000
0000
0000
0100
0000
0000
0000
0000
0000
1000
0000
0000
0000
0000
0000
1000
0000
0001
0000
1000
0000
0001
0000
1000
0000
0001
0000
,  // measure 58
1000
0010
1000
0000
0010
0100
0001
0000
0010
0000
0100
1000
0001
1000
0001
1000
,  // measure 59
0100
0000
0000
0000
0000
0000
1100
0000
0000
0000
0000
0000
1000
0000
0000
0200
0000
0000
0010
0000
0000
0300
0000
0000
0100
0000
0000
0000
0001
0000
0000
0000
1000
0000
0000
0000
0002
0000
0000
0000
0000
0000
0200
0000
0000
0003
0000
0000
,  // measure 60
0002
0300
0013
0001
1000
0000
0010
0000
0100
0000
0010
0000
1000
0010
1000
0000
,  // measure 61
0001
0000
1000
0001
0010
0000
0100
1000
0010
0000
0100
0010
0100
0001
0100
0010
,  // measure 62
1000
0000
0001
0000
0100
0010
0100
0010
1000
0000
0001
0000
0001
0010
0001
0010
,  // measure 63
0001
0000
0010
0000
0001
0000
0010
0000
0000
0000
0000
0000
0001
0000
0000
0100
0000
0000
0010
0000
0000
0000
0000
0000
0100
0000
0000
0010
0000
0000
1000
0000
0000
0000
0000
0000
0001
0000
0000
0000
0000
0000
0001
0000
0000
0100
0000
0000
,  // measure 64
0010
0000
1000
0100
1000
0100
0010
0001
0010
0001
1000
0001
1001
0000
0000
0000
,  // measure 65
0110
0000
0001
0100
0010
1000
0010
0100
,  // measure 66
0001
0000
0010
0000
0100
0000
0010
0000
0001
0000
1000
0010
1000
0000
1000
0000
,  // measure 67
0100
0010
0001
0100
0010
1000
0001
0010
,  // measure 68
0001
0000
0010
0000
0100
0000
1000
0000
0001
0000
0100
0001
0100
0000
0010
0000
,  // measure 69
1000
0000
0001
0000
0010
0000
0001
0000
1000
0001
0100
0010
0100
0000
0010
0000
,  // measure 70
0100
0000
0001
0000
0010
0000
0001
1000
0010
0100
0001
0010
0001
0010
0100
1000
,  // measure 71
0100
0010
0001
1000
0010
0100
0001
1000
0001
1000
0100
0020
0002
0000
0000
0000
,  // measure 72
0000
0033
0000
0000
0000
0000
0000
0000
1001
0000
0000
0000
0000
0000
0000
0000
0001
0000
0000
0000
0000
0000
0000
0000
0010
0000
0000
0000
0000
0000
0000
0000
,  // measure 73
0001
0000
0100
0000
0010
1000
0000
1000
,  // measure 74
0001
0000
0010
0100
0010
0000
0100
0000
,  // measure 75
1000
0010
0100
0000
0010
0000
1000
0001
,  // measure 76
0100
0000
0010
1000
0010
0000
0100
0000
,  // measure 77
0001
0010
0100
0000
0100
0010
0000
0010
,  // measure 78
0001
0000
0001
0100
0010
1000
0001
0000
,  // measure 79
1000
0100
0010
0000
0010
0001
0100
0010
,  // measure 80
1000
0010
0100
0000
0001
0000
0010
0000
,  // measure 81
0100
0000
1000
0000
1000
0100
0000
0010
,  // measure 82
0001
0010
0100
1000
,  // measure 83
0010
0100
0001
0100
,  // measure 84
0010
0000
0100
0000
0001
0100
0001
0000
,  // measure 85
0100
0000
0010
0000
1000
0010
1000
0000
,  // measure 86
0010
0100
0010
1001
,  // measure 87
0000
0001
0100
0000
0010
1000
0010
0000
,  // measure 88
1000
1001
1000
0100
,  // measure 89
1000
0000
0010
0000
0100
0001
0000
0001
,  // measure 90
1000
0000
0100
0010
0100
0000
0010
0000
,  // measure 91
0001
0100
0010
0000
0100
0000
0001
1000
,  // measure 92
0010
0000
0100
0001
0100
0000
0010
0000
,  // measure 93
1000
0100
0010
0000
0010
0100
0000
0100
,  // measure 94
1000
0000
1000
0010
0100
0001
1000
0000
,  // measure 95
0001
0010
0100
0000
0100
1000
0010
0100
,  // measure 96
0001
1000
1010
0000
1000
0000
0100
0000
,  // measure 97
0010
0000
0001
0000
0001
0010
0000
0100
,  // measure 98
1000
1100
1000
0001
,  // measure 99
0100
0010
1000
0010
,  // measure 100
0100
0000
1001
0000
1000
0010
1000
0000
,  // measure 101
0010
0000
0101
0000
0001
0100
0001
0000
,  // measure 102
0100
0000
0010
0100
0010
1000
0001
0010
,  // measure 103
0100
0010
0001
1000
0010
1000
0200
0000
,  // measure 104
0310
0001
0010
0001
1000
0001
1000
0001
,  // measure 105
1000
0010
1000
0010
0100
0010
0100
0010
,  // measure 106
1000
0001
0010
0100
1000
0100
0010
0001
,  // measure 107
0100
0010
1000
0001
0010
0001
1000
0010
,  // measure 108
0100
0001
0100
0001
0100
0010
0100
0010
,  // measure 109
1000
0010
1000
0010
1000
0001
0100
0001
,  // measure 110
0010
0001
0100
0010
1000
0100
0010
0001
,  // measure 111
2000
3010
0200
0310
2000
3001
0020
0130
,  // measure 112
0010
0001
0100
0010
1000
0001
1000
0001
,  // measure 113
0100
0001
0100
0001
0100
0010
1000
0001
,  // measure 114
0010
0100
1000
0010
1000
0100
1000
0100
,  // measure 115
0010
0100
0010
0001
1000
0010
0100
0001
,  // measure 116
0010
0000
0100
1000
0010
0000
1010
0000
,  // measure 117
0110
0000
0100
0001
0010
0000
0011
0000
,  // measure 118
1100
0000
1000
0001
0100
0010
1000
0001
,  // measure 119
0011
0000
0011
0000
0011
0010
0100
1000
,  // measure 120
1001
0000
0001
0100
0010
0000
0101
0000
,  // measure 121
0110
1001
1100
0200
,  // measure 122
0000
0310
0011
0110
,  // measure 123
1100
0000
1010
0000
0100
0001
1000
0000
,  // measure 124
0000
0000
1010
0000
0000
0101
0000
0000
,  // measure 125
0011
0000
0000
0110
0000
0000
1100
0000
,  // measure 126
0000
1001
0000
0000
0101
0000
0000
1001
,  // measure 127
0000
0101
0100
0110
,  // measure 128
0010
1000
0100
0001
0100
0010
0100
1000
,  // measure 129
0100
0010
0001
1000
0010
0100
0001
0100
,  // measure 130
0010
1000
0001
1000
0010
0100
0010
1000
,  // measure 131
0100
0010
0001
0010
0100
1000
0001
0010
,  // measure 132
2002
0000
0000
3003
0101
0000
0000
1001
,  // measure 133
0000
0000
1010
0000
0000
1100
0000
0000
,  // measure 134
0101
0000
0000
0011
0000
0000
1100
0000
,  // measure 135
0000
0000
0101
0000
0000
1100
0000
0000
,  // measure 136
1001
0000
0000
1100
0000
0100
0010
0001
,  // measure 137
0100
1000
0010
1000
0001
0010
0100
1000
,  // measure 138
0010
2002
0000
0000
0000
0000
0000
0000
,  // measure 139
0000
0000
0000
0000
,  // measure 140
0000
0000
0000
0000
,  // measure 141
0000
0000
0000
0000
,  // measure 142
3003
0000
0000
0000
;
