#VERSION:0.81;
#TITLE:Masquerade;
#SUBTITLE:;
#ARTIST:M2U;
#TITLETRANSLIT:;
#SUBTITLETRANSLIT:;
#ARTISTTRANSLIT:;
#GENRE:;
#ORIGIN:;
#CREDIT:;
#BANNER:Masquerade.png;
#BACKGROUND:Masquerade-bg.png;
#PREVIEWVID:;
#JACKET:Masquerade jk.png;
#CDIMAGE:;
#DISCIMAGE:;
#LYRICSPATH:;
#CDTITLE:;
#MUSIC:Masquerade.mp3;
#OFFSET:-1.975999;
#SAMPLESTART:50.730045;
#SAMPLELENGTH:12.000000;
#SELECTABLE:YES;
#BPMS:0.000=128.000;
#STOPS:;
#DELAYS:;
#WARPS:;
#TIMESIGNATURES:0.000=4=4;
#TICKCOUNTS:0.000=4;
#COMBOS:0.000=1;
#SPEEDS:0.000=1.000=0.000=0;
#SCROLLS:0.000=1.000;
#FAKES:;
#LABELS:0.000=Song Start;
#BGCHANGES:;
#KEYSOUNDS:;
#ATTACKS:
;

//---------------dance-single - ----------------
#NOTEDATA:;
#CHARTNAME:;
#STEPSTYPE:dance-single;
#DESCRIPTION:;
#CHARTSTYLE:;
#DIFFICULTY:Hard;
#METER:7;
#RADARVALUES:0.414594,0.409066,0.055279,0.179657,0.010365,386.000000,8.000000,26.000000,0.000000,0.000000,0.000000,0.000000,0.000000,0.414594,0.409066,0.055279,0.179657,0.010365,386.000000,8.000000,26.000000,0.000000,0.000000,0.000000,0.000000,0.000000;
#CREDIT:;
#NOTES:
0000
0000
0000
0000
,
0000
0000
0000
0000
,
0000
0000
0000
0000
,
0000
0000
0000
0000
,
0001
0000
1000
0000
,
0100
0000
0010
0000
,
0001
0000
1000
0000
,
0100
0100
0100
0100
,
0000
1000
0100
0000
0000
1000
0001
0000
,
0000
0001
0010
0100
1000
0000
0010
0000
,
0200
0000
0000
0310
1000
0000
0001
0000
,
2000
0000
0000
3100
1000
0000
0010
0000
,
0200
0000
0000
0310
0100
0000
0001
1000
,
0200
0000
1300
0010
1000
0000
0010
0000
,
0200
0000
0310
1000
0002
0000
0013
0100
,
1000
0100
1000
1000
0002
0000
0103
0001
,
2000
0000
3100
1000
0010
0000
0100
0000
,
0010
0100
0001
0010
0100
0000
1100
0000
,
1000
0000
0001
0000
0100
0001
0100
0000
,
0001
0000
1000
0000
0010
1000
0010
0000
,
1000
0000
0100
0000
0010
0000
0001
0010
,
0100
0000
0010
0000
0001
1000
0010
1000
,
0001
0000
1000
0000
0100
0010
0100
0000
,
1000
0000
0010
0100
0001
1000
0100
1000
,
0001
0000
1000
0100
1000
0000
0010
0000
,
0100
1000
0100
0001
0010
0000
0100
0000
,
0010
0100
0010
0100
0010
0100
0010
0000
,
0100
1000
0100
1000
0100
1000
0100
0000
,
1000
0001
1000
0001
0100
0001
1000
0100
,
0020
0000
0000
0000
0000
0000
0130
1000
,
0001
0100
0001
1000
0001
1000
0001
0000
,
1000
0100
0010
0100
0010
0100
0010
0001
,
0010
0000
0100
0010
0001
0000
1000
0000
,
0100
0000
1000
0001
0100
1000
0100
0010
,
1000
0010
0100
0001
1000
0010
0100
0000
,
0010
0100
0001
1000
0010
0100
0001
0000
,
1000
0100
0010
0001
0010
0100
0010
0001
,
2000
0000
0000
0000
0000
0000
3001
0010
,
0100
0010
0001
1000
0010
1000
0001
0000
,
1000
0100
0010
0100
1000
0001
0100
0001
,
1000
0000
0100
1000
0010
0000
0100
0010
,
1000
0001
0010
0100
1000
0000
1001
0000
,
0002
0000
0003
1000
2000
0000
3000
0001
,
0002
0000
0003
0010
0020
0000
0030
0001
,
0002
0000
0003
1000
2000
0000
3000
0100
,
0100
0100
0100
0100
,
1000
0000
0000
0100
0000
0000
1000
0000
0010
0000
0000
0100
0000
0000
0001
0000
,
1000
0000
0000
1000
0000
0000
1000
0000
0001
0000
1000
0000
0002
0000
0000
0000
,
0103
0000
0000
0010
2000
0000
3000
0010
,
0100
0000
0100
0000
0010
0100
0001
1000
,
0100
0000
1100
0000
0100
1000
0010
0000
,
0100
0000
0101
0000
0001
1000
0010
0000
,
1000
0000
0101
0000
0001
1000
0010
0000
,
0100
0010
1000
0001
0100
0010
1000
0001
,
0100
0010
1000
0000
0010
0100
0001
0000
,
1000
0000
0100
1000
0100
0010
0001
0010
,
0100
0010
0001
1000
,
0010
0100
0001
1000
0010
0000
1001
0000
,
0002
0100
0100
0103
,
0020
0100
0100
0130
,
0020
0130
0200
0310
,
2002
0000
0000
0000
3003
0000
1000
0001
,
0100
0001
1000
0100
0010
0100
1000
0000
,
0100
1000
0010
0100
0001
0010
0100
0010
,
0001
0000
1000
0100
1000
0100
0010
0001
,
1000
0001
0100
0001
,
1000
0100
0001
0100
0010
0001
0100
0000
,
0001
0100
1000
0100
0010
1000
0001
0000
,
1000
0100
0001
0100
0010
0100
1000
0001
,
0200
0000
0000
0000
0000
0000
0310
0100
,
0001
0100
1000
0100
0010
1000
0001
0000
,
1000
0100
0001
0100
1000
0010
0100
0010
,
1000
0000
0010
0100
0001
0000
0100
0010
,
1000
0001
0010
0100
1000
0000
2001
0000
,
3000
0000
0000
0000
;

//---------------dance-single - ----------------
#NOTEDATA:;
#CHARTNAME:;
#STEPSTYPE:dance-single;
#DESCRIPTION:;
#CHARTSTYLE:;
#DIFFICULTY:Medium;
#METER:5;
#RADARVALUES:0.326739,0.382204,0.069099,0.124378,0.000000,303.000000,10.000000,18.000000,0.000000,0.000000,0.000000,0.000000,0.000000,0.326739,0.382204,0.069099,0.124378,0.000000,303.000000,10.000000,18.000000,0.000000,0.000000,0.000000,0.000000,0.000000;
#CREDIT:;
#NOTES:
0000
0000
0000
0000
,
0000
0000
0000
0000
,
0000
0000
0000
0000
,
0000
0000
0000
0000
,
1000
0000
0100
0000
,
1000
0000
0001
0000
,
0100
0000
0001
0000
,
1000
0000
1000
0000
1000
0001
1000
0000
,
0000
0010
1000
0000
0000
0010
0100
0000
,
0010
0100
1001
0001
,
2000
0000
0000
3100
1000
0000
0010
0000
,
0200
0000
0000
0310
0100
0000
0001
0000
,
0020
0000
0000
0130
0010
0000
0001
0000
,
2000
3100
2000
3001
,
0100
0000
0001
0100
0001
0000
0100
0010
,
1000
0010
0100
0001
,
1000
0100
1000
0001
,
0100
0001
0010
0100
1000
0000
1001
0000
,
0001
0100
0010
0010
,
0100
0001
1000
1000
,
0100
0000
1000
0000
0010
0000
0100
0010
,
1000
0010
0100
0001
,
1000
0100
0001
0100
,
1000
0000
0010
0100
0001
0000
1001
0000
,
1000
0001
0100
0001
,
1000
0000
0001
0010
0100
0000
0110
0000
,
0100
0000
1000
0000
0010
0100
0010
0000
,
0100
0000
0001
0000
1000
0001
0100
0000
,
0001
1000
0100
1000
,
0020
0000
0000
0130
,
0001
0000
1000
0000
0100
0010
0001
0000
,
0010
0000
0100
0000
0010
0001
1000
0000
,
0001
0100
0010
0100
,
0002
0103
0200
0310
,
0100
0000
0010
0000
1000
0010
0100
0000
,
0010
0000
1000
0000
0001
0010
0100
0000
,
0010
0001
1000
0100
,
0020
0000
0000
0130
,
1000
0000
0001
0000
0100
0001
0010
0000
,
0100
0000
1000
0000
0100
0010
0001
0000
,
1000
0000
0001
0100
0001
0000
1000
0000
,
0001
1000
0100
0010
0001
0000
1001
0000
,
0001
0000
1000
0000
,
0001
0000
1000
0000
,
0001
0000
1000
0000
,
0001
0001
1000
1000
,
0020
0030
2000
3000
,
0002
1000
2000
3003
,
2000
3000
0200
0300
,
1000
0000
1000
0000
0001
1000
0001
1000
,
1001
0000
0001
0000
0100
0000
0010
0100
,
0001
0000
1000
0000
0100
0010
0001
0000
,
0010
0000
0100
0000
1000
0100
1000
0000
,
0100
0100
0010
0010
,
0001
0010
0100
0010
,
0001
0000
1000
0100
0010
0001
0010
0000
,
0001
1000
0100
1000
,
0001
0100
0010
1000
0001
0000
1001
0000
,
1000
0001
0000
0001
,
0000
0100
0000
0001
,
0000
1000
0001
0100
,
0020
0000
0000
0230
,
0301
0000
1000
0000
0100
1000
0100
0000
,
1000
0000
0010
0000
0100
0010
0100
0000
,
0010
0000
1000
0010
0100
0000
0001
0000
,
1000
1001
0001
1001
,
0001
0100
0001
0100
0001
0100
0001
0000
,
0100
0010
0100
0010
0100
0010
0100
0000
,
0010
0000
1000
0010
0100
0001
0100
0010
,
2000
0000
0000
3001
,
1000
0100
1000
0100
1000
0100
1000
0000
,
0100
0010
0100
0010
0100
0010
0100
0000
,
0010
0001
0010
0001
0010
0001
0010
0100
,
1000
0001
0100
0010
1000
0000
1001
0000
;

//---------------dance-single - ----------------
#NOTEDATA:;
#CHARTNAME:;
#STEPSTYPE:dance-single;
#DESCRIPTION:;
#CHARTSTYLE:;
#DIFFICULTY:Easy;
#METER:3;
#RADARVALUES:0.241846,0.229322,0.048369,0.048369,0.000000,231.000000,7.000000,7.000000,0.000000,0.000000,0.000000,0.000000,0.000000,0.241846,0.229322,0.048369,0.048369,0.000000,231.000000,7.000000,7.000000,0.000000,0.000000,0.000000,0.000000,0.000000;
#CREDIT:;
#NOTES:
0000
0000
0000
0000
,
0000
0000
0000
0000
,
0000
0000
0000
0000
,
0000
0000
0000
0000
,
0001
0000
0100
0000
,
0001
0000
0010
0000
,
0001
0000
1000
0000
,
0001
0001
0001
0000
,
1000
0000
0001
0000
,
0100
0010
1000
0001
,
0020
0000
0130
0010
,
0002
0000
0013
0001
,
2000
0000
3001
0100
,
0010
0100
0001
1000
,
0100
1000
0010
1000
,
0001
0010
0100
0010
,
0001
0100
0001
1000
,
0001
1000
0100
1001
,
0001
1000
0010
0010
,
1000
0001
0010
0010
,
0001
0100
0010
1000
,
0010
0100
0001
1000
,
0010
0100
0001
1000
,
0100
1000
0100
0010
,
0100
1000
0010
0100
,
0001
0010
0100
1001
,
0001
0100
0001
0001
,
0100
0010
1000
1000
,
0010
0100
0010
1000
,
0002
0000
0000
1003
,
0001
0100
0010
0010
,
0100
0001
1000
1000
,
0100
1000
0010
0100
,
0001
1000
0100
1000
,
1001
0001
1000
1000
,
0001
0100
0001
0001
,
0100
0010
1000
0001
,
0020
0000
0000
0130
,
1000
0100
1000
1000
,
0100
0010
0001
0001
,
0100
0001
1000
0001
,
1000
0010
0100
1001
,
0001
0000
0001
0000
,
0001
0000
0001
0000
,
0001
0000
0001
0000
,
0001
0001
0001
0000
,
1000
0000
0001
0000
,
1000
0001
1000
0000
,
0001
0000
1000
0000
,
0001
1000
1000
0000
,
0010
0000
0100
0000
,
0001
0100
0010
0100
,
0001
0000
1000
0000
,
0100
0100
0010
0010
,
0001
0000
0100
0000
,
0001
1000
0100
1000
,
0010
0000
0100
0000
,
0001
0010
0100
0110
,
0100
0000
0000
0000
,
1000
0000
0000
0000
,
0001
0000
1000
0000
,
0020
0000
0000
0130
,
0010
1000
0010
0010
,
0100
0001
1000
1000
,
0001
0100
0001
1000
,
0100
1000
0010
0100
,
0110
0100
0010
0010
,
0100
0001
1000
1000
,
0001
1000
0010
0100
,
0020
0000
0000
0130
,
0001
0010
0100
0100
,
0010
0001
1000
1000
,
0100
1000
0010
0100
,
0010
0100
0001
1001
;

//---------------dance-single - ----------------
#NOTEDATA:;
#CHARTNAME:;
#STEPSTYPE:dance-single;
#DESCRIPTION:;
#CHARTSTYLE:;
#DIFFICULTY:Beginner;
#METER:1;
#RADARVALUES:0.104636,0.178362,0.041459,0.000000,0.000000,100.000000,6.000000,0.000000,0.000000,0.000000,0.000000,0.000000,0.000000,0.104636,0.178362,0.041459,0.000000,0.000000,100.000000,6.000000,0.000000,0.000000,0.000000,0.000000,0.000000,0.000000;
#CREDIT:;
#NOTES:
0000
0000
0000
0000
,
0000
0000
0000
0000
,
0000
0000
0000
0000
,
0000
0000
0000
0000
,
0001
0000
0100
0000
,
0001
0000
0100
0000
,
0001
0000
0100
0000
,
0001
0001
0001
0000
,
1000
0000
0001
0000
,
0100
0000
0000
0000
,
0010
0000
0000
0000
,
1000
0000
0000
0000
,
0100
0000
0000
0000
,
1000
0000
0001
0000
,
0100
0000
0000
0000
,
0001
0000
0000
0000
,
1000
0000
0000
0000
,
0010
0000
0100
0000
,
1001
0000
0000
0000
,
0001
0000
0000
0000
,
0100
0000
0000
0000
,
0001
0000
0000
0000
,
0010
0000
0000
0000
,
0100
0000
0000
0000
,
0010
0000
0000
0000
,
0001
0000
1000
0000
,
1001
0000
0000
0000
,
0010
0000
0000
0000
,
0100
0000
0001
0000
,
1000
0000
0000
0000
,
0001
0000
0000
0000
,
0100
0000
0000
0000
,
0010
0000
0000
0000
,
1000
0000
0001
0000
,
1001
0000
0000
0000
,
0010
0000
0000
0000
,
1000
0000
0100
0000
,
1000
0000
0000
0000
,
0001
0000
0000
0000
,
0010
0000
0000
0000
,
0100
0000
1000
0000
,
0001
1000
0010
0100
,
0010
0000
0000
0000
,
0000
0000
0000
0000
,
0000
0000
0000
0000
,
1000
1000
1000
0000
,
0001
0000
1000
0000
,
0010
0000
0000
0000
,
0100
0000
0100
0000
,
0010
0010
0010
0000
,
1001
0000
0001
0000
,
1000
0000
0000
0000
,
0100
0000
1000
0000
,
0001
0000
0000
0000
,
1000
0000
0000
0000
,
0001
0000
0000
0000
,
0100
0000
0000
0000
,
0010
0000
0100
0000
,
0001
0000
0000
0000
,
1000
0000
0000
0000
,
0100
0000
1000
0000
,
0010
0000
0000
0000
,
0100
0000
0000
0000
,
0001
0000
0000
0000
,
0100
0000
0000
0000
,
0010
0000
1000
0000
,
1001
0000
0000
0000
,
0001
0000
0000
0000
,
1000
0000
0010
0000
,
0100
0000
0000
0000
,
0001
0000
0000
0000
,
1000
0000
0000
0000
,
0100
0000
1000
0000
,
0010
0100
0001
1001
;

//---------------dance-single - ----------------
#NOTEDATA:;
#CHARTNAME:;
#STEPSTYPE:dance-single;
#DESCRIPTION:;
#CHARTSTYLE:;
#DIFFICULTY:Challenge;
#METER:10;
#RADARVALUES:0.666311,0.662486,0.124378,0.290216,0.549337,615.000000,18.000000,42.000000,0.000000,0.000000,0.000000,0.000000,0.000000,0.666311,0.662486,0.124378,0.290216,0.549337,615.000000,18.000000,42.000000,0.000000,0.000000,0.000000,0.000000,0.000000;
#CREDIT:;
#NOTES:
// measure 0
0000
0000
0000
0000
,  // measure 1
0000
0000
0000
0000
,  // measure 2
0000
0000
0000
0000
,  // measure 3
0000
0000
0000
0000
,  // measure 4
1001
0001
0010
0000
1001
1000
0010
0000
,  // measure 5
1001
0001
0010
0000
1001
1000
0010
0000
,  // measure 6
1001
0100
0001
0000
1001
0100
1000
0000
,  // measure 7
1100
0000
0000
0000
1100
0000
0000
0011
0000
0001
0100
0001
0020
0000
0000
0000
,  // measure 8
0130
0000
1000
0000
1000
0000
0100
0010
0001
0000
1000
0000
1000
0000
0001
0100
,  // measure 9
0010
1000
0100
0010
0100
0000
2000
0000
,  // measure 10
3020
0000
0000
0000
0000
0000
0000
0000
0000
0000
0000
0000
0000
0000
0000
0000
0000
0000
0130
0000
0000
0001
0000
0000
1000
0000
0001
0000
1000
0000
0000
0000
0000
0000
0000
0000
0001
0000
0000
0000
0000
0000
0100
0000
0000
0000
0000
0000
,  // measure 11
0002
0000
0000
0000
0000
0000
1003
0001
0100
0000
0010
0000
1000
0000
0001
0000
,  // measure 12
0020
0000
0000
0000
0000
0130
1000
0001
1000
0000
0001
0100
0010
1000
0001
0100
,  // measure 13
0020
0000
0000
0000
1030
0000
0001
0000
0010
0000
0100
1000
0100
0000
1000
0000
,  // measure 14
0002
0000
0103
0001
0020
0000
0031
0100
,  // measure 15
0010
1000
0010
0001
0020
0000
0130
0001
,  // measure 16
2000
0000
3001
0100
0001
0010
1000
0010
,  // measure 17
0100
1000
0100
0010
0001
0000
1001
0000
,  // measure 18
0001
0000
0000
0000
0000
0000
0100
0000
0000
0000
0000
0000
0010
0000
0000
0000
0000
0000
0100
0000
0000
0001
0000
0000
0010
0000
0000
0000
0000
0000
0010
0000
0000
0001
0000
0000
0100
0000
0000
0000
0000
0000
0001
0000
0000
0000
1000
0000
,  // measure 19
0001
0000
0000
0000
0000
0000
0100
0000
0000
0000
0000
0000
0010
0000
0000
0000
0000
0000
0100
0000
0000
0010
0000
0000
1000
0000
0000
0000
0000
0000
0001
0000
0000
1000
0000
0000
0100
0000
0000
0000
0000
0000
0010
0000
0000
0000
0001
0000
,  // measure 20
0010
0000
0100
0000
1000
0000
0010
1000
0100
0000
0000
0000
0100
0010
0001
0010
,  // measure 21
0001
0000
1000
0000
0010
0000
0100
0001
0100
0000
0100
0010
1000
0100
1000
0001
,  // measure 22
0100
0000
0010
0000
1000
0000
0001
0010
0001
0000
0010
0000
0100
0000
1000
0010
,  // measure 23
1000
0000
0000
0001
0100
0001
0010
0001
1000
0000
0010
0000
0100
0000
0001
0100
,  // measure 24
0001
0000
0000
0000
0000
0000
0000
0000
0000
0000
0100
0000
0010
0000
0000
0100
0000
0000
0001
0000
0000
1000
0000
0000
0100
0000
0000
1000
0000
0000
0001
0000
0000
0010
0000
0000
0100
0000
0000
1000
0000
0000
0001
0000
0000
1000
0000
0000
,  // measure 25
0010
0000
1000
0000
0010
0000
0100
0000
0001
0000
0000
1000
1001
0000
0000
0000
,  // measure 26
0001
0000
0010
0000
1000
0000
0010
0100
0010
0000
0100
1000
0100
0000
1000
0000
,  // measure 27
0010
0000
0100
0000
0001
0000
0010
0001
0010
0000
0001
0100
0001
0000
0100
0000
,  // measure 28
0010
0000
0000
0100
0010
1000
0001
0010
0001
0000
0010
0100
0010
0000
0100
1000
,  // measure 29
0200
0000
0000
0000
0000
0000
1300
0010
,  // measure 30
0001
0000
1000
0000
0010
0000
1000
0010
1000
0000
0010
1000
0010
0000
0100
0000
,  // measure 31
0001
0000
0010
0000
0001
0000
1000
0001
1000
0000
0001
1000
0001
0000
1000
0001
,  // measure 32
0010
0000
0000
0100
1000
0010
0100
0001
1000
0000
0001
0100
0001
0000
0100
0010
,  // measure 33
1000
0000
0000
0000
0000
0000
0000
0000
0000
0000
0001
0000
1000
0000
0000
0000
0000
0000
0100
0000
0000
0010
0000
0000
0001
0000
0000
0000
0000
0000
1000
0000
0000
0000
0000
0000
0010
0000
0000
0000
0000
0000
0100
0000
0000
0010
0000
0000
,  // measure 34
1000
0000
0100
0000
0001
0000
0100
0010
0100
0000
0010
0001
0010
0000
0001
0000
,  // measure 35
0100
0000
0010
0000
1000
0000
0100
1000
0100
0000
1000
0010
1000
0000
0010
0000
,  // measure 36
0100
0000
0000
0010
0100
0001
1000
0100
1000
0000
0100
0010
0100
0000
0010
0001
,  // measure 37
0020
0000
0000
0000
0000
0000
0031
0100
,  // measure 38
1000
0000
0001
0000
0100
0000
0001
0100
0001
0000
0100
0001
0100
0000
0010
0000
,  // measure 39
1000
0000
0100
0000
1000
0000
0001
1000
0001
0000
1000
0001
1000
0000
0001
1000
,  // measure 40
0100
0000
0000
0010
0001
0100
0010
1000
0001
0000
1000
0000
0100
0000
1000
0000
,  // measure 41
0001
0010
0100
1000
0001
0000
1010
0000
,  // measure 42
2000
0020
3030
0100
0020
2000
3030
0001
,  // measure 43
0020
0200
0330
0100
0020
0002
0033
1000
,  // measure 44
0002
0200
0303
0001
2000
0200
3300
0200
,  // measure 45
2000
0000
3300
0000
2000
0000
3001
1000
0002
0000
0000
0000
0203
0000
0000
0000
,  // measure 46
0320
0000
0000
1030
0000
0000
0001
0000
0020
0000
0000
0130
0000
0000
0010
0000
,  // measure 47
0002
0000
0000
2003
0000
0000
3010
1000
0200
0000
0320
0000
0002
0000
0033
0000
,  // measure 48
0001
0200
0000
0310
2000
0200
3300
0100
,  // measure 49
1000
0000
0000
0000
0000
0000
0000
0000
0000
0000
0000
0000
1000
0000
0000
0000
0000
0000
0000
0000
0000
0000
0000
0000
0001
0000
1000
0000
0001
0000
2000
0000
0000
0000
0000
0000
3001
0000
0000
0010
0000
0000
0100
0000
0000
1000
0000
0000
,  // measure 50
0010
0000
0000
0000
0000
0000
0100
0000
0000
0000
0000
0000
0001
0000
0000
0000
0000
0000
1000
0000
0000
0000
0100
0000
1000
0000
0000
0000
0000
0000
0100
0000
0000
1000
0000
0000
0010
0000
0000
0100
0000
0000
0001
0000
0000
0010
0000
0000
,  // measure 51
0001
0000
0000
0000
0000
0000
0001
0000
0100
0000
0010
0000
1000
0000
0001
0010
0001
0000
0000
0000
1000
0000
0001
0000
1000
0000
0001
0000
1000
0000
0010
0000
,  // measure 52
1000
0000
0000
0010
0100
0000
0000
0100
0001
0000
0000
0001
1000
0000
0000
1000
,  // measure 53
0100
0000
0000
0010
0000
0000
0100
0000
0000
1000
0000
0000
0001
0000
0000
0100
0000
0000
0001
0000
0000
1000
0000
0000
0100
0000
0010
0000
0001
0000
1000
0000
0000
0001
0000
0000
0100
0000
0000
0000
0000
0000
0001
0000
0000
0000
0000
0000
,  // measure 54
0010
0000
0100
1000
0010
0000
0100
0000
0001
0000
1000
0001
0100
0000
0001
0000
,  // measure 55
0010
0100
0010
0001
0010
0100
0010
0001
1000
0010
0100
0000
0010
0000
1000
0001
,  // measure 56
0010
0000
0000
0000
0000
0000
0000
0000
0000
0010
0000
0000
0100
0000
1000
0000
0001
0000
1000
0000
0000
0100
0000
0000
0010
0000
0000
0001
0000
0000
0010
0000
0000
0100
0000
0000
0010
0000
0000
0001
0000
0000
1000
0000
0000
0100
0000
0000
,  // measure 57
0010
0100
1000
0010
0100
0000
1001
0000
,  // measure 58
0001
0100
0010
1000
,  // measure 59
0100
1000
0010
0100
,  // measure 60
0001
1000
0100
0010
,  // measure 61
0002
0000
0000
0000
0000
0000
1003
0010
,  // measure 62
0100
0000
0010
0000
1000
0000
0001
0010
0001
0000
0010
0001
0010
0000
0100
0000
,  // measure 63
1000
0000
0001
0000
0100
0000
0010
0100
0001
0000
0001
1000
0100
0000
0100
0010
,  // measure 64
0001
0000
0000
0010
0100
1000
0010
1000
0100
0000
0010
0001
0100
0000
0010
0100
,  // measure 65
0001
0000
0000
0000
0000
0000
0000
0000
0000
0000
1000
0000
0010
0000
0000
0000
0000
0000
1000
0000
0000
0100
0000
0000
1000
0000
0000
0000
0000
0000
0010
0000
0000
0000
0000
0000
0100
0000
0000
0000
0000
0000
0100
0000
0000
0001
0000
0000
,  // measure 66
0100
0000
0010
0000
1000
0000
0100
0010
0001
0000
0010
0100
1000
0000
0010
0000
,  // measure 67
1000
0000
0001
0000
1000
0000
0100
1000
0100
0000
1000
0010
0100
0000
0010
0000
,  // measure 68
1000
0000
0000
0001
1000
0010
1000
0100
1000
0000
1000
0001
0100
0000
0010
0100
,  // measure 69
0002
0000
0000
0000
0000
0000
0103
0010
,  // measure 70
1000
0000
0010
0000
0100
0000
0100
0010
1000
0000
1000
0001
0100
0000
0010
0000
,  // measure 71
1000
0000
0100
0000
0010
0000
0001
0100
0010
0000
0100
0010
1000
0000
1000
0100
,  // measure 72
0010
0000
0000
0001
1000
0010
0100
0010
1000
0000
0100
0000
0010
0000
0100
1000
,  // measure 73
0001
0101
1010
1100
0011
0000
1001
0000
;
