#TITLE:Mainstream Nitro;
#SUBTITLE:;
#ARTIST:Amnesys;
#TITLETRANSLIT:;
#SUBTITLETRANSLIT:;
#ARTISTTRANSLIT:;
#CREDIT:;
#BANNER:Mainstream Nitro.png;
#BACKGROUND:Mainstream Nitro-background.png;
#JACKET:Mainstream Nitro-jacket.png;
#LYRICSPATH:;
#CDTITLE:;
#MUSIC:Mainstream Nitro.mp3;
#OFFSET:-0.579;
#SAMPLESTART:61.260;
#SAMPLELENGTH:12.000;
#SELECTABLE:YES;
#BPMS:0.000=170.000;
#STOPS:100.000=2.824
,164.000=1.059
,289.000=1.059
;
#BGCHANGES:;

//---------------dance-single - ----------------
#NOTES:
     dance-single:
     :
     Hard:
     9:
     0.550,0.704,0.470,0.198,0.466:
0000
0000
0000
0000
,
0000
0000
0000
0000
,
0000
0000
0000
0000
,
0000
0000
0000
0000
,
0000
0000
0000
0000
,
0000
0000
0000
0000
,
0000
0000
0000
0000
,
0000
0000
0000
0000
,
0100
0000
0011
0000
0010
0100
1000
0100
,
0000
0000
0010
0001
1000
0001
1000
0100
,
0000
0010
0200
0000
,
0310
0001
0010
0001
1000
0000
1000
0000
,
0001
0000
1010
0000
0100
0010
0001
0010
,
0000
0000
0100
0000
0100
0010
1000
0010
,
0000
0100
0002
0000
,
1003
0100
1000
0010
0100
0000
0100
0000
,
0001
0001
0000
0000
1010
0000
0000
0100
,
0010
0010
0000
0000
1100
0000
0000
0000
,
0100
0100
0000
0000
0011
0000
0000
0001
,
1000
1000
0000
0000
1010
0000
0000
0000
,
0100
0100
0000
0000
1001
0000
0000
0001
,
0010
0010
0000
0000
1100
0000
0000
0100
,
0200
0000
0000
0000
,
2300
0000
3020
0000
,
0130
0000
0100
0000
0100
0000
0100
0000
0100
0000
0100
0000
,
0100
0000
0000
0000
,
1001
0001
1000
0001
,
0100
0001
0100
0001
,
0010
0001
0010
0001
,
0010
0100
0010
0100
,
1000
0100
1000
0100
,
1000
0001
1000
0001
,
0100
0001
0100
0001
,
0100
0010
0100
0010
,
1000
0000
0010
0000
0100
0010
1000
0001
,
0000
0000
0001
0000
0010
0100
1000
0100
,
0000
0000
0000
1000
0000
0000
0010
0000
0100
0010
0100
0010
,
0100
0000
0001
0100
0000
0001
0100
0000
0000
0001
0000
0000
,
1000
0100
0010
0001
,
1000
0100
0010
0001
,
1000
0001
1000
0001
1000
0001
1000
0001
1000
0001
1000
0001
,
1000
0000
0000
0101
0000
0100
0001
0000
0010
0000
0000
0100
,
1000
0000
0000
0100
0000
0100
0010
0000
0001
0000
0000
1000
,
0001
0000
0000
0100
0000
0010
1000
0000
0100
0000
0000
0010
,
0100
0000
0000
0010
0000
0001
0100
0000
0001
0000
0000
1000
,
0010
0000
0000
0100
0000
0010
1000
0000
0001
0000
0000
0100
,
0001
0000
0000
0010
0000
0100
0010
0000
0100
0000
0000
1000
,
0001
0000
0001
1000
0000
0100
0010
0000
0001
0000
0000
0010
,
0100
0000
0000
0010
0000
0001
1000
0000
0010
0000
0000
0100
,
0002
0000
0003
1000
0000
0100
0010
0000
0010
0001
0000
0001
,
2000
0000
3010
1000
0000
0010
0100
0000
0001
0010
0000
0010
,
0200
0000
0000
1300
0000
0100
0010
0000
0010
0001
0000
0001
,
2000
3000
0000
0001
0000
0100
0010
0000
1000
0010
0000
0100
,
0001
0000
0000
0001
0000
1000
0020
0000
0000
0130
0000
0001
,
0020
0000
0000
0130
0000
1000
0020
0000
0000
0130
0000
0001
,
0020
0000
0000
0130
0000
0010
0001
0000
0010
0000
0000
0100
,
1000
0002
0000
0000
,
0003
0000
0000
2002
0000
3003
0110
0000
0100
0010
0000
0010
,
1000
0000
1000
0001
0000
0001
0100
0000
0001
1000
0000
1000
,
0100
0000
1000
0010
0000
0100
0010
0000
0010
1000
0000
1000
,
0001
0000
0001
0010
0000
0010
0100
0000
0100
0010
0000
0010
,
0001
0000
0001
1000
0000
1000
0100
0000
0010
0001
0000
0001
,
0100
0000
0010
1000
0000
1000
0100
0000
0010
0001
0000
0001
,
0100
0000
0010
1000
0000
0000
0100
0000
0000
0010
0000
0000
,
0100
0000
0000
1100
0000
0100
0110
0000
0100
2200
0000
0000
,
3300
0011
1100
1001
,
0101
0000
0001
0100
0000
0000
0110
0000
0000
1010
0000
0000
,
0101
0000
0100
0010
0000
0000
1010
0000
0000
0101
0000
0000
,
1001
0000
0010
1000
0001
1000
0001
1000
0001
1000
0000
0100
,
0000
0001
0000
0110
0000
0000
1100
0000
0000
1010
0000
0000
,
0110
0000
0100
0001
0000
0000
0011
0000
0000
0110
0000
0000
,
1100
0000
1000
0010
0000
0000
1010
0000
0000
0101
0000
0000
,
0011
0110
1001
0101
,
1001
0000
0000
1100
0000
0100
0010
0000
0000
0110
0000
0000
,
1100
0000
0000
2002
0000
3003
0101
0000
0000
0011
0000
0000
,
0110
0000
0000
1100
0000
0000
0001
0100
0001
0100
0001
0100
,
0001
0000
0010
0000
1000
0000
0110
0000
0000
1010
0000
0000
,
1100
0000
0000
0110
0000
0100
1000
0000
0000
1100
0000
0000
,
1001
0000
0000
0101
0000
0001
0010
0000
0000
0110
0000
0000
,
1100
0000
0000
1001
0000
0001
0100
1000
0100
0020
0000
1030
,
0200
0301
0100
0020
0000
0000
0200
0000
0000
0000
0000
0000
,
0000
0330
0000
0000
;

//---------------dance-single - ----------------
#NOTES:
     dance-single:
     :
     Medium:
     6:
     0.397,0.568,0.347,0.074,0.136:
0000
0000
0000
0000
,
0000
0000
0000
0000
,
0000
0000
0000
0000
,
0000
0000
0000
0000
,
0000
0000
0000
0000
,
0000
0000
0000
0000
,
0000
0000
0000
0000
,
0000
0000
0000
0000
,
0001
0101
0100
0010
,
0000
0100
0001
1000
,
0000
0100
1000
0000
,
0100
0010
0001
0001
,
0010
1000
0010
0100
,
0000
0010
0001
0100
,
0000
1000
0100
0000
,
0010
0100
0001
1000
,
0001
1000
1100
0000
,
1000
0010
0110
0000
,
0100
0001
0101
0000
,
0001
0010
0110
0000
,
0100
1000
1010
0000
,
0010
0100
0101
0000
,
1002
0000
0000
0000
,
2003
0000
3200
0000
,
0320
0000
0000
0000
,
0030
0000
0000
0000
,
1001
0001
0100
0001
,
1000
0100
1000
0001
,
0100
0001
1000
0100
,
1000
0001
0100
0001
,
1000
0100
1000
0001
,
0100
0001
1000
0100
,
1000
0001
0100
0001
,
1000
0100
1000
0001
,
0011
0010
0100
0100
,
0000
0100
0010
0001
,
0000
1000
0020
0000
,
0130
0001
0100
1000
,
0100
0010
1000
0001
,
0010
1000
0010
0001
,
0101
0101
0101
0101
,
1001
0001
0100
0010
,
1000
0000
0010
0100
0000
0000
0010
0000
0000
1000
0000
0000
,
0100
0000
0010
0001
0000
0000
0010
0000
0000
0100
0000
0000
,
1000
0000
0001
0100
0000
0000
0010
0000
0000
1000
0000
0000
,
0010
0000
0100
0010
0000
0000
0100
0000
0000
0001
0000
0000
,
1000
0000
0001
1000
0000
0000
0001
0000
0000
0100
0000
0000
,
0010
0000
1000
0010
0000
0000
0100
0000
0000
0010
0000
0000
,
1000
0001
1000
0001
,
0100
0000
0000
0001
0000
0000
1000
0000
0000
0100
0000
0010
,
0001
0000
0000
0010
0000
0000
0100
0000
0000
1000
0000
0010
,
0100
0000
0000
0001
0000
0000
1000
0000
0000
0100
0000
0010
,
0001
0000
0000
0010
0000
0000
0100
0000
0000
1000
0000
0010
,
0100
0000
0000
0001
0000
0001
1000
0000
0000
1000
0000
0001
,
1000
0000
0000
0010
0000
0010
0100
0000
0000
0100
0000
0100
,
0010
0010
1000
0001
,
0010
0200
0000
0000
,
0300
1000
0100
0010
,
0001
0000
0001
0100
,
1000
0000
1000
0100
,
0000
0000
0000
0100
0000
0010
1000
0000
0001
0100
0000
0000
,
0010
1000
0100
0010
,
0001
0010
0100
1000
,
0001
2000
0000
0000
,
3000
0000
0000
1010
0000
0001
0100
0000
0010
1000
0000
0000
,
0001
0010
0100
1000
,
0100
0000
0010
0001
0000
0000
0010
0000
0000
0100
0000
0000
,
1000
0000
0001
1000
0000
0000
0010
0000
0000
1000
0000
0000
,
0010
0000
0000
0100
0000
0001
0100
0000
0100
0001
0000
0001
,
0000
0100
0000
0010
0000
0000
1000
0000
0000
0010
0000
0000
,
0100
0000
0100
0001
0000
0000
0001
0000
0000
0010
0000
0000
,
0100
0000
0100
1000
0000
0000
0100
0000
0000
0010
0000
0000
,
0001
1001
0101
0101
,
0101
0101
1001
1001
,
1001
1001
1100
1100
,
1100
0000
0000
1100
0000
0000
1000
0000
1000
0100
0000
0100
,
0010
0000
0100
0000
0010
0000
0110
0000
0000
1100
0000
0000
,
1001
1100
0110
1010
,
0101
0011
0101
1010
,
0110
0000
0000
1010
0000
0000
0010
0000
1000
0001
0000
0001
,
0010
0000
0010
0100
0000
0000
0202
0000
0000
0000
0000
0000
,
0303
0000
0000
0000
;

//---------------dance-single - ----------------
#NOTES:
     dance-single:
     :
     Easy:
     4:
     0.308,0.434,0.157,0.165,0.000:
0000
0000
0000
0000
,
0000
0000
0000
0000
,
0000
0000
0000
0000
,
0000
0000
0000
0000
,
0000
0000
0000
0000
,
0000
0000
0000
0000
,
0000
0000
0000
0000
,
0000
0000
0000
0000
,
0001
0000
1000
0000
,
0100
0000
0010
0000
,
0100
0000
1000
0000
,
0010
0100
0010
0100
,
0001
0000
1000
0000
,
0100
0000
1000
0000
,
0010
0000
0100
0000
,
0001
0100
0001
0001
,
1000
0000
1001
0000
,
0001
0000
0101
0000
,
0100
0000
0110
0000
,
0010
0000
1010
0000
,
1000
0000
1001
0000
,
0001
0000
0101
0000
,
0022
0000
0000
0000
,
0030
0000
0003
0000
,
2200
0000
0000
0000
,
3300
0000
0000
0000
,
1001
0000
0001
0000
,
1000
0000
0001
0000
,
0100
0000
0001
0000
,
0100
0000
0001
0000
,
0100
0000
0010
0000
,
0100
0000
0010
0000
,
0100
0000
1000
0000
,
0100
0000
1000
0000
,
0100
0010
1000
0001
,
0000
1000
0100
0010
,
0000
0100
0200
0000
,
1300
0100
0001
0100
,
1000
0010
0100
0010
,
0100
0001
0010
0100
,
1000
1000
1000
1000
,
0001
0100
0001
0010
,
0001
0100
1000
0100
,
0010
1000
0001
0010
,
0100
0010
0001
1000
,
0010
0100
0001
0100
,
1000
0100
0010
1000
,
0001
0010
0100
1000
,
0001
1000
0001
0100
,
0001
0010
0100
1000
,
0200
1300
0100
0010
,
0002
0013
0001
0100
,
2000
3100
0010
1000
,
0020
0230
0301
0200
,
0310
0200
1300
0200
,
0310
0100
0001
1000
,
0100
0020
0000
0000
,
0030
0100
1000
0100
,
0100
0000
0010
0001
,
0001
0000
1000
0020
,
0000
0130
0100
0100
,
0100
0001
1000
0001
,
1000
0001
1000
0001
,
1000
0002
0000
0000
,
0003
0101
1010
0101
,
1010
1001
0001
0001
,
1000
0001
0001
0001
,
0100
0001
0001
0001
,
0100
0020
0000
0100
,
0000
0130
0100
0100
,
0001
0100
0100
0100
,
0100
0010
0010
0010
,
0010
1000
0100
0010
,
0001
0010
0110
0100
,
1000
0100
0110
0100
,
1000
0010
0200
0000
,
1000
0310
1000
0001
,
0010
0110
0010
0001
,
0100
0010
1010
0001
,
0100
0010
0100
0100
,
0100
0100
2002
0000
,
3003
0000
0000
0000
;

//---------------dance-single - ----------------
#NOTES:
     dance-single:
     :
     Beginner:
     1:
     0.127,0.232,0.058,0.000,0.000: // measure 1
0000
0000
0000
0000
,  // measure 2
0000
0000
0000
0000
,  // measure 3
0000
0000
0000
0000
,  // measure 4
0000
0000
0000
0000
,  // measure 5
0000
0000
0000
0000
,  // measure 6
0000
0000
0000
0000
,  // measure 7
0000
0000
0000
0000
,  // measure 8
0000
0000
0000
0000
,  // measure 9
0001
0000
0000
0000
,  // measure 10
1000
0000
0010
0000
,  // measure 11
0100
0000
0000
0000
,  // measure 12
0100
0000
0001
0000
,  // measure 13
1000
0000
0000
0000
,  // measure 14
1000
0000
0000
0000
,  // measure 15
1000
0000
0000
0000
,  // measure 16
0100
0000
0100
0000
,  // measure 17
0100
0000
0000
0000
,  // measure 18
0010
0000
0000
0000
,  // measure 19
0001
0000
0000
0000
,  // measure 20
1000
0000
0000
0000
,  // measure 21
0010
0000
0000
0000
,  // measure 22
0100
0000
0000
0000
,  // measure 23
0001
0000
0000
0000
,  // measure 24
1000
0000
0001
0000
,  // measure 25
0100
0000
0000
0000
,  // measure 26
0000
0000
0000
0000
,  // measure 27
1001
0000
0000
0000
,  // measure 28
0001
0000
0000
0000
,  // measure 29
0100
0000
0000
0000
,  // measure 30
0001
0000
0000
0000
,  // measure 31
1000
0000
0000
0000
,  // measure 32
0001
0000
0000
0000
,  // measure 33
0010
0000
0000
0000
,  // measure 34
0100
0000
0000
0000
,  // measure 35
0010
0010
0000
0000
,  // measure 36
0000
0100
0100
0100
,  // measure 37
0000
1000
1000
0000
,  // measure 38
0001
0001
0001
0000
,  // measure 39
1000
0000
0010
0000
,  // measure 40
0100
0000
0001
0000
,  // measure 41
1000
1000
1000
1000
,  // measure 42
1000
1001
0000
0000
,  // measure 43
0000
0100
0000
0000
,  // measure 44
0000
0010
0000
0000
,  // measure 45
0000
1000
0000
0000
,  // measure 46
0000
0100
0000
0000
,  // measure 47
0000
1000
0000
0000
,  // measure 48
0000
0010
0000
0000
,  // measure 49
0000
0100
0000
0100
,  // measure 50
0000
0100
0000
0000
,  // measure 51
0000
0001
0000
0000
,  // measure 52
0000
1000
0000
0000
,  // measure 53
0000
0100
0000
0000
,  // measure 54
0000
1000
0000
1000
,  // measure 55
0000
0001
0000
0001
,  // measure 56
0000
0100
0000
0010
,  // measure 57
0000
1001
0000
0000
,  // measure 58
0000
0100
0000
0000
,  // measure 59
0000
0010
0000
0000
,  // measure 60
0000
1000
0000
0000
,  // measure 61
0000
0001
0000
0001
,  // measure 62
0000
0100
0000
0000
,  // measure 63
0000
0010
0000
0000
,  // measure 64
0000
1000
0000
0000
,  // measure 65
0000
1001
1001
1001
,  // measure 66
0000
0010
0000
0000
,  // measure 67
0000
0100
0000
0000
,  // measure 68
0000
0001
0000
0000
,  // measure 69
0000
1000
1000
1000
,  // measure 70
0000
0001
0000
0000
,  // measure 71
0000
0100
0000
0000
,  // measure 72
0000
0001
0000
0000
,  // measure 73
0000
1000
0100
0000
,  // measure 74
0000
0000
0100
0000
,  // measure 75
0000
0000
1000
0000
,  // measure 76
0000
0000
0010
0010
,  // measure 77
0010
0000
0100
0000
,  // measure 78
0000
0000
0001
0000
,  // measure 79
0000
0000
0100
0000
,  // measure 80
0000
0000
0010
0000
,  // measure 81
0100
0000
1001
0000
;
