#TITLE:まほろば;
#SUBTITLE:;
#ARTIST:HHH+H;
#TITLETRANSLIT:Mahoroba;
#SUBTITLETRANSLIT:;
#ARTISTTRANSLIT:;
#CREDIT:;
#BANNER:mahoroba.png;
#BACKGROUND:mahoroba-background.png;
#LYRICSPATH:;
#CDTITLE:;
#MUSIC:Mahoroba.mp3;
#OFFSET:-0.363;
#SAMPLESTART:16.440;
#SAMPLELENGTH:12.000;
#SELECTABLE:YES;
#BPMS:0.000=149.000;
#STOPS:;
#BGCHANGES:0.000=Mahoroba-video.avi=1.000=1=1=0,
99999=-nosongbg-=1.000=0=0=0 // don't automatically add -songbackground-
;

//---------------dance-single - ----------------
#NOTES:
     dance-single:
     :
     Hard:
     8:
     0.483,0.523,0.269,0.069,0.338:
0000
0000
0000
0000
,
1001
0000
0000
0000
,
0001
0000
0000
0001
0000
0000
0001
0000
0100
0000
0010
0000
1000
0010
0000
0000
,
0100
0000
0000
0000
,
0110
0000
0000
0010
0000
0000
1000
0000
1001
0000
0000
0000
0101
0000
0000
0000
,
1001
0000
0000
0000
,
1000
0000
0000
1000
0000
0000
1000
0000
0100
0000
0010
0000
0001
0010
0000
0000
,
0001
0010
0100
0100
0010
0000
0000
0100
,
2000
0000
0000
0000
,
3000
0001
0000
0000
1000
0000
0000
0000
0010
0000
0100
0000
0101
0000
0000
0000
,
0001
0100
0010
0100
0001
0000
1000
1000
,
0001
0000
0000
0100
0000
0000
0001
0000
1000
0000
0000
0000
0000
0000
0000
0000
,
0100
0010
0100
1000
0010
0000
0100
0100
,
0010
0000
0000
1000
0000
0000
0001
0000
0010
0000
0000
0000
0100
0000
0000
0000
,
0010
0001
1000
0010
0100
0000
0001
0001
,
0100
0000
0000
0100
0000
0000
0010
0000
1000
0000
0000
0000
0000
0000
1000
0000
,
0010
0100
0001
1000
0010
0000
0000
0100
,
0002
0000
0000
0000
,
0003
1001
0000
0000
1001
0000
0000
0000
0001
0000
1000
0000
0110
0000
0000
0000
,
0010
0000
0000
1000
0000
0000
0010
0000
0100
0000
0000
0100
0000
0000
0010
0000
,
1000
0000
0001
0000
0010
0000
0100
0010
0000
0001
0010
0000
0001
0000
0100
0000
,
0010
0000
0000
0100
0000
0000
0001
0000
1000
0000
0000
0100
0000
0000
1000
0000
,
0100
1000
0000
0100
0000
0010
0000
0001
0000
0010
0000
0001
0000
0100
0010
0000
,
1000
0000
0000
0001
0000
0000
0100
0000
0001
0000
0000
1000
0000
0000
0100
0000
,
1000
0000
0000
0010
0000
0000
0100
0010
0000
1000
0010
0000
0100
0000
0001
0000
,
1000
0000
0000
0001
0000
0000
0100
0000
0001
0000
0000
0010
0000
0000
0100
0000
,
0010
0001
0000
0010
0000
0100
0000
0010
0000
0001
0000
1000
0000
0010
0100
0000
,
0101
0000
0001
0100
0001
0001
1000
0000
,
0000
0000
0100
1000
0100
0010
0100
1000
,
0010
0000
0000
0100
0100
0000
0000
0000
,
0010
0000
0000
1000
2000
0000
3000
0000
,
0101
0000
0001
1000
0100
1000
1000
0000
,
0000
0000
0100
0010
0100
1000
0010
0001
,
0010
0000
0000
0100
0001
0000
0100
0001
,
0000
0001
0010
0000
0100
0000
1000
0000
,
0001
0000
1010
0000
0010
0100
0101
0000
,
0001
0000
1100
0000
0100
0010
0011
0000
,
0001
0000
1001
0000
1000
0100
1100
0000
,
0100
0000
0110
0000
0010
0100
1000
0000
,
2002
0000
0000
0000
0000
0000
0000
3003
,
0110
0000
0000
0000
,
0100
0000
0000
0100
0000
0000
0100
0000
0100
0000
0000
0000
0000
0000
0000
0000
,
0000
0000
0000
0110
,
1001
0000
0000
0010
0000
0000
0100
0000
0001
0000
0000
0000
0100
0000
0000
0000
,
1010
0000
0000
0101
0000
0000
0011
0000
1100
0000
0000
0000
1001
0000
0000
0000
,
0101
0000
0000
0100
0000
0000
0001
0000
1000
0000
0000
0000
0000
0000
0100
0000
,
1000
0100
0010
0001
0010
0000
0000
0100
,
2000
0000
0000
0000
,
3000
0001
0000
0000
0100
0000
0000
0000
0010
0000
1000
0000
0010
0000
1000
0010
,
0000
0100
0000
0000
0100
0000
0000
0000
0110
0000
0110
0000
0110
0000
0000
0000
,
0100
0000
0001
0000
0100
0000
1000
0000
0100
0000
0000
0000
0010
1000
0010
0000
,
1000
0000
0000
0100
0000
0000
0010
0000
0001
0000
0000
0000
0000
0000
0000
0000
,
0001
0000
0010
0000
0100
0000
0010
0000
0001
0000
0000
0000
1000
0001
1000
0000
,
0001
0000
0000
0100
0000
0000
0001
0000
0010
0000
0000
0000
0001
0000
0000
0000
,
0010
0000
0100
0000
0010
0000
0001
0000
1000
0000
0000
0000
0100
1000
0100
0000
,
1000
0000
0000
0010
0000
0000
0100
0000
0100
0000
0000
0000
0000
0000
0100
0000
,
0001
0000
1000
0000
0100
0000
0010
0000
0100
0000
0000
1000
0000
0000
0010
0000
,
0020
0000
0000
0030
,
0100
0000
0000
0001
0000
0000
0100
0000
1000
0000
0000
0100
0000
0000
0010
0000
,
1000
0000
0000
0010
0000
0000
0100
0001
0000
0100
0010
0000
1000
0000
0001
0000
,
0010
0000
0000
0100
0000
0000
0010
0000
0001
0000
0000
1000
0000
0000
0010
0000
,
1000
0010
0000
0100
0000
0001
0000
0010
0000
1000
0000
0010
0000
0100
0010
0000
,
0001
0000
0010
0100
0000
0000
0100
0000
1000
0000
0010
0100
0000
0000
0010
0000
,
1000
0000
0001
0000
0010
0000
0100
1000
0000
0010
0001
0000
0100
0000
0010
0000
,
1000
0000
0010
1000
0000
0000
1000
0000
0100
0000
0010
0001
0000
0000
0010
0000
,
0001
0100
0000
0010
0000
1000
0000
0100
0000
0001
0000
0100
0000
0010
0001
0000
,
2000
0000
0000
0000
,
3100
0000
0000
0000
;

//---------------dance-single - ----------------
#NOTES:
     dance-single:
     :
     Medium:
     5:
     0.342,0.378,0.104,0.052,0.052:
0000
0000
0000
0000
,
1001
0000
0000
0000
,
0001
0000
0000
0100
0000
0000
0001
0000
0100
0000
0000
0000
0000
0000
0000
0000
,
0110
0000
0000
0000
,
0010
0000
0000
1000
0000
0000
0100
0000
0010
0000
0000
0000
0001
0000
0000
0000
,
1001
0000
0000
0000
,
1000
0000
0000
0001
0000
0000
0100
0000
0001
0000
0000
0000
0000
0000
0000
0000
,
0100
0000
0010
0000
1000
0000
0000
0001
,
0020
0000
0000
0030
,
0000
0100
0000
0000
0010
0000
0000
0000
0100
0000
0010
0000
0100
0000
0000
0000
,
0100
0000
1000
0000
0010
0000
0100
0001
,
1000
0001
0100
0000
,
0010
0000
1000
0000
0001
0000
0010
0100
,
0010
0001
1000
0001
,
0100
0001
0100
0000
0010
0000
1000
0010
,
0100
0000
0001
0000
1000
0000
0000
0100
,
0010
0000
0001
0000
1000
0000
0000
0010
,
0200
0000
0000
0300
,
0000
0010
0000
0000
1000
0000
0000
0000
0001
0000
0100
0000
0010
0000
0000
0000
,
1000
0010
0100
0001
,
1000
0000
0100
0000
0010
0100
1000
0010
,
0100
0001
1000
0001
,
0100
0000
0001
0000
1000
0000
0100
0010
,
0011
0001
0100
1000
,
0100
0000
0010
0000
0100
1000
0010
0100
,
0001
1000
0100
1000
,
0010
0010
0100
0100
,
1001
0001
0100
0100
,
0001
1000
0100
1000
,
0010
0100
0001
1000
,
0100
0000
0010
0000
0100
0000
1000
0010
,
0100
0001
0100
0100
,
0000
0001
1000
0100
,
0010
0000
0100
0000
1000
0000
0010
1000
,
0000
0001
0100
0000
0001
0000
0010
0000
,
0100
0000
1100
0000
0100
0010
0001
0000
,
1000
0000
1001
0000
0001
0100
0010
0000
,
0100
0000
0110
0000
0010
0100
0001
0000
,
1000
0000
1001
0000
0001
0100
0000
0000
,
0020
0000
0000
0000
,
0130
0000
0000
0000
,
0010
0000
0000
0100
0000
0000
0001
0000
1000
0000
0000
0000
0000
0000
0000
0000
,
0000
0000
0000
0000
,
0100
0000
0000
0010
0000
0000
0001
0000
1000
0000
0000
0000
0001
0000
0000
0000
,
1000
0000
0000
0001
0000
0000
0100
0000
0001
0000
0000
0000
1000
0000
0000
0000
,
0100
0000
0000
0010
0000
0000
0100
0000
1000
0000
0000
0000
0000
0000
0000
0000
,
1000
0100
0010
0001
0010
0000
0000
0001
,
2000
0000
0000
3000
,
0000
0001
0000
0000
0100
0000
0000
0000
0010
0000
1000
0000
0010
0000
1000
0000
,
0000
0010
0000
0000
0100
0000
0000
0000
0001
0000
1000
0000
0001
0000
0000
0000
,
0100
0010
1000
0100
,
0010
0100
1000
0000
,
0001
0100
0001
1000
,
0100
1000
1010
1010
,
0010
0000
0100
0000
0001
0000
1000
0001
,
1000
0001
0100
0000
,
0001
0000
0000
0000
0100
0000
0000
0000
0010
0000
0000
1000
0000
0000
0010
0000
,
0200
0000
0000
0300
,
0010
1000
0100
0001
,
0100
0000
0010
0000
0001
0010
1000
0010
,
0100
1000
0010
0001
,
0010
0000
0100
0000
0010
0000
1000
0001
,
1001
0001
1000
0100
,
0010
0000
0100
0000
1000
0010
0100
0001
,
1000
0100
0001
0100
,
0010
0001
0010
0100
,
2000
0000
0000
0000
,
3001
0000
0000
0000
;

//---------------dance-single - ----------------
#NOTES:
     dance-single:
     :
     Easy:
     4:
     0.278,0.407,0.165,0.104,0.000:
0000
0000
0000
0000
,
1001
0000
0000
0000
,
0010
0010
0010
0000
,
0110
0000
0000
0000
,
0001
1000
0100
1000
,
1010
0000
0000
0000
,
0010
0010
0010
0000
,
0100
0001
2000
0000
,
0200
0000
0000
0000
,
3300
0000
0000
0000
,
1100
0100
0010
0001
,
1000
1000
1000
0000
,
0001
0100
0001
1000
,
0100
1000
0010
0010
,
1000
0001
0100
0001
,
1000
1000
1000
0000
,
0100
1000
0002
0000
,
0020
0000
0000
0000
,
0033
0000
0000
0000
,
1100
0100
0010
0100
,
1000
0010
0100
0100
,
0001
0100
0010
0100
,
0001
0001
0001
0001
,
1001
1000
0100
1000
,
0010
0100
0010
1000
,
0010
0100
0001
0010
,
0100
0100
0100
0100
,
1100
0100
0010
0001
,
0000
1000
0001
0100
,
0001
0000
1000
0000
,
0100
0000
1000
0000
,
1010
0010
0100
0001
,
0000
1000
0100
0001
,
0100
0000
0010
0000
,
0100
0000
1000
0010
,
0100
0000
0001
1000
,
0100
0000
0000
0000
,
0100
0000
0010
0001
,
1000
0000
0010
0000
,
0220
0000
0000
0330
,
1001
0000
0000
0000
,
0001
0001
0001
0000
,
0000
0000
0000
1001
,
0110
0010
0100
0100
,
0110
1001
0101
1001
,
1100
0100
0020
0030
,
0100
1000
0020
0000
,
0200
0000
0000
0330
,
0000
0010
0000
0100
,
0001
1000
1100
0000
,
0100
1000
0010
0100
,
0001
1000
0100
0000
,
1000
0010
0100
0001
,
1000
0100
0010
0010
,
0100
1000
0010
0001
,
0010
0100
0001
0000
,
1000
0100
0010
0001
,
2002
0000
0000
3003
,
0001
0100
0001
1000
,
0100
1000
0010
0010
,
1000
0001
0010
0001
,
0100
0001
0100
0001
,
0100
0010
0100
0001
,
1000
0100
1000
0010
,
0100
0001
1000
0100
,
0010
0100
1000
0001
,
0200
0000
0000
0000
,
0300
0000
0000
0000
;

//---------------dance-single - ----------------
#NOTES:
     dance-single:
     :
     Beginner:
     1:
     0.123,0.174,0.052,0.000,0.000: // measure 1
0000
0000
0000
0000
,  // measure 2
0010
0000
0000
0000
,  // measure 3
0100
0000
0000
0000
,  // measure 4
0001
0000
0000
0000
,  // measure 5
1000
0000
1000
0000
,  // measure 6
1001
0000
0000
0000
,  // measure 7
0001
0000
0001
0000
,  // measure 8
0100
0000
0010
0000
,  // measure 9
1000
0000
0000
0000
,  // measure 10
0000
0000
0000
0000
,  // measure 11
1001
0000
0001
0000
,  // measure 12
0100
0000
0000
0000
,  // measure 13
0001
0000
0100
0000
,  // measure 14
0010
0000
0000
0000
,  // measure 15
0100
0000
0001
0000
,  // measure 16
1000
0000
0000
0000
,  // measure 17
0100
0000
1000
0000
,  // measure 18
0010
0000
0000
0000
,  // measure 19
0000
0000
0000
0000
,  // measure 20
0100
0000
0000
0000
,  // measure 21
0001
0000
1000
0000
,  // measure 22
0100
0000
0000
0000
,  // measure 23
1000
0000
1000
0000
,  // measure 24
1000
0000
0000
0000
,  // measure 25
0010
0000
0100
0000
,  // measure 26
0001
0000
0000
0000
,  // measure 27
0100
0000
0000
0000
,  // measure 28
0001
0000
0000
0000
,  // measure 29
1000
0000
0000
0000
,  // measure 30
0100
0000
0000
0000
,  // measure 31
1000
0000
0000
0000
,  // measure 32
0010
0000
0000
0000
,  // measure 33
0100
0000
0000
0000
,  // measure 34
0001
0000
0000
0000
,  // measure 35
1000
0000
1000
0000
,  // measure 36
0001
0000
0000
0000
,  // measure 37
0100
0000
0000
0000
,  // measure 38
0001
0000
0000
0000
,  // measure 39
1000
0000
0100
0000
,  // measure 40
0100
0000
0000
0000
,  // measure 41
1001
0000
0000
0000
,  // measure 42
0001
0001
0001
0000
,  // measure 43
0000
0000
0000
0000
,  // measure 44
1000
0000
0100
0000
,  // measure 45
1000
1000
1000
0000
,  // measure 46
0010
0000
0000
0000
,  // measure 47
0100
0000
0001
0000
,  // measure 48
1000
0000
0000
0000
,  // measure 49
0100
0000
0000
0000
,  // measure 50
1000
1000
1000
0000
,  // measure 51
1001
0000
0000
0000
,  // measure 52
0001
0000
0000
0000
,  // measure 53
0100
0000
0000
0001
,  // measure 54
0001
0000
1000
1000
,  // measure 55
0100
0000
0000
1000
,  // measure 56
1000
0000
0010
0000
,  // measure 57
0100
0000
0001
0000
,  // measure 58
1001
0000
0000
0000
,  // measure 59
1000
0000
0000
0000
,  // measure 60
0100
0000
0000
0000
,  // measure 61
1000
0000
0000
0000
,  // measure 62
0010
0000
0100
0000
,  // measure 63
0001
0000
0000
0000
,  // measure 64
0100
0000
0000
0000
,  // measure 65
0001
0000
1000
0000
,  // measure 66
0100
0000
1000
0000
,  // measure 67
0010
0000
0000
0000
,  // measure 68
1001
0000
0000
0000
;
