#TITLE:Love Generation;
#SUBTITLE:;
#ARTIST:SUZY LAZY;
#TITLETRANSLIT:;
#SUBTITLETRANSLIT:;
#ARTISTTRANSLIT:;
#CREDIT:;
#BANNER:Love Generation.png;
#BACKGROUND:Love Generation-background.png;
#JACKET:Love Generation-jacket.png;
#LYRICSPATH:;
#CDTITLE:;
#MUSIC:203-love_generation.mp3;
#OFFSET:-1.995;
#SAMPLESTART:44.600;
#SAMPLELENGTH:12.000;
#SELECTABLE:YES;
#BPMS:0.000=152.000;
#STOPS:;
#BGCHANGES:;

//---------------dance-single - ----------------
#NOTES:
     dance-single:
     :
     Hard:
     8:
     0.596,0.581,0.426,0.077,0.160:
0000
0000
0000
0000
,
0000
0000
0000
0000
,
0010
0000
0100
0000
0001
0000
0010
0100
0000
0000
0000
0000
0010
0000
0001
0000
,
1000
0010
0100
1000
0100
0001
0100
1000
,
0010
0000
0100
0000
0010
0000
0100
0001
0000
0000
0000
0000
1000
0000
0100
0000
,
0010
0100
1000
0001
0010
1000
0010
0100
,
1000
0000
0100
0000
0010
0000
0001
1000
0000
0000
0000
0000
0001
0000
1000
0000
,
0001
1000
0010
1000
0100
1000
0010
0100
,
0001
0000
1000
0000
0010
0000
0100
0001
0000
0000
0000
0000
0100
0000
0010
0000
,
1000
0010
1000
0010
1000
0000
0010
0000
0100
0001
0100
0001
0100
0000
0001
0000
,
0100
0010
1000
0001
0010
0100
0010
0001
,
1000
0000
0000
0001
0000
0000
1000
0000
0001
0000
0100
0000
0001
0000
0010
0000
,
0001
0010
0100
0010
0001
0100
1000
0100
,
0010
0000
0000
1000
0000
0000
0010
0000
0100
0000
0001
0000
0010
0000
0100
0000
,
0010
0001
1000
0010
1000
0001
0100
0001
,
1000
0000
0000
0100
0000
0000
1000
0000
0010
0000
0100
0000
0010
0000
0100
0000
,
0010
1000
0001
0010
0100
0010
0001
1000
,
0001
0000
0000
0100
0000
0000
0001
0000
1000
0000
0100
0000
0010
0000
0001
0000
,
0011
0000
1100
0000
0001
0100
0010
1010
,
0000
0101
0000
1010
0000
1000
0100
0110
,
0000
1001
0000
0110
0000
1001
0000
0101
,
0000
0000
1100
0000
0000
0100
0001
0000
0000
0000
0000
0000
0000
0000
0000
0000
,
1001
0000
0110
0000
0010
1000
0010
1010
,
0000
0101
0000
1010
0000
1000
0100
0110
,
0000
1100
0000
0011
0000
0101
0000
0000
,
1002
0000
0000
0100
0000
0000
0013
0000
,
2001
0000
0000
0100
0000
0000
3010
0000
,
0100
0000
0000
0000
0010
0000
1000
0001
0000
0000
0100
0000
0002
0000
0000
0000
,
0103
0001
0100
0010
1000
0010
0100
0000
,
0000
0010
0100
0001
1000
0100
0010
1100
,
0000
0101
0000
0000
1100
0101
1100
0000
,
0110
0000
0000
0000
0010
0000
0100
1000
0000
0000
0001
0000
0020
0000
0000
0000
,
0130
0010
0001
0100
0001
1000
0001
0000
,
0000
0100
0010
1000
0001
0010
0100
0011
,
0000
1010
0000
0000
0011
1010
0011
0000
,
0010
0000
0000
0000
0100
0000
1000
0010
0000
0000
0100
0000
0020
0000
0000
0000
,
0130
0100
0001
1000
0100
0010
0100
0000
,
0000
0010
0100
1000
0100
0010
0001
0011
,
0000
0110
0000
0000
0110
0011
1100
0000
,
1001
0000
0000
0000
0001
0000
0100
0010
0000
0000
1000
0000
0200
0000
0000
0000
,
0310
0001
0010
0100
1000
0100
1000
0000
,
0000
1000
0010
0100
0010
1000
0001
1001
,
0000
1001
0000
0000
0110
0110
0110
0000
,
0010
0000
0000
1000
0010
0000
0000
0100
0001
1000
0001
1000
0001
0000
1000
0000
,
0001
0000
0100
0000
0001
0000
0100
0010
0000
0000
0000
0000
0100
0000
0001
0000
,
1000
0100
0010
0001
0010
0100
0010
0001
,
0100
0000
1000
0000
0100
0000
0100
0010
0000
0000
0000
0000
0100
0000
0010
0000
,
2000
0000
0000
0000
,
3001
0000
0010
0000
0001
0000
1000
0010
0000
0000
0000
0000
0100
0000
0001
0000
,
1000
0001
0100
1000
0100
0010
0100
0001
,
1000
0000
0100
0000
0010
0000
0001
0100
0000
0000
0000
0000
0010
0000
1000
0000
,
0200
0000
0000
0000
,
0310
0000
0001
0000
0010
0000
0001
1000
0000
0000
0000
0000
0100
0000
0010
0000
,
0001
0010
0001
1000
0010
0001
0010
0100
,
0010
0000
1000
0000
0100
0000
0010
0001
0000
0000
0000
0000
1000
0000
0001
0000
,
0010
1000
0010
0100
1000
0100
0001
0100
,
1000
0000
0100
0000
0010
0000
0001
0100
0000
0000
0000
0000
0010
0000
0100
0000
,
0001
1000
0100
0010
0001
1000
0001
0100
,
0010
0000
0100
0000
0010
0000
0100
0001
0000
0000
0000
0000
0010
0000
0100
0000
,
1000
0100
1000
0100
1000
0000
0100
0000
0010
0001
0010
0001
0010
0000
0100
0000
,
1000
0000
0000
0000
;

//---------------dance-single - ----------------
#NOTES:
     dance-single:
     :
     Medium:
     6:
     0.441,0.523,0.281,0.058,0.000:
0000
0000
0000
0000
,
0000
0000
0000
0000
,
0001
1000
0010
0000
0100
0000
0010
0000
,
1000
0100
0001
0100
,
1000
0010
0100
0001
0100
0000
0010
0000
,
0100
0100
0010
0010
,
0100
0001
1000
0100
0010
0000
0100
0000
,
1000
0001
0100
0001
,
1000
0100
0010
0100
1000
0000
0010
0000
,
0100
0001
0100
0000
0010
0100
0010
0000
,
0100
0001
1000
0100
,
1000
0100
0010
0100
1000
0010
0100
0001
,
0010
0100
0010
0001
,
0100
0001
1000
0010
0100
0001
0010
0100
,
0010
0001
0010
0001
,
0100
0001
0100
0010
1000
0010
0100
0010
,
0100
0010
1000
0001
,
1000
0100
1000
0100
0010
0100
0010
0001
,
0010
0000
0001
0000
0100
0001
0100
0001
,
0000
0100
0000
0010
0000
0100
0010
1000
,
0000
0001
0000
0010
0000
1000
0000
0010
,
0000
0100
0000
0010
0000
0000
0000
0000
,
0110
0000
1001
0000
1000
0100
1000
0001
,
0000
0100
0000
0001
0000
1000
0100
1000
,
0000
0010
0000
0100
0000
0001
0000
0000
,
0102
0000
0000
0200
0000
0000
0303
0000
,
2010
0000
0000
0020
0000
0000
3030
0000
,
1010
0101
1010
1001
,
0001
0000
0010
0000
0100
0010
0100
0000
,
0000
0010
0001
0010
0100
1000
0001
1000
,
0000
0001
0000
0000
0100
0010
0100
0000
,
0110
1001
0110
0000
,
0010
0000
0100
0000
1000
0100
0001
0000
,
0000
0000
0001
0000
0010
0000
0100
1000
,
0000
0100
0000
0000
0010
0001
0010
0000
,
0001
0100
0010
1001
,
0001
0000
0100
0000
1000
0100
0010
0000
,
0000
0100
0010
0000
0001
0000
0100
0110
,
0000
1001
0000
0000
1001
1001
1001
0000
,
0001
0100
0010
1010
,
0001
0000
0100
0000
1000
0100
0010
0000
,
0000
0100
0010
1000
0001
0010
0100
1100
,
0000
0011
0000
0000
1001
1001
1001
0000
,
0101
1100
0101
1100
,
0101
0001
0100
0000
0010
0000
1000
0000
,
0010
0100
0010
0000
0100
0010
0100
0000
,
0010
1000
0001
0000
0010
0000
0100
0000
,
0020
0000
0000
0000
,
0130
0010
0001
0000
0010
0000
0001
0000
,
0100
0010
0100
0000
0010
1000
0010
0000
,
0100
0010
0100
0000
0001
0000
1000
0000
,
0200
0000
0000
0000
,
0310
0001
0010
0000
0001
0000
0100
0000
,
1000
0100
0010
1000
,
0001
0100
0001
0000
0100
0000
0010
0000
,
1000
0001
1000
0001
0010
0100
0010
0100
,
0010
0001
0100
0000
0010
0000
0100
0000
,
0001
1000
0100
0000
0010
0001
0100
0000
,
0010
1000
0010
1000
0010
0000
0100
0000
,
0001
0100
0010
1000
0001
0010
0100
1000
,
1001
0000
0000
0000
;

//---------------dance-single - ----------------
#NOTES:
     dance-single:
     :
     Easy:
     4:
     0.331,0.349,0.232,0.174,0.000:
0000
0000
0000
0000
,
0000
0000
0000
0000
,
0001
1000
0020
0030
,
0100
0100
0001
0001
,
1000
0100
0020
0030
,
0200
0300
0020
0030
,
0001
1000
0020
0030
,
1000
0001
0100
0001
,
1000
0100
0020
0030
,
0110
0000
1001
0000
,
0001
0100
0010
1000
,
0200
0000
0000
0000
,
0310
0100
1000
0010
,
0200
0000
0000
0000
,
0301
1000
0100
1000
,
0002
0000
0000
0000
,
0103
0001
0010
0100
,
2000
0000
0000
3000
,
1100
1100
0100
0010
,
0001
0010
0001
0100
,
1000
0100
0010
1000
,
0010
0100
0110
1001
,
0110
0110
0010
0001
,
0100
0010
1000
0001
,
0100
0010
1000
0010
,
0110
0000
0000
0110
0000
0000
0000
0000
,
1001
0000
0000
1001
0000
0000
0000
0000
,
1001
0110
1001
0000
,
0001
1000
0100
0100
,
0000
1000
0010
0100
,
0001
0000
0100
0000
0010
0100
0010
0000
,
0110
0110
0110
0000
,
0100
0001
1000
1000
,
0000
0100
1000
0010
,
0100
0000
0001
0000
1000
0001
1000
0000
,
1001
1001
1001
0000
,
0001
0010
0001
0001
,
0000
0100
0010
1000
,
0010
0000
0100
0000
0001
0100
0001
0000
,
0100
0010
1000
0000
,
0010
0100
0001
1000
,
0000
0000
0100
0000
1000
0000
0010
0100
,
0000
0010
0000
0000
0100
0001
1000
0000
,
0100
0000
0100
0000
0100
0010
0100
0000
,
0010
0001
0020
0030
,
0001
0100
0001
1000
,
0100
1000
0020
0130
,
2002
0000
0000
3003
,
0001
0100
0020
0030
,
0100
0001
1000
0100
,
0010
0100
2000
3000
,
0220
0000
0000
0330
,
0010
0001
0100
0010
,
1000
0010
0001
0010
,
1000
0100
1000
0001
,
0100
1000
0100
0001
,
0100
0010
1000
0001
,
0010
1000
0010
0001
,
0100
0001
1000
0100
,
0001
0001
0100
0100
,
1001
0000
0000
0000
;

//---------------dance-single - ----------------
#NOTES:
     dance-single:
     :
     Beginner:
     1:
     0.148,0.261,0.126,0.000,0.000: // measure 1
0000
0000
0000
0000
,  // measure 2
0000
0000
0000
0000
,  // measure 3
0001
0000
0000
1000
,  // measure 4
0100
0000
0000
0000
,  // measure 5
0010
0000
0000
0100
,  // measure 6
0010
0000
0001
0000
,  // measure 7
1000
0000
0000
0001
,  // measure 8
0100
0000
0000
0000
,  // measure 9
0010
0000
0000
0000
,  // measure 10
1001
0000
0110
0000
,  // measure 11
1001
0000
0000
0000
,  // measure 12
0001
0000
0100
0001
,  // measure 13
0100
0000
0000
0000
,  // measure 14
0010
0000
1000
1000
,  // measure 15
0100
0000
0000
0000
,  // measure 16
1000
0000
0001
0001
,  // measure 17
0100
0000
0000
0000
,  // measure 18
0001
0000
1000
1000
,  // measure 19
0001
0000
0000
0000
,  // measure 20
0100
0000
0000
0000
,  // measure 21
0010
0000
0000
0000
,  // measure 22
1000
0000
0010
0010
,  // measure 23
0100
0000
0000
0000
,  // measure 24
0001
0000
0000
0000
,  // measure 25
1000
0000
0000
0000
,  // measure 26
0110
0000
0000
0000
,  // measure 27
1001
0000
0000
0000
,  // measure 28
1001
0000
0000
0000
,  // measure 29
0001
0000
1000
0000
,  // measure 30
0100
0000
0000
0000
,  // measure 31
1000
0000
0001
0001
,  // measure 32
1001
0000
0000
0000
,  // measure 33
0010
0000
0000
0000
,  // measure 34
0100
0000
0010
0000
,  // measure 35
1000
0000
0100
0100
,  // measure 36
1001
0000
0000
0000
,  // measure 37
0001
0000
0000
0000
,  // measure 38
0100
0000
0001
0000
,  // measure 39
1000
0000
0010
0010
,  // measure 40
1001
0000
0000
0000
,  // measure 41
0100
0000
0000
0000
,  // measure 42
0010
0000
0000
0000
,  // measure 43
1000
0000
0001
0001
,  // measure 44
0010
0010
0010
0010
,  // measure 45
1001
0000
0000
0000
,  // measure 46
0001
0000
0100
0000
,  // measure 47
0010
0000
0000
0000
,  // measure 48
1000
0000
0000
0000
,  // measure 49
1000
0000
0000
0000
,  // measure 50
0100
0000
0010
0000
,  // measure 51
0100
0000
0000
0000
,  // measure 52
0001
0000
0000
0000
,  // measure 53
1000
0000
0000
0000
,  // measure 54
0001
0000
0100
0000
,  // measure 55
0001
0000
0000
0000
,  // measure 56
1000
0000
0100
0000
,  // measure 57
1000
0000
0000
0000
,  // measure 58
0010
0000
0100
0000
,  // measure 59
0010
0000
0000
0000
,  // measure 60
1001
0000
0110
0000
,  // measure 61
1001
0000
0000
0000
;
