#TITLE:Lick The Rainbow;
#SUBTITLE:;
#ARTIST:Mord Fustang;
#TITLETRANSLIT:;
#SUBTITLETRANSLIT:;
#ARTISTTRANSLIT:;
#CREDIT:;
#BANNER:Lick The Rainbow.png;
#BACKGROUND:Lick The Rainbow-background.png;
#JACKET:Lick The Rainbow-jacket.png;
#LYRICSPATH:;
#CDTITLE:cdtitle.png;
#MUSIC:Lick The Rainbow.mp3;
#OFFSET:-0.019;
#SAMPLESTART:67.500;
#SAMPLELENGTH:12.000;
#SELECTABLE:YES;
#BPMS:0.000=128.000;
#STOPS:64.000=7.031
;
#BGCHANGES:;

//---------------dance-single - ----------------
#NOTES:
     dance-single:
     :
     Hard:
     7:
     0.406,0.469,0.402,0.218,0.026:
0000
0000
0000
0000
,
0000
0000
0000
0000
,
0000
0000
0000
0000
,
0000
0000
0000
0000
,
0000
0000
0000
0000
,
0000
0000
0000
0000
,
0000
0000
0000
0000
,
0000
0000
0000
0000
,
0001
0010
0001
1000
,
0001
0010
0001
1000
,
0001
0100
0001
1000
,
0001
0100
0001
1000
,
1000
0100
1000
0010
,
1000
0100
1000
0010
,
1000
0001
1000
0010
,
1000
0001
1000
0200
,
0300
1001
1001
1001
,
0110
0000
0001
0000
0100
0010
1000
0100
,
0010
0000
0010
0000
0100
0000
0000
0000
2002
0000
3003
0000
0001
0100
0000
0100
,
0000
0100
0100
0010
0010
0010
1000
0010
,
1000
0000
0002
0000
0000
0000
1003
0000
0000
1000
0000
0000
0001
0000
0000
0000
,
0101
1010
1100
0011
,
1001
0101
0101
1001
,
1001
0000
0110
0010
0000
0100
0100
0001
,
2000
3200
0310
0000
1001
0000
0100
0000
,
1001
0000
0000
0000
0000
0000
0001
0000
0000
0000
0001
0000
0100
0000
0000
0000
0100
0000
0010
0000
0000
1000
0000
0000
,
0100
0020
0100
0030
2002
3003
0001
0100
,
1000
0100
0010
1000
0001
1000
0001
1000
,
0001
0000
2000
0000
0000
0000
3100
0000
0000
0010
0000
0000
0100
0000
0000
0000
,
1100
0011
1100
0011
,
0011
1010
0011
1001
,
1001
0000
0000
1001
0000
0000
0001
0100
,
0020
2030
3001
0001
0000
0000
1000
1000
,
0010
1000
0001
0002
0000
0000
1003
0001
,
0100
0100
0100
0100
0110
0000
1001
0000
,
0101
0000
1001
0000
1100
0100
0010
0010
,
0001
0001
0100
1000
0000
0000
1000
0100
,
0010
0010
1000
0002
0000
0003
1000
0001
,
0010
0010
0010
0010
0110
0000
0011
0000
,
1010
0000
0101
0001
1001
1000
0010
0010
,
0100
0100
0001
0100
0020
0000
0130
0100
,
0001
1000
1000
0020
0000
0030
0100
0001
,
1000
1000
1000
1000
2000
0000
3200
0000
,
0320
0000
0031
0010
0100
0010
0001
0001
,
1000
1000
0001
0100
0020
0000
0130
0100
,
0001
1000
1000
0200
0000
0300
0100
0010
,
0001
0001
0001
0001
0002
0000
2003
0000
,
3020
0000
1030
0100
0020
0100
0130
0010
,
0001
0100
1100
0000
0110
0000
0000
1001
,
0000
0000
0001
1000
0100
0100
0110
0000
,
0110
0110
1001
0001
,
0100
0001
1000
0001
,
0010
0001
1000
0100
,
1000
0010
0100
0000
,
0110
0010
0100
0001
,
1000
0100
0100
1000
,
0010
0100
0001
0000
;

//---------------dance-single - ----------------
#NOTES:
     dance-single:
     :
     Medium:
     5:
     0.282,0.321,0.131,0.000,0.000:
0000
0000
0000
0000
,
0000
0000
0000
0000
,
0000
0000
0000
0000
,
0000
0000
0000
0000
,
0000
0000
0000
0000
,
0000
0000
0000
0000
,
0000
0000
0000
0000
,
0000
0000
0000
0000
,
1000
0001
0001
0000
,
1000
0010
0010
0000
,
0100
0001
0001
0000
,
1000
0100
0100
0000
,
1000
0010
0010
0000
,
0010
0100
0100
0000
,
0100
0001
0001
0000
,
0010
0100
0100
0000
,
0000
1001
1001
1001
,
0010
1001
0001
0100
,
0010
0000
1000
0000
0101
0000
0001
1000
,
0100
1000
0100
0001
,
0100
1000
0010
0000
0100
0000
0001
0000
,
0001
0001
0001
0010
,
0010
0001
0001
1001
,
1001
0000
0000
1001
0000
0000
0001
0100
,
0010
0100
0001
0000
0001
0000
1000
0000
,
0100
1000
0010
0001
,
0010
0000
0100
0000
1001
0000
0010
0100
,
0001
1000
0100
0001
,
0100
0000
1000
0010
0100
0000
0001
0000
,
0001
0001
0001
0010
,
0010
0001
0001
1001
,
0110
0000
0000
0110
0000
0000
0010
0000
,
0100
0001
1000
0100
0000
0000
1000
0000
,
0010
0100
0010
0100
0000
0000
0010
0100
,
0001
1000
0001
0000
0001
0000
1000
0000
,
0100
0000
1000
0010
0100
0000
0001
0000
,
0100
0000
1000
0100
0000
0000
0100
0010
,
1000
0001
0010
0100
0000
0000
0100
0010
,
0001
0001
1000
0010
,
0100
0000
0010
0100
0001
1000
0100
0000
,
0100
0000
1000
0100
0000
0000
1000
0100
,
1000
0100
1000
0100
0000
0000
0010
0001
,
0010
0001
0001
0000
0010
0000
0100
0000
,
0010
0000
0001
1000
0010
0000
0100
0000
,
0001
0000
0100
0010
0000
0000
0100
0001
,
1000
0001
1000
0001
0000
0000
0001
0010
,
0100
1000
0100
0000
0100
0000
0010
0000
,
0001
0000
1000
0001
0100
0000
0001
0000
,
1000
0000
0010
0100
0001
0000
0001
0010
,
0000
0000
0010
0000
0100
0010
0011
0000
,
1001
0101
1000
0100
,
1000
0010
0100
0001
,
0010
0001
0100
0010
,
1000
0001
0010
0000
,
0100
0010
0001
1000
,
0010
1000
0010
0100
,
0001
0010
0100
0000
;

//---------------dance-single - ----------------
#NOTES:
     dance-single:
     :
     Easy:
     2:
     0.210,0.271,0.096,0.017,0.000:
0000
0000
0000
0000
,
0000
0000
0000
0000
,
0000
0000
0000
0000
,
0000
0000
0000
0000
,
0000
0000
0000
0000
,
0000
0000
0000
0000
,
0000
0000
0000
0000
,
0000
0000
0000
0000
,
0001
0000
0000
0000
,
1000
0000
0000
0000
,
0010
0000
0000
0000
,
0100
0000
0000
0000
,
0001
0001
0001
0000
,
1000
1000
1000
0000
,
0010
0010
0010
0000
,
0100
0100
0100
0010
,
0000
1001
1001
1001
,
0000
0001
0100
0001
,
1000
0100
0020
0130
,
1000
0100
1000
0010
,
0001
0010
0100
0001
,
0001
0001
0001
1000
,
1000
0001
0001
1000
,
1000
0000
0000
1000
0000
0000
1000
0000
,
0010
0110
0110
0110
,
0000
0100
0001
1000
,
0100
0010
0002
0013
,
0001
1000
0100
1000
,
0001
0100
0001
0100
,
0100
0100
0100
0010
,
0010
0100
0100
0010
,
0010
0000
0000
0010
0000
0000
0010
0000
,
0100
0101
0000
0001
,
1000
0100
0000
1000
,
0010
0010
0010
0100
,
0010
1000
0001
0010
,
0010
0100
0000
0010
,
0001
1000
0000
0001
,
0100
0001
0001
1000
,
0100
1000
0010
0100
,
0100
0010
0000
0100
,
0001
1000
0000
0100
,
1000
1000
0010
0100
,
0010
0100
0001
1000
,
1000
0100
0000
1000
,
0010
0001
0000
0010
,
0100
0001
1000
0010
,
1000
0001
0010
0100
,
0010
0000
0011
0000
0011
0000
0000
0011
,
0000
0001
0010
0100
,
0100
0100
1000
0000
,
0001
0000
0100
0000
,
0001
0000
1000
0000
,
0100
0000
1000
0000
,
1001
0001
1000
0000
,
1000
0000
0100
0000
,
0010
0000
0001
0000
;

//---------------dance-single - ----------------
#NOTES:
     dance-single:
     :
     Challenge:
     9:
     0.620,0.816,0.550,0.437,0.472:
0000
0000
0000
0000
,
0000
0000
0000
0000
,
0000
0000
0000
0000
,
0000
0000
0000
0000
,
0000
0000
0000
0000
,
0000
0000
0000
0000
,
0000
0000
0000
0000
,
0000
0000
0000
0000
,
0001
0000
0000
0100
0000
0000
0001
0000
0000
1000
0000
0100
0000
0000
1000
0000
,
0010
0000
0000
0100
0000
0000
0001
0000
0000
1000
0000
0001
0000
0000
0010
0000
,
0100
0000
0000
0010
0000
0000
0001
0000
0000
0100
0000
0001
0000
0000
0100
0000
,
0010
0000
0000
0100
0000
0000
0001
0000
0000
1000
0000
0100
0000
0000
1000
0000
,
0010
0000
1000
0000
0001
0000
0010
0100
0020
0000
0000
0000
0130
0000
0000
0000
,
0010
0000
0001
0000
1000
0000
0001
0010
0200
0000
0000
0000
1300
0000
0000
0000
,
0001
0000
1000
0000
0100
0000
0010
0001
0200
0000
0000
0000
0310
0000
0000
0000
,
0100
0000
0010
0000
1000
0000
0001
0010
0002
0000
0000
0000
1003
0000
0000
0000
,
2002
3003
0000
0000
0101
0000
0020
0030
1100
0000
0020
0030
1001
0000
0020
0030
,
1001
0000
0000
0001
0000
0001
0010
0001
0100
1000
0100
0010
,
1000
0000
0000
0000
0000
0000
0000
0000
0000
0000
0000
0000
0000
0000
0000
0000
0001
0000
0000
0000
0000
0000
0000
0000
0100
0000
0000
0000
0000
0000
0000
0000
0000
0000
0000
0000
0000
0000
0000
0000
0000
0000
0000
0000
0000
0000
0000
0000
0010
0000
0000
0000
0000
0000
0000
0000
0000
0000
0000
0000
1000
0000
0000
0000
0000
0000
0000
0000
0000
0000
0000
0000
0000
0000
0000
0000
0000
0000
0000
0000
0000
0000
0000
0000
1000
0000
0000
0000
0000
0000
0000
0000
0000
0000
0000
0000
2002
0000
0000
0000
0000
0000
0000
0000
0000
0000
0000
0000
0000
0000
0000
0000
0000
0000
0000
0000
0000
0000
0000
0000
0000
0000
0000
0000
0000
0000
0000
0000
0000
0000
0000
0000
3003
0000
0000
0000
0000
0000
0000
0000
0000
0000
0000
0000
0001
0000
0000
0000
0000
0000
0000
0000
0000
0000
0000
0000
0000
0000
0000
0000
0000
0000
0100
0000
0000
0000
0000
0000
0000
0000
0000
0000
0000
0000
0000
0000
0000
0000
0000
0000
0000
0000
0000
0000
0000
0000
0100
0000
0000
0000
0000
0000
,
0000
0000
0000
0010
0000
0000
0100
0000
0000
0000
0000
0000
0001
0000
0000
1000
0000
0000
0001
0000
0000
1000
0000
0000
0001
0000
0000
1000
0000
0000
0001
0000
0000
1000
0000
0000
0001
0000
1000
0000
0001
0000
1000
0000
0000
0001
0000
0000
,
1000
0100
0010
0001
0010
0001
1000
0000
0000
1000
0000
0000
0101
0000
0000
0000
,
1100
0011
1010
0101
,
1001
0101
1001
0011
,
1100
0000
0000
0000
1000
0000
1001
0000
0001
0000
0000
0000
0001
0100
0001
0100
,
0002
0000
0013
0000
0110
0000
0200
0300
1100
0000
0200
0300
0110
0000
0200
0300
,
0110
0000
0000
0000
0000
0000
0000
0000
0000
0000
0000
0000
0010
0000
0000
0000
0000
0000
0000
0000
0001
0000
0000
0000
0010
0000
0000
0000
0100
0000
0000
0000
0010
0000
0000
0000
0002
0000
2003
0000
3002
0000
2003
0000
0000
3002
0000
0000
,
2003
0000
3002
0000
0200
0000
0303
0000
0001
0000
0100
0000
0000
0000
0010
0000
2000
0000
0000
0000
0000
0000
0000
0000
3100
0000
0000
0010
0000
0000
0000
0010
,
0000
0000
0000
0000
0010
0000
0001
0000
0000
0000
0000
0000
0001
0000
0000
0100
0000
0000
0001
0000
0000
0100
0000
0000
0001
0000
0000
0100
0000
0000
0001
0000
0000
0100
0000
0000
0001
0000
0100
0000
0001
0000
0100
0000
0000
0001
0000
0000
,
0100
0010
1000
0001
1000
0100
0010
0000
0000
0100
0000
0000
0110
0000
0000
0000
,
0011
1100
0101
1010
,
1001
0000
0000
0000
0000
0000
0000
0000
1100
0000
0000
2000
3100
0000
0000
0000
1001
0000
0000
0000
0000
0000
0000
0000
0101
0000
0000
0000
0000
0000
0000
0000
,
1001
0000
0000
0000
0000
0000
0000
0000
0000
0000
0000
0000
0010
0000
0000
0000
0000
0000
1001
0000
0000
0000
0000
0000
0010
0000
0000
0000
0000
0000
0000
0000
0000
0000
0000
0000
1000
0000
0100
0000
1000
0000
0100
0000
0000
1000
0000
0000
,
0200
0320
0031
0110
0000
0000
0001
1100
,
0101
0000
1000
0001
0100
0000
0020
0000
0000
0000
0000
0000
0130
0000
0001
1000
,
0200
0301
0200
1300
0110
0000
0011
0000
,
1100
0000
0000
0000
0101
0000
0001
0100
0001
0010
0001
0100
0010
0000
0100
0010
,
0100
0000
0010
1000
0002
0000
0013
0000
0000
0000
0000
0000
0020
0000
2030
0000
,
3020
0000
0032
0203
2300
0000
0200
0000
0000
0000
3000
0000
0310
0000
0010
1000
,
0001
0001
0001
0001
1001
0000
0101
0000
,
1001
0000
0000
0000
1100
0000
0100
0010
0001
0000
0001
1000
0010
0000
0100
0001
,
1000
0000
1000
0000
0100
0010
0001
0000
0000
0000
0000
0000
0001
0010
0100
0000
,
0010
0000
0001
0100
0010
0000
2000
0000
0000
0000
0000
0000
3001
0000
1000
0001
,
0101
0101
1100
1100
1001
0000
0101
0000
,
1100
0000
0000
0000
0110
0000
0010
0100
1000
0000
0001
1000
0100
0000
1000
0010
,
0100
0000
0001
0000
1000
0100
0010
0000
0200
2300
3200
2300
3200
0310
0001
0000
,
0010
0001
0100
0010
1000
0001
0020
0000
0000
0000
0000
0000
0031
1000
0010
1000
,
0002
0000
0000
0000
0000
0000
0000
0003
0002
0000
0000
0000
0000
0000
0000
0000
2003
0000
0000
0000
0000
0000
0000
0000
0002
0000
0000
0000
0000
0000
0000
3003
1001
0000
0000
0000
0000
0000
0000
0000
0000
0000
0000
0000
0000
0000
0000
0000
0110
0000
0000
0000
0000
0000
0000
0000
0000
0000
0000
0000
0000
0000
0000
0000
,
1001
0000
0000
0000
0110
0000
0100
0001
1000
0100
0010
0100
1000
0001
1000
0001
,
1000
0001
1000
0001
1001
0000
0000
0000
0101
0000
0000
0000
0000
0000
1010
0000
,
0000
0000
0000
0000
0000
0000
0001
0100
0001
0100
0001
0100
0002
0000
0000
0013
0000
0000
0110
0000
0000
0000
0000
0000
,
1100
0000
0101
0000
1001
0000
0001
1000
,
0100
0000
0000
0000
0010
0000
0001
0000
0010
0000
0010
0000
0000
0100
1000
0000
,
0001
0000
0010
0100
1000
0000
0100
0010
,
0001
1000
0001
0000
,
0101
0000
0001
1000
0010
0010
1000
0001
,
0100
0100
0001
0010
0100
0100
0010
0001
,
1000
0000
1000
0000
0010
0100
0010
0000
0100
0000
0001
0000
0000
0000
0000
0000
;

//---------------dance-single - ----------------
#NOTES:
     dance-single:
     :
     Beginner:
     1:
     0.106,0.197,0.035,0.000,0.000: // measure 1
0000
0000
0000
0000
,  // measure 2
0000
0000
0000
0000
,  // measure 3
0000
0000
0000
0000
,  // measure 4
0000
0000
0000
0000
,  // measure 5
0000
0000
0000
0000
,  // measure 6
0000
0000
0000
0000
,  // measure 7
0000
0000
0000
0000
,  // measure 8
0000
0000
0000
0000
,  // measure 9
1000
0000
0000
0000
,  // measure 10
1000
0000
0000
0000
,  // measure 11
0010
0000
0000
0000
,  // measure 12
0010
0000
0000
0000
,  // measure 13
0100
0000
0000
0000
,  // measure 14
0100
0000
0000
0000
,  // measure 15
0001
0000
0000
0000
,  // measure 16
0001
0000
0000
0000
,  // measure 17
0000
0010
0010
0010
,  // measure 18
0000
0100
0000
0000
,  // measure 19
0000
0000
1001
0001
,  // measure 20
0000
1000
0000
1000
,  // measure 21
0000
0000
0100
0000
,  // measure 22
0000
1000
0000
0000
,  // measure 23
0000
0010
0000
0100
,  // measure 24
0100
0000
0000
0100
,  // measure 25
0000
1000
1000
1000
,  // measure 26
0000
0001
0000
0000
,  // measure 27
0000
0000
1001
0001
,  // measure 28
0000
1000
0000
0100
,  // measure 29
0000
0000
1000
1000
,  // measure 30
0000
0100
0000
1000
,  // measure 31
0000
0001
0000
0100
,  // measure 32
0100
0000
0100
0000
,  // measure 33
0000
1001
0000
0001
,  // measure 34
0000
1000
0000
0001
,  // measure 35
0100
0100
0000
0000
,  // measure 36
0000
0000
0000
0100
,  // measure 37
0000
0010
0000
0100
,  // measure 38
0000
0010
0000
0000
,  // measure 39
1000
1000
0000
0000
,  // measure 40
0000
0000
1000
0000
,  // measure 41
0001
1001
0000
1000
,  // measure 42
1000
1000
0000
0001
,  // measure 43
0100
0100
0000
0000
,  // measure 44
0000
0000
0000
0010
,  // measure 45
0010
0100
0000
0010
,  // measure 46
0100
0100
0000
0010
,  // measure 47
1000
1000
0000
0000
,  // measure 48
0000
0000
0000
0000
,  // measure 49
0000
0001
0001
0000
,  // measure 50
0001
0000
0000
1000
,  // measure 51
1000
1000
0000
0010
,  // measure 52
0000
0000
0000
0100
,  // measure 53
0000
0000
0000
0001
,  // measure 54
0000
0000
0000
0000
,  // measure 55
1000
1000
0000
0000
,  // measure 56
0000
0001
0000
0000
,  // measure 57
0000
0100
0000
0000
;
