#TITLE:Las Vegas;
#SUBTITLE:;
#ARTIST:Dirty Androids;
#TITLETRANSLIT:;
#SUBTITLETRANSLIT:;
#ARTISTTRANSLIT:;
#CREDIT:;
#BANNER:Las Vegas.png;
#BACKGROUND:Las Vegas-background.png;
#JACKET:Las Vegas-jacket.png;
#LYRICSPATH:;
#CDTITLE:;
#MUSIC:Las Vegas.mp3;
#OFFSET:-8.739;
#SAMPLESTART:17.460;
#SAMPLELENGTH:12.000;
#SELECTABLE:YES;
#BPMS:0.000=110.000;
#STOPS:;
#BGCHANGES:;

//---------------dance-single - ----------------
#NOTES:
     dance-single:
     :
     Hard:
     8:
     0.514,0.522,0.218,0.313,0.456:
0100
0000
0000
0000
1001
0000
0000
0000
0010
0000
0000
0000
1010
0000
0000
0010
,
0000
0100
0010
0000
1000
0100
0010
0000
,
0100
0000
0010
0000
0001
0000
1000
0000
0010
0000
0100
0000
0001
0000
1000
0001
,
0200
0000
0320
0000
2030
0000
3002
0000
1003
0001
0000
1001
0000
1001
0000
0001
,
0100
0000
0100
0000
0010
0000
1000
0010
0000
0100
0000
0001
1000
0000
0100
0010
,
0100
0000
2000
0000
0020
0000
3030
0010
0000
0100
0000
0010
1000
0002
0000
0000
,
1003
0000
1000
0000
0001
0000
0100
0001
0000
0100
0000
0100
0010
0000
1000
0000
,
0001
1000
0001
0100
0002
0000
0023
0000
,
0130
0000
0100
0000
1000
0000
0100
0010
0000
0001
0000
0100
0010
0000
1000
0001
,
1000
1000
0100
1000
0100
0001
0100
0010
,
0001
0000
0001
0000
0100
0000
0010
1000
0000
0010
0000
0100
0001
0000
0001
0010
,
0000
0000
0200
0000
0000
0000
0000
2000
0000
0000
0000
0000
0000
0000
3300
0000
,
0011
0000
0011
0000
0100
0000
0100
0010
0000
0001
0000
1000
0010
0000
0100
0000
,
0002
0000
0203
0010
0310
1000
0100
0010
,
0001
0000
0200
0000
1300
0000
0100
0010
0000
1000
0000
0001
0010
0000
0001
0000
,
0200
1300
0200
0301
0002
0013
0020
1030
,
0010
0000
0100
1000
0010
0000
0100
0010
0001
0000
0010
0100
1000
0000
0001
0000
,
0020
0000
0130
0000
2000
0000
3001
0100
0001
0010
0100
1000
0001
0000
1000
0000
,
0020
0130
0200
0310
0020
0130
0200
0301
,
2002
0000
0000
0000
0000
0000
3003
1001
0000
0101
0000
1100
0000
0100
0010
0000
,
0001
0000
0010
0000
0100
0000
0000
0010
0000
0010
0000
0010
0000
0010
0100
0010
,
0000
0000
0100
0000
0000
0100
0000
1000
0000
0100
0000
1000
0000
0001
0000
0100
,
0001
0000
0011
0000
0010
0100
1000
0000
,
0001
0000
1001
0000
0001
0100
0001
0000
,
1000
0000
0001
0000
0100
0010
0000
1000
0000
1000
0000
1000
0000
1000
0010
0100
,
0000
0000
0010
0000
0000
0100
0000
0001
0000
0100
0000
1000
0000
0100
0000
0010
,
1000
0010
0100
0000
0010
0100
0001
0000
,
2000
0000
0002
3003
,
0101
0000
1000
0000
0001
0100
0000
1000
0000
0100
0000
0010
0000
1000
0010
1000
,
0000
0000
0001
0000
0000
0100
0000
0001
0000
1000
0000
0100
0000
0010
0000
0001
,
1000
1000
0001
0001
0000
0100
0001
0001
,
1000
0200
0310
0100
1000
0001
0100
0001
,
1000
0000
0100
0000
0010
0001
0000
0010
0000
0010
0000
0010
0000
0010
0100
0010
,
0000
0000
0100
0000
0000
1000
0000
0001
0000
0100
0000
0001
0000
1000
0000
0100
,
0010
0000
0010
0000
0100
0000
0100
0000
1000
0000
1000
0000
0001
0000
0001
1000
,
0002
0000
0100
0000
0103
0000
0100
0010
2000
0000
0010
0000
0010
0000
3100
0010
,
0001
0000
1001
0000
0001
0100
0010
0000
,
0100
0000
0110
0000
0010
1000
0100
0000
,
0010
0000
0011
0000
0001
0010
1000
0000
,
0010
0000
0110
0000
0100
1000
0010
0000
,
0100
0000
0101
0000
0001
1000
1001
0000
,
0001
0000
0101
0000
0001
0100
0110
0000
,
0010
0000
1010
0000
0010
1000
1100
0000
,
1000
0000
0001
0100
0000
0001
0000
0001
0010
0100
2000
0000
0200
0000
0000
0000
,
3300
0000
0000
0000
;

//---------------dance-single - ----------------
#NOTES:
     dance-single:
     :
     Medium:
     5:
     0.369,0.418,0.190,0.199,0.000:
1000
1000
0001
0001
,
0100
0100
0010
0010
,
0100
0001
1000
0100
,
1000
0100
0010
0001
2002
0000
0000
3003
,
0001
0001
0100
0000
0010
0000
1000
0000
,
0010
0200
0000
0000
0310
1000
0010
1000
,
0001
0001
1000
0000
0001
0000
0100
0000
,
0010
0000
0100
0000
0110
0000
2002
3003
,
0001
0100
0100
0000
0010
0000
1000
0000
,
0100
1000
0010
0000
0100
0001
2000
0000
,
3100
0000
1000
0000
0100
0010
0001
0000
,
0002
0000
0200
0303
,
0001
1000
0010
0000
0100
0000
0010
0000
,
0100
0002
0010
0000
1000
0000
1003
0000
,
1000
0100
0100
0000
1000
0000
0010
0000
,
0100
0020
1030
0010
0200
0301
0200
0310
,
0100
0100
0010
1000
0001
0010
0100
0010
,
0001
1000
0010
0200
0310
2000
3010
0200
,
0310
0100
0010
0010
0100
0100
0010
0100
,
2002
0000
0000
0000
0000
0000
0000
3003
,
0001
0000
0101
0000
0100
0100
0110
0000
,
0010
0000
1010
0000
1000
0010
1010
0000
,
1000
0000
1001
0000
0001
0100
0101
0000
,
0100
0000
0110
0000
0010
1000
1010
0000
,
0001
0000
0101
0000
0100
0010
1010
0000
,
0010
0000
0110
0000
0100
0001
1001
0000
,
1000
0000
1100
0000
0100
0010
0011
0000
,
0002
0000
0020
0033
,
0001
0010
0100
0000
0100
0010
0001
0000
,
1000
0001
0100
0000
0001
0100
0010
0000
,
0100
0010
0100
0010
0000
0100
0001
1000
,
0100
1000
0010
0100
0001
1000
0100
0010
,
0001
0000
0011
0000
0010
0100
1000
0000
,
0100
0000
1100
0000
0100
0010
0001
0000
,
1000
1000
0001
0001
0000
1000
1000
1000
,
0001
0100
0010
0100
0001
1000
0100
0010
,
0001
0000
0010
0000
0001
0100
0001
0000
,
0100
0000
0010
0000
1000
0010
1000
0000
,
0010
0000
0100
0000
0010
1000
0010
0000
,
0100
0000
0001
0000
1000
0100
0010
0000
,
0100
0000
1000
0000
0010
0100
0001
0000
,
1000
0000
0001
0000
0100
0000
0010
1000
,
0010
0100
0001
1000
,
0001
0000
0100
0000
0010
2000
0002
0000
,
3003
0000
0000
0000
;

//---------------dance-single - ----------------
#NOTES:
     dance-single:
     :
     Challenge:
     10:
     0.933,1.000,0.532,0.949,1.000:
0001
0000
0000
0000
0000
0000
0100
0000
0000
0000
0000
0000
0000
0000
0000
0010
0000
0000
0000
0000
0000
1000
0000
0000
0000
0000
0000
0001
0000
0000
1000
0000
0000
0000
0000
0000
0000
0000
0000
0000
1000
0000
0100
0000
0000
0000
0010
0000
,
0001
0000
0010
0000
0100
0000
1000
0001
0000
0001
0100
0000
0000
0000
0110
0000
,
0001
0000
0000
0200
0000
0000
1300
0000
0000
0200
0000
0000
0310
0000
0000
2000
0000
0000
3010
0000
0000
0100
0000
0010
,
1000
0001
0010
0100
1000
0100
0010
0001
0100
0010
1000
0001
0010
0200
2000
0000
0000
0000
0000
0000
0000
0000
3300
0000
,
1000
0000
0000
0000
0001
0000
0100
0000
0000
0000
0100
0000
0010
0000
0000
0000
0010
0000
1000
0000
0000
0001
0000
0000
0000
0000
0000
1000
0000
0000
0000
0000
0000
1000
0000
0000
0100
0000
0000
0000
0010
0000
0100
0000
0000
0000
0100
0000
,
1000
0000
0000
0000
0000
0000
0020
0000
0000
0000
0000
0000
0000
0000
0000
0000
0000
0000
0130
0000
0001
0000
0100
0000
0001
0000
0000
1000
0000
0000
0000
0000
0000
1000
0000
0000
0001
0000
0000
0020
0000
0000
0000
0000
0000
0000
0000
0000
,
0130
0000
0000
0000
0010
0000
0001
0000
0000
0000
0001
0000
0100
0000
0000
0000
0100
0000
0010
0000
0000
1000
0000
0000
0000
0000
0000
0001
0000
0000
0100
0000
0020
0000
0000
0000
1030
0000
0000
0000
0000
0000
2000
0000
0000
0000
3002
0000
,
1000
0000
0003
0000
0100
0000
0010
0000
0000
0000
0000
0000
0011
0000
0000
0000
0000
0000
0001
0000
0000
1000
0000
0000
0200
0000
0000
0000
0000
0000
0000
0000
0000
0000
0000
0000
0320
0000
0000
0000
0000
0000
0000
0000
0000
0000
0000
0000
,
0031
0000
0000
0000
0001
0000
0010
0000
0000
0000
0010
0000
0100
0000
0000
1000
0000
0000
0010
0000
0000
0200
0000
0000
0000
0000
0000
0301
0000
0000
0000
0000
0000
1000
0000
0000
0002
0000
0000
0000
0000
0000
0000
0000
0000
0000
1003
0000
,
0001
0000
0000
0110
0000
0000
0010
0000
0000
1000
0100
1000
0100
1000
0100
0010
0100
0010
0100
1000
0100
1000
0001
1000
,
0001
0000
0000
0000
0001
0000
0100
0000
0000
0000
0010
0000
1000
0000
0000
0001
0000
0000
0100
0000
0000
0020
0000
0000
0000
0000
0000
1000
0000
0000
0000
0000
0000
0130
0000
0000
0001
0000
0000
0000
0000
0000
1000
0000
0000
0002
0000
0000
,
0100
0000
0023
0000
0000
0000
0000
0200
0000
0000
0000
0000
0000
0000
0000
0330
,
1001
0000
0000
0110
0000
0000
2002
0000
0000
3003
0000
1000
0001
0000
1000
0000
0000
0100
0010
0000
0010
0001
0000
0001
,
2000
0000
0000
0000
0000
0000
3010
0000
0000
0010
0100
0010
1000
0001
1000
0000
0000
1000
0001
0000
0020
0000
0000
0030
,
1100
0000
0000
0000
0000
0000
0022
0000
0000
0033
0000
0000
1001
0000
0000
0000
0000
0000
0202
0000
0000
0000
0303
0000
1001
0000
0000
0000
0000
0000
1000
0000
0000
0001
0000
0000
0200
0000
0000
0000
0000
0000
1000
0000
0000
0000
0000
0000
,
0310
0000
0000
0000
1000
0000
0020
0000
0000
0000
0000
0000
0130
0000
0000
0001
0000
0000
1000
0000
0000
0100
0000
0000
0210
0000
0000
0000
0000
0000
2300
0000
0000
0000
0000
0000
3020
0000
0000
0000
0000
0000
0032
0000
0000
0000
0000
0000
,
0013
0000
0000
0000
0000
0000
0020
0000
0000
0200
0030
0000
0302
0000
0000
0000
0000
0000
2003
0000
0000
3002
0000
0000
0023
0000
0130
0000
0020
0000
0130
0000
0020
0000
0031
0000
2000
0000
0000
0000
0000
0000
3001
0000
0000
0000
0000
0000
,
0100
0000
0000
0002
0000
0000
0023
0000
0000
0130
0010
0001
0100
0010
1000
0002
0000
0000
1003
0100
0010
0002
0000
0003
,
1001
0000
0000
0000
0000
0000
2020
0000
0000
3030
0000
0000
1001
0000
0000
0000
0000
0000
0022
0000
0000
0033
0000
0000
1001
0000
0000
0000
0000
0000
2200
0000
0000
3300
0000
0000
1001
0000
0000
0000
0000
0000
0202
0000
0000
0303
0001
0000
,
0100
0010
1000
0100
0010
0001
0010
0100
1000
0001
0100
0010
0000
0000
2002
0000
0000
0000
0000
0000
0000
0000
3003
0000
,
1000
0000
1000
0100
0000
0010
0001
0000
0001
0100
0000
0010
1000
0000
1000
0100
0000
0010
0001
0000
0001
0100
0000
0010
,
1000
0000
1000
0100
0000
0010
0001
0000
0001
0100
0000
0010
1000
0000
1000
0100
0000
0010
0001
0000
0001
0100
0000
0010
,
1000
0000
0010
0000
0100
0001
0000
0000
0001
1000
0100
0010
0000
0010
0100
1000
,
0001
0000
0000
0000
0001
0000
0100
0000
0000
0000
0010
0000
0000
0000
0000
0000
0000
0000
0010
0000
0000
0000
0100
0000
0001
0000
0000
1000
0000
0000
0001
0000
0000
0010
0000
0000
0100
0000
0000
0000
0000
0000
1000
0000
0000
0000
0000
0000
,
0001
0000
0001
0010
0000
0100
1000
0000
1000
0010
0000
0100
0001
0000
0001
0010
0000
0100
1000
0000
1000
0010
0000
0100
,
0001
0000
0001
0010
0000
0100
1000
0000
1000
0010
0000
0100
0001
0000
0001
0010
0000
0100
1000
0000
1000
0010
0000
0100
,
0001
1000
0010
0100
0001
0010
0100
1000
,
1001
0000
0000
0000
0000
0000
0000
0000
0000
0001
0000
0001
1000
0000
0000
0000
0000
0000
0110
0000
0000
0000
0000
0000
,
1000
0000
1000
0100
0000
0010
0001
0000
0001
0100
0000
0010
1000
0000
1000
0100
0000
0010
0001
0000
0001
0100
0000
0010
,
1000
0000
1000
0100
0000
0010
0001
0000
0001
0100
0000
0010
1000
0000
1000
0100
0000
0010
0001
0000
0001
0100
0000
0010
,
2020
3030
0202
0303
0022
0033
0220
0000
0330
0000
2002
3003
0202
0303
0202
0303
,
2002
3003
2200
3300
2002
3003
0202
0303
0220
0330
2020
3030
0022
0033
0220
0330
,
0001
0000
0001
0010
0000
0100
1000
0000
1000
0010
0000
0100
0001
0000
0001
0010
0000
0100
1000
0000
1000
0010
0000
0100
,
0001
0000
0001
0010
0000
0100
1000
0000
1000
0010
0000
0100
0001
0000
0001
0010
0000
0100
1000
0000
1000
0010
0000
0100
,
0202
0000
0000
0303
0000
0000
2020
0000
0000
3030
0000
0000
2002
0000
0000
3003
0000
0000
0202
0000
0000
0000
0000
0000
0303
0000
0000
0000
0000
0000
0001
0000
0000
0000
1000
0000
0010
0000
0000
0000
0100
0000
0001
0000
0000
0000
0001
0000
,
1000
0000
0001
0100
0000
0010
0000
0000
0100
0001
0000
0001
0010
0000
0010
0100
0000
1000
0000
0000
0001
0100
0000
0100
,
0010
0000
0000
0000
0100
0000
0010
0000
0000
0000
1010
0000
0000
0000
0000
0000
1100
0000
0000
0000
0000
1000
0000
0000
0100
0000
0000
0000
0010
0000
0001
0000
0000
0000
0001
0000
0000
0000
0000
0000
0000
0000
0000
0000
0000
0000
0000
0000
,
0100
0000
0000
0000
0010
0000
0100
0000
0000
0000
0101
0000
0000
0000
0000
0000
0011
0000
0000
0000
0000
0001
0000
0000
0010
0000
0000
0000
0100
0000
1000
0000
0000
0000
1000
0000
0000
0000
0000
0000
1000
0000
0010
0000
0000
0000
0010
0000
,
1000
0000
0000
0000
0010
0000
1000
0000
0000
0000
1100
0000
0000
0000
0000
0000
0101
0000
0000
0000
0000
0001
0000
0000
0100
0000
0000
0000
0010
0000
0100
0000
0000
0000
0001
0000
0000
0000
0000
0000
1000
0000
0100
0000
0000
0000
0010
0000
,
0100
0000
0000
0000
0010
0000
0001
0000
0000
0000
1100
0000
0000
0000
0000
0000
0011
0000
0000
0000
0000
0001
0000
0000
0100
0000
0000
0000
0010
0000
1000
0000
0000
0000
0001
0000
0000
0000
0000
0000
0010
0000
0100
0000
0000
0000
0100
0000
,
1000
0000
0000
0000
0010
0000
0100
0000
0000
0000
0110
0000
0000
0000
0000
0000
1001
0000
0000
0000
0000
0010
0000
0000
1000
0000
0000
0000
0100
0000
0010
0000
0000
0000
0001
0000
0000
0000
0000
0000
0001
0000
0100
0000
0000
0000
0010
0000
,
0100
0000
0000
0000
0010
0000
1000
0000
0000
0000
1100
0000
0000
0000
0000
0000
0110
0000
0000
0000
0000
0010
0000
0000
0100
0000
0000
0000
0010
0000
0001
0000
0000
0000
1000
0000
0000
0000
0000
0010
0000
0000
0100
0000
0000
0001
0000
0000
,
0010
0000
0000
0000
0100
0000
0010
0000
0000
0000
0110
0000
0000
0000
0000
0000
1100
0000
0000
0000
0000
1000
0000
0000
0100
0000
0000
0000
0010
0000
0001
0000
0000
0000
0001
0000
0000
0000
0000
0000
0001
0000
0010
0000
0000
0000
0100
0000
,
1000
0000
0010
0100
0000
0001
0000
0000
1000
0000
0000
1000
0100
0000
0010
0001
0000
0000
0002
0203
0302
0203
0302
0203
,
0002
0303
0000
0000
0000
0000
0000
0000
;

//---------------dance-single - ----------------
#NOTES:
     dance-single:
     :
     Easy:
     3:
     0.277,0.313,0.123,0.380,0.000:
0001
0000
0000
0000
,
1000
0000
0000
0000
,
0010
0100
0010
1000
,
0202
0000
0000
0303
,
0001
0101
0100
0010
,
0202
0303
0001
1000
,
0100
0100
1000
0010
,
0100
0000
0010
0000
1020
0000
2000
3030
,
0010
0010
0100
0100
,
2002
3003
2002
3003
,
0001
0100
0001
0010
,
2200
0000
0000
3300
,
0100
0110
0100
0110
,
0020
0000
0031
0100
,
0020
0130
0200
0301
,
0001
1000
1200
0320
,
0032
0013
0020
0130
,
0200
2300
3020
0230
,
0302
0013
0020
0130
,
2002
0000
0000
3003
,
0001
0000
0100
0000
0010
0100
0010
0000
,
0100
0000
0010
0000
1000
0010
1000
0000
,
0010
0100
0001
1000
,
0100
1000
0100
1000
,
0100
0000
0010
0000
0001
0010
0001
0000
,
0010
0000
0001
0000
0100
0001
0100
0000
,
0001
0100
0010
1000
,
0002
0000
0020
0033
,
0001
0000
0010
0000
0001
0010
0001
0000
,
0100
0000
0010
0000
1000
0010
1000
0000
,
0020
0130
0000
0200
,
0310
2000
3010
0200
,
0310
0000
1000
0000
0001
0100
0010
0000
,
0100
0000
0010
0000
1000
0010
0100
0000
,
0020
1030
0000
2000
,
3100
0010
0001
1000
,
1001
0000
0001
0000
,
1001
0000
0100
0000
,
0010
0000
0100
0000
,
0001
0000
1000
0000
,
0100
1000
0020
0030
,
0100
0001
0020
0030
,
0100
0010
0002
0003
,
0010
0000
0100
0000
0010
0002
2000
0000
,
3003
0000
0000
0000
;

//---------------dance-single - ----------------
#NOTES:
     dance-single:
     :
     Beginner:
     1:
     0.098,0.187,0.076,0.000,0.000: // measure 1
0001
0000
0000
0000
,  // measure 2
1000
0000
0000
0000
,  // measure 3
0001
0000
0000
0000
,  // measure 4
0110
0000
0000
0000
,  // measure 5
1001
0000
0000
0000
,  // measure 6
0001
0000
0001
0000
,  // measure 7
1000
0000
0000
0000
,  // measure 8
0100
0000
0010
0010
,  // measure 9
0010
0000
0000
0000
,  // measure 10
0001
0000
0000
0000
,  // measure 11
1000
0000
0000
0000
,  // measure 12
0010
0000
0100
0000
,  // measure 13
1001
0000
0000
0000
,  // measure 14
0001
0000
0000
0000
,  // measure 15
1000
0000
0000
0000
,  // measure 16
0100
0000
1000
1000
,  // measure 17
0010
0000
0100
0000
,  // measure 18
0001
0000
1000
1000
,  // measure 19
0001
0000
0100
0000
,  // measure 20
0110
0000
0000
0000
,  // measure 21
0001
0000
0000
0000
,  // measure 22
1000
0000
0000
0000
,  // measure 23
0100
0000
0000
0000
,  // measure 24
1000
0000
0000
0000
,  // measure 25
0001
0000
0000
0000
,  // measure 26
0100
0000
0000
0000
,  // measure 27
0001
0000
0000
0000
,  // measure 28
1000
0000
0001
0000
,  // measure 29
0100
0000
0000
0000
,  // measure 30
0010
0000
0000
0000
,  // measure 31
1000
1000
0000
0001
,  // measure 32
0001
0000
0100
0000
,  // measure 33
0010
0000
0000
0000
,  // measure 34
0100
0000
0000
0000
,  // measure 35
0010
0010
0000
0100
,  // measure 36
1001
0000
0110
0000
,  // measure 37
1001
0000
0000
0000
,  // measure 38
0001
0000
0000
0000
,  // measure 39
0100
0000
0000
0000
,  // measure 40
0010
0000
0000
0000
,  // measure 41
1000
0000
0000
0000
,  // measure 42
0100
0000
0000
0000
,  // measure 43
1000
0000
0000
0000
,  // measure 44
0010
0100
0010
1001
;
