#TITLE:L;
#SUBTITLE:;
#ARTIST:ICE;
#TITLETRANSLIT:;
#SUBTITLETRANSLIT:;
#ARTISTTRANSLIT:;
#CREDIT:;
#BANNER:L.png;
#BACKGROUND:L-background.png;
#JACKET:L-jacket.png;
#LYRICSPATH:;
#CDTITLE:cdtitle.png;
#MUSIC:L.mp3;
#OFFSET:-0.165;
#SAMPLESTART:83.760;
#SAMPLELENGTH:12.000;
#SELECTABLE:YES;
#BPMS:0.000=155.000;
#STOPS:;
#BGCHANGES:0.000=bga.avi=1.000=1=1=0,
99999=-nosongbg-=1.000=0=0=0 // don't automatically add -songbackground-
;

//---------------dance-single - ----------------
#NOTES:
     dance-single:
     :
     Hard:
     8:
     0.423,0.551,0.279,0.077,0.017:
0000
0000
0000
0000
,
0000
0000
0000
0000
,
0000
0000
0000
0000
,
0000
0000
0000
0000
,
0000
0000
0000
0000
,
0000
0000
0000
0000
,
0000
0000
0000
0000
,
0000
0000
0000
0000
,
0000
0000
0000
0000
,
0000
0000
0000
0000
,
0010
0101
0010
1100
,
0100
0011
0100
1010
,
1000
0011
1000
0101
,
1000
0000
0011
0000
1000
0000
0101
0001
,
0001
0000
0100
0000
0010
0000
1000
0001
,
0010
0000
0100
0000
1000
0100
0001
0100
,
0010
0000
0001
0010
0100
0000
0100
1000
,
0010
0100
0001
0100
0010
1000
0001
0010
,
0100
0000
0000
0000
,
0000
0000
0000
0000
,
0000
0000
0000
0000
,
0000
0000
0000
0000
,
1001
0000
0000
0000
0000
0000
0000
0001
,
0001
0100
0001
0100
,
0010
0000
0000
1000
0000
0000
0000
0000
,
0200
0000
0000
2000
0000
0000
3300
0000
,
0100
0000
0000
0000
0000
0000
0000
0010
,
0001
0001
1000
0100
,
1000
0000
0000
0010
0010
0000
0000
0000
,
0200
0000
0000
0001
0001
0310
0100
1000
,
0100
0000
0010
0001
,
0100
0000
0000
0010
1000
0000
0001
0000
,
1000
0100
0001
0100
,
0001
0000
0000
0000
0000
0000
0000
0000
0100
0000
0000
1000
0000
0000
0010
0000
,
0100
0000
0000
0000
0000
0000
0000
0000
0100
0000
0000
0001
0000
0000
1000
0000
,
0010
0000
0000
0000
0000
0000
0000
0000
0100
0000
0000
0010
0000
0000
0010
0000
,
1000
0000
0000
0001
0000
0000
1000
0000
,
0100
0000
0000
0000
1000
0100
0010
0001
,
0020
0000
0000
0000
0000
0000
0000
0130
,
1000
0010
0001
0010
,
0200
0000
0000
0010
0020
0300
0000
0130
,
0001
1000
0001
1000
0001
0001
1000
1000
,
2001
0000
0000
0000
0000
0000
0000
3001
,
0100
0010
0100
0001
,
1000
0000
0000
0100
0100
0000
0000
1000
,
0100
0001
0100
1000
0100
0010
0001
0010
,
0011
0000
0001
0010
,
0100
1000
0100
0010
0100
0010
0001
0010
,
0110
1000
0101
0010
,
1100
0000
0010
0000
1000
0000
0001
1001
,
1001
0000
0000
0000
0000
0000
0000
0000
0001
0000
0000
0001
0000
0000
1000
0000
,
0010
0000
0000
0000
0000
0000
0000
0000
1000
0000
0000
0100
0000
0000
0010
0000
,
0100
0000
0110
0000
,
0001
0010
0100
1000
0100
0010
0001
0010
,
0100
0000
1100
0000
1000
0100
0010
0000
,
0100
0000
0110
0000
0010
0001
0010
0000
,
0001
0000
0101
0000
0001
0100
0010
0000
,
0100
0000
0110
0000
0100
0001
1000
0000
,
0010
0000
0110
0000
0010
0100
0001
0000
,
0101
1100
0101
1100
,
1100
0000
1000
0100
0000
0100
0010
0001
,
0010
0000
0100
0000
0100
1000
0100
0001
,
0100
0010
0001
0010
0001
0100
0010
1000
,
0100
0001
0100
1000
0010
0100
0001
1000
,
0002
0000
0000
0000
0000
0000
1003
0100
,
0020
0000
0130
1000
,
1001
0000
0001
0000
0100
0000
0010
1000
,
1010
0000
1000
0000
0001
0000
0010
0100
,
1100
0000
1000
0010
0110
0000
0010
1000
,
0001
0010
0100
1000
0100
0010
0100
1000
,
1001
0000
0000
0000
0000
0000
0001
1000
,
0100
1000
0001
1000
0010
0100
0010
1000
,
0001
0010
1000
0010
0100
0000
0100
1000
,
0010
0001
0010
0100
0001
1000
0100
0010
,
0011
0000
0001
0100
1000
0100
0010
1000
,
0010
0001
0010
1000
0010
0100
1000
0010
,
0100
0010
0010
1000
0001
0000
0010
0100
,
1000
0100
0010
0100
1000
0010
0100
0001
,
1001
0000
0001
1000
0100
0001
0100
1000
,
0010
0000
0010
0001
0010
0100
0010
1000
,
1001
0000
0001
0100
0110
0000
0010
1000
,
1010
0000
0010
0100
0001
0010
1000
0010
,
0110
0000
0010
0100
1000
0010
0100
0001
,
1001
0000
0001
0010
1000
0100
1000
0010
,
0100
0010
1000
0001
0010
0100
1000
0100
,
0010
0001
0001
0010
0010
0100
0100
1000
,
2002
0000
0000
0000
,
0000
0000
0000
0000
,
3003
0000
0000
0000
;

//---------------dance-single - ----------------
#NOTES:
     dance-single:
     :
     Medium:
     5:
     0.295,0.490,0.160,0.195,0.000:
0000
0000
0000
0000
,
0000
0000
0000
0000
,
0000
0000
0000
0000
,
0000
0000
0000
0000
,
0000
0000
0000
0000
,
0000
0000
0000
0000
,
0000
0000
0000
0000
,
0000
0000
0000
0000
,
0000
0000
0000
0000
,
0000
0000
0000
0000
,
1000
0010
0001
0010
,
0200
0000
0000
0300
,
0010
1000
0001
0010
,
0200
0000
0000
0300
,
1000
0100
1000
0001
,
0200
0000
0000
0300
,
0001
0100
0010
1000
,
0100
0010
0100
1000
,
1001
0000
0000
0000
,
0000
0000
0000
0000
,
0000
0000
0000
0000
,
0000
0000
0000
0000
,
0110
0000
0000
0000
,
0010
1000
0100
1000
,
0001
0000
0000
1000
0000
0000
0000
0000
,
1000
0000
0000
1000
0000
0000
0000
0000
,
1100
0000
0000
0000
,
1000
0100
1000
0001
,
0100
0000
0000
0010
0010
0000
0000
0000
,
0100
0000
0000
0001
0001
0000
1000
0000
,
0100
0000
1000
0010
,
0100
0000
0010
0100
,
0001
0010
1000
0010
,
0100
0000
1000
0010
,
0100
0000
0010
0100
,
0001
0000
1000
0100
,
0010
0000
0000
0010
0000
0000
0100
0000
,
1000
0000
0020
0000
,
0130
0000
0000
0000
,
0001
1000
0100
1000
,
0010
0000
0000
0100
0010
0000
0000
0100
,
0010
0000
1000
0000
0001
0100
0001
0100
,
0002
0000
0000
0003
,
1000
0100
0010
0100
,
1000
0000
0000
0100
1000
0000
0000
0100
,
1000
0010
0100
0010
,
1001
0000
0001
0100
,
0010
0100
0001
0010
,
0110
0100
1100
0100
,
0110
0000
0010
0000
0001
0000
1000
0001
,
1001
0000
0001
0100
,
0110
0000
0100
0010
,
1010
0010
0110
0100
,
2002
0000
0000
3003
,
0002
0000
0000
0000
,
0203
0000
0320
0000
,
2030
0000
0000
0000
0000
0000
3100
0010
,
0002
0000
0000
0003
,
2000
0000
0000
3001
,
0200
0310
0200
0301
,
0002
0000
0000
2003
0000
0000
3200
0000
,
0320
0000
0000
0000
0130
1000
0010
0100
,
0002
0000
2003
0000
,
3200
0000
2300
0000
,
0020
0000
0000
0000
3000
0000
0130
0001
,
2000
0000
0000
3001
,
0200
0000
0000
0310
,
2000
0000
0000
3010
,
1010
0010
0101
0001
,
0100
0001
0100
0001
0100
0001
0100
0001
,
1001
0000
0000
0000
0000
0000
0001
0001
,
0010
0100
1000
0100
,
1000
0100
0010
0001
0010
0000
0001
0100
,
0010
0100
0010
1000
,
1001
0000
0001
1000
0010
0000
1000
0000
,
0100
0010
0001
0000
0010
0000
0100
0000
,
1000
0100
0010
0001
0010
0000
0001
0100
,
0010
0100
0010
1000
,
0101
0000
0001
0100
0010
0000
1000
0000
,
1100
0000
1000
0100
0010
0000
0100
0000
,
1100
0000
0011
0000
,
0101
0000
0001
1000
,
0110
0010
1000
0001
,
1001
0001
0010
0100
,
1000
0000
1000
0100
0000
0100
0010
0000
,
0001
0010
0100
1000
0100
0010
0001
0010
,
0200
0000
0000
0000
,
0000
0000
0000
0000
,
0300
0000
0000
0000
;

//---------------dance-single - ----------------
#NOTES:
     dance-single:
     :
     Easy:
     3:
     0.199,0.329,0.174,0.091,0.000:
0000
0000
0000
0000
,
0000
0000
0000
0000
,
0000
0000
0000
0000
,
0000
0000
0000
0000
,
0000
0000
0000
0000
,
0000
0000
0000
0000
,
0000
0000
0000
0000
,
0000
0000
0000
0000
,
0000
0000
0000
0000
,
0000
0000
0000
0000
,
0010
0000
1000
0000
,
0001
0000
0000
0000
,
0100
0000
0010
0000
,
1000
0000
0000
0000
,
0001
0000
1000
0000
,
0100
0000
0000
0000
,
1000
0000
0001
0000
,
0100
0000
0000
0000
,
1001
0000
0000
0000
,
0000
0000
0000
0000
,
0000
0000
0000
0000
,
0000
0000
0000
0000
,
1001
0000
0000
0000
,
0001
0000
0100
0000
,
0010
0000
0000
0000
,
0100
0000
0000
0000
,
0010
0000
0000
0000
,
1000
0000
0100
0000
,
1000
0000
0001
0000
,
1000
0000
0000
0010
,
0100
0000
0001
1000
,
0001
0000
0100
0001
,
0100
0010
1000
0010
,
0100
0000
0001
0001
,
1000
0000
0100
0100
,
0010
0000
0100
0100
,
1000
0000
0000
0001
0000
0000
0100
0000
,
0001
0000
0010
0000
,
0110
0000
0000
0000
,
0100
1000
0100
1000
,
0010
0000
0100
0000
,
0001
0001
1000
0001
,
1001
0000
0000
0000
,
0001
0100
0001
0010
,
0100
0000
0010
0000
,
0100
0100
1000
0010
,
0100
0000
0010
1000
,
0001
0010
0100
1000
,
1100
0000
0011
0000
,
0101
0000
0000
0000
,
1001
0000
0001
0001
,
1001
0000
1000
1000
,
1001
0000
0110
0000
,
1001
0000
0000
0000
,
0020
0000
0000
0030
,
2000
0000
0001
0000
,
0002
0000
3003
0001
,
0200
0000
0000
0300
,
0002
0000
0000
0003
,
1000
0100
0010
0001
,
1000
0000
0000
1000
0000
0000
0001
0000
,
0100
0000
0001
0010
,
0200
0000
2300
0000
,
3200
0000
2300
0000
,
0020
0000
0000
0000
,
3030
0000
0000
0000
,
0110
0000
0000
0000
,
1001
0000
0000
0000
,
0101
0000
1010
0000
,
2200
0000
0000
3300
,
0011
0000
0000
0000
,
0001
0000
0010
0000
,
0100
1000
0100
0000
,
1000
0000
0010
0000
,
0110
0000
0100
0000
,
0001
0001
1000
1000
,
0001
0000
0100
0000
,
0001
0010
0100
1000
,
1001
1000
0100
0010
,
0001
0010
0100
1000
,
1001
0000
0110
0000
,
1001
0000
0001
1000
,
1100
1000
0010
0100
,
0110
0010
0100
0100
,
0010
0000
0000
1000
0000
0000
0001
0000
,
0020
0000
0000
0000
,
0030
0000
0000
0000
;

//---------------dance-single - ----------------
#NOTES:
     dance-single:
     :
     Beginner:
     1:
     0.102,0.240,0.097,0.000,0.000:
0000
0000
0000
0000
,
0000
0000
0000
0000
,
0000
0000
0000
0000
,
0000
0000
0000
0000
,
0000
0000
0000
0000
,
0000
0000
0000
0000
,
0000
0000
0000
0000
,
0000
0000
0000
0000
,
0000
0000
0000
0000
,
0000
0000
0000
0000
,
0100
0000
0001
0000
,
1000
0000
0000
0000
,
0001
0000
1000
0000
,
0100
0000
0000
0000
,
1000
0000
0001
0000
,
0010
0000
0000
0000
,
0001
0000
1000
0000
,
0010
0000
0000
0000
,
1001
0000
0000
0000
,
0000
0000
0000
0000
,
0000
0000
0000
0000
,
0000
0000
0000
0000
,
0100
0000
0000
0000
,
0000
0000
0000
0000
,
0000
0000
0000
0000
,
0001
0000
0000
0000
,
1000
0000
0000
0000
,
0000
0000
0000
0000
,
0000
0000
0000
0000
,
1000
0000
0000
0000
,
0001
0000
0000
0000
,
0100
0000
0000
0000
,
0001
0000
0010
0000
,
0100
0000
0000
0000
,
1000
0000
0000
0000
,
0010
0000
0000
0000
,
0100
0000
0000
0000
,
0000
0000
0001
0000
,
1001
0000
0000
0000
,
0001
0000
0000
0000
,
1000
0000
0000
0000
,
0010
0000
0000
0000
,
0100
0000
0000
0000
,
0001
0000
0000
0000
,
1000
0000
0000
0000
,
0100
0000
0000
0000
,
1001
0000
0000
0000
,
1000
0000
0000
0000
,
0001
0000
0000
0000
,
0100
0000
0000
0000
,
0001
0000
0000
0000
,
1000
0000
0000
0000
,
0100
0000
1000
0000
,
0010
0000
0000
0000
,
0100
0000
0000
0000
,
0010
0000
1000
0000
,
0001
0000
0000
1000
,
1000
0000
0000
0000
,
0100
0000
0000
0000
,
1000
0000
0010
0000
,
0100
0000
0000
0100
,
0100
0000
0001
0000
,
1001
0000
1000
0000
,
0001
0000
0010
0000
,
0100
0000
0000
0000
,
0010
0000
0000
0000
,
1001
0000
0000
0000
,
0001
0000
0000
0000
,
1000
0000
0001
0000
,
0100
0100
0100
0100
,
0110
0000
0000
0000
,
0010
0000
0000
0000
,
0100
0000
0000
0000
,
0001
0000
0000
0000
,
1001
0000
0000
0000
,
1000
0000
0000
0000
,
0100
0000
0000
0000
,
1000
0000
0000
0000
,
1001
0000
0000
0000
,
0001
0000
0000
0000
,
0100
0000
0010
0000
,
0100
0000
0000
0000
,
1001
0000
0000
0000
,
0110
0000
0000
0000
,
1001
0000
0110
0000
,
1001
0000
0000
0000
,
1001
0000
0000
0000
;

//---------------dance-single - ----------------
#NOTES:
     dance-single:
     :
     Challenge:
     11:
     0.664,1.000,0.181,0.007,0.759: // measure 1
0000
0000
0000
0000
,  // measure 2
0000
0000
0000
0000
,  // measure 3
0000
0000
0000
0000
,  // measure 4
0000
0000
0000
0000
,  // measure 5
0000
0000
0000
0000
,  // measure 6
0000
0000
0000
0000
,  // measure 7
0000
0000
0000
0000
,  // measure 8
0000
0000
0000
0000
,  // measure 9
0000
0000
0000
0000
,  // measure 10
0000
0000
0000
0000
,  // measure 11
0101
0000
0000
0001
0100
0000
0010
0000
1000
0000
0000
0100
0010
0000
0100
0000
,  // measure 12
1000
0000
0000
0100
0010
0000
0001
0000
1000
0000
0000
0001
0100
0000
0010
0100
,  // measure 13
0001
0000
0000
1000
0001
0000
0100
0000
0001
0000
0000
0100
0010
0000
1000
0000
,  // measure 14
0010
0000
0000
0100
0010
0000
1000
0000
0100
0000
0000
0100
0010
0000
0001
0010
,  // measure 15
0100
0000
0000
0100
0010
0000
0001
0000
1000
0000
0000
0001
0100
0000
0010
0000
,  // measure 16
1000
0000
1000
0010
0100
0000
0001
0000
1000
0001
0100
0000
0010
0000
0100
0000
,  // measure 17
0001
0100
0010
0000
0100
0010
1000
0000
1000
0100
0010
0000
0010
0001
0100
0000
,  // measure 18
0001
0010
0100
1000
0001
0010
0100
0010
0001
0010
0100
1000
0001
0010
0100
1000
,  // measure 19
0001
0000
0000
0000
,  // measure 20
0000
0000
0000
0000
,  // measure 21
0000
0000
0000
0000
,  // measure 22
0000
0000
0000
0000
,  // measure 23
1010
0000
0000
0000
0000
0000
0000
0000
0000
0000
0000
0000
0000
0000
1000
0100
,  // measure 24
1000
0100
0010
0001
,  // measure 25
0010
0000
0000
0010
0000
0000
0000
0000
,  // measure 26
0100
0000
0000
0100
0000
0000
0000
0000
,  // measure 27
1100
0000
0000
0000
0000
0000
0000
0000
0000
0000
0000
0000
0000
0000
0100
0010
,  // measure 28
0100
0010
0001
0001
,  // measure 29
1000
0000
0000
0010
0010
0000
0000
0000
,  // measure 30
0100
0000
0000
0000
0000
0000
0010
0100
0010
0000
0100
0000
0001
0000
0010
0000
,  // measure 31
0100
0000
0010
0001
,  // measure 32
1000
0000
0000
0000
0000
0000
0001
0100
0001
0000
0000
0000
0100
0000
0000
0000
,  // measure 33
0110
0110
0101
0101
,  // measure 34
1001
0000
0000
0000
0000
0000
0000
0000
0001
0000
0000
0010
0000
0000
0100
0000
,  // measure 35
1000
0000
0000
0000
0000
0000
0000
0000
1000
0000
0000
0010
0000
0000
0010
0000
,  // measure 36
0100
0000
0000
0000
0000
0000
0000
0000
0100
0000
0000
0010
0000
0000
1000
0000
,  // measure 37
0001
0000
0000
1000
0000
0000
1000
0000
,  // measure 38
0010
0000
0000
0000
0000
0000
0000
0000
0100
0010
1000
0010
0100
0001
1000
0001
,  // measure 39
1000
0000
0000
0000
0000
0000
0000
0000
0000
0000
0000
0000
0000
0000
1000
0001
,  // measure 40
0100
0100
0001
0001
,  // measure 41
1000
0000
0000
0010
0010
0000
0000
0100
,  // measure 42
0001
0100
0010
1000
0001
0100
0010
1000
0001
0000
0001
0000
1000
0000
1000
0000
,  // measure 43
0110
0000
0000
0000
0000
0000
0000
0000
0000
0000
0000
0000
0000
0000
0100
0001
,  // measure 44
0010
0100
1000
0100
,  // measure 45
1000
0000
0000
0010
0010
0000
0000
0100
,  // measure 46
0001
0100
0010
1000
0001
0100
0010
1000
0001
0000
0000
0000
1000
0000
0000
0000
,  // measure 47
1100
0000
0100
0010
,  // measure 48
0100
0000
0100
1000
0010
0000
0100
0010
1000
0000
0001
0000
0010
0000
0100
0000
,  // measure 49
1100
0000
0100
0000
0110
0000
0010
0000
0011
0000
0000
0000
0100
1000
0001
1000
,  // measure 50
0010
0100
0001
0100
0010
1000
0001
0100
0010
1000
0010
1000
0010
0100
0010
0100
,  // measure 51
0001
0000
0000
0000
0000
0000
0000
0000
0001
0000
0000
1000
0000
0000
0110
0000
,  // measure 52
0101
0000
0000
0000
0000
0000
0000
0000
0001
0000
0000
0100
0000
0000
0010
0000
,  // measure 53
1010
0000
0000
0101
0000
0000
0001
0000
,  // measure 54
0010
0100
0010
0100
0010
0100
0010
0100
0010
0100
0010
0100
0010
0100
0010
0100
,  // measure 55
1000
0100
1000
0010
1000
0001
0010
0100
,  // measure 56
0010
0001
0100
1000
0100
0010
1000
0010
,  // measure 57
1000
0001
0010
0100
0010
0001
1000
0010
,  // measure 58
0100
0001
0010
0100
1000
0100
1000
0010
,  // measure 59
0100
0010
0100
0010
1000
1000
0100
1000
,  // measure 60
0001
0100
0001
0010
0001
1000
0001
0100
,  // measure 61
0001
0100
0010
0100
0010
1000
0100
0010
,  // measure 62
0100
1000
0001
0100
0101
0101
1100
1100
,  // measure 63
1001
0001
0100
0010
0100
0010
1000
0001
,  // measure 64
0010
0100
0010
0001
1000
0010
0100
0001
,  // measure 65
0010
0000
0000
0000
0000
0000
0100
1000
,  // measure 66
0100
0000
0010
0000
0001
0000
0010
0000
0001
0000
0100
0000
0010
0100
0001
1000
,  // measure 67
0001
0000
1000
0000
0100
0000
0010
0000
0100
0000
1000
0100
0010
0001
0010
0100
,  // measure 68
1000
0010
0100
0001
1000
0001
0100
0010
,  // measure 69
0100
0010
1000
0001
0010
0100
1000
0100
,  // measure 70
1000
0100
0010
0100
1000
0010
0100
0001
0010
0100
1000
0100
0010
0001
0010
0100
,  // measure 71
1100
0000
0000
0000
0000
0000
0000
0000
0000
0000
0000
0000
0100
0010
0001
0010
,  // measure 72
0100
0010
0100
1000
0100
0010
1000
0001
1000
0100
0010
0100
0010
0001
0010
0100
,  // measure 73
0010
0000
0001
0000
0010
0000
0001
0000
0010
0000
0001
0000
1000
0000
0001
0000
1000
0000
0001
0000
0000
1000
0000
0000
0010
0000
0000
0000
0000
0000
0000
0000
0000
0000
0000
0000
0100
0000
0001
0000
0100
0000
0010
0000
1000
0000
0010
0000
,  // measure 74
0100
0001
0100
0010
1000
0001
0100
0010
1000
0001
0100
0010
1000
0001
0010
0100
,  // measure 75
1000
0000
0000
0000
0000
0000
0000
0000
0000
0000
0000
0000
0100
0000
0010
0000
0100
0000
0010
0000
0000
0001
0000
0000
1000
0000
0000
0100
0000
0000
1000
0000
0000
0001
0000
0000
0010
0000
0000
0001
0000
0000
1000
0000
0000
0100
0000
0000
,  // measure 76
1000
0000
0100
0000
1000
0000
0100
0000
0000
1000
0000
0000
0001
0000
1000
0000
0001
0000
1000
0000
0000
0100
0000
0000
1000
0000
0000
0010
0000
0000
0100
0000
0000
0010
0000
0000
1000
0000
0000
0010
0000
0000
0100
0000
0000
0001
0000
0000
,  // measure 77
1000
0100
1000
0001
0100
0001
1000
0100
1000
0000
0000
0000
0100
0010
0001
0010
,  // measure 78
0001
1000
0100
0010
0001
1000
0100
0010
0100
1000
0100
0010
0001
0010
0100
1000
,  // measure 79
0001
0000
0000
0000
0000
0000
0000
0000
0000
0000
0000
0000
0001
0000
0100
0000
0001
0000
0100
0000
0000
0001
0000
0000
0100
0000
0000
0001
0000
0000
1000
0000
0000
0100
0000
0000
1000
0000
0000
0010
0000
0000
0100
0000
0000
0001
0000
0000
,  // measure 80
0010
0000
0000
0000
0000
0000
0100
0000
1000
0000
0100
0000
1000
0000
0010
0000
1000
0000
0010
0000
0100
0000
0001
0000
0100
0000
0000
0010
0000
0000
0100
0000
0000
0001
0000
0000
1000
0000
0000
0100
0000
0000
0010
0000
0000
0001
0000
0000
,  // measure 81
1001
0000
0000
0001
0100
0001
0100
0010
0100
0010
0000
0000
1001
0000
0000
1000
0100
1000
0100
0010
0100
0010
0000
0000
,  // measure 82
1001
0000
0000
0001
0100
0001
0100
0010
0100
0010
1000
0010
1000
0010
0100
0010
0100
0001
0100
0001
0100
0001
1000
0001
,  // measure 83
0100
0000
0000
0000
0000
0000
0001
0000
0100
0000
0001
0000
0100
0000
0001
0000
0100
0000
0001
0000
0100
0000
0001
0000
0100
0000
0001
0000
0100
0000
0001
0000
0100
0000
0001
0000
0010
0000
0000
0100
0000
0000
1000
0000
0000
0001
0000
0000
,  // measure 84
0010
0000
0000
0000
0000
0000
1000
0000
0100
0000
1000
0000
0100
0000
1000
0000
0100
0000
1000
0000
0100
0000
1000
0000
0100
0000
1000
0000
0100
0000
1000
0000
0000
0100
0000
0000
0010
0000
0000
0001
0000
0000
1000
0000
0000
0001
0000
0000
,  // measure 85
0010
0000
0000
0100
0000
0000
1000
0000
,  // measure 86
1000
0000
0000
0001
0010
0100
1000
0001
0010
0100
1000
0001
0010
0100
1000
0001
0010
0100
1000
0001
0010
0100
1000
0001
,  // measure 87
0020
0000
0000
0000
,  // measure 88
0000
0000
0000
0000
,  // measure 89
0030
0000
0000
0000
;
