#TITLE:King Ghidorah;
#SUBTITLE:;
#ARTIST:Mochipet;
#TITLETRANSLIT:;
#SUBTITLETRANSLIT:;
#ARTISTTRANSLIT:;
#CREDIT:;
#BANNER:King Ghidorah.png;
#BACKGROUND:King Ghidorah-background.png;
#JACKET:King Ghidorah-jacket.png;
#LYRICSPATH:;
#CDTITLE:cdtitle.png;
#MUSIC:King Ghidorah.mp3;
#OFFSET:-5.447;
#SAMPLESTART:24.540;
#SAMPLELENGTH:12.000;
#SELECTABLE:YES;
#DISPLAYBPM:*;
#BPMS:0.000=22.000,2.000=175.000,34.000=332.021,46.000=88.010,174.000=88.200,190.000=44.100,192.625=88.200;
#STOPS:45.500=0.533
;
#BGCHANGES:;

//---------------dance-single - ----------------
#NOTES:
     dance-single:
     :
     Hard:
     11:
     0.769,0.920,0.468,0.281,1.000:
0000
0000
0000
0000
0000
0000
0000
0000
1000
0000
0001
0100
0000
0000
0010
0000
,
0100
0000
0001
0010
0000
0000
0100
0000
1000
0000
0010
0100
0000
0000
0001
0000
,
1000
0000
0010
0100
0000
0000
0100
0000
0010
0000
1000
0100
0000
0000
0010
0000
,
0100
0000
1000
0010
0000
0000
0100
0000
0001
0000
0010
0100
0000
0000
0100
0000
,
1000
0000
0010
1000
0000
0000
0001
0000
1000
0000
0100
0000
0010
0000
0001
0000
,
0100
0000
1000
0000
0100
0010
0100
0000
0010
0000
0100
0000
0001
0000
0010
0000
,
0100
0000
0010
0000
0001
0000
1000
0000
0001
1000
0001
0000
0100
0000
0010
0000
,
1000
0000
0100
0000
0010
0001
0010
0001
0010
0100
1000
0100
0010
1000
0001
0010
,
0100
1000
0100
1000
0010
0100
0001
0010
0200
0000
0000
0000
0000
0000
0000
0000
,
0000
0000
0000
0000
,
0000
0000
0000
0000
,
0000
0000
0000
0000
0000
0000
0300
0000
1001
0010
0000
1001
0100
0000
1001
0100
,
0000
0010
1001
0000
0202
0000
0000
0303
1000
0010
0000
0010
0001
0000
0001
0010
,
0000
0010
0100
0000
1001
0000
0101
0000
0001
0010
0000
0010
0100
0000
0100
1000
,
0000
1000
0010
0000
0220
0000
0330
0000
0101
1010
0000
1100
0011
0000
0011
0110
,
0000
0110
0100
0100
1100
0000
1001
0000
0100
0100
0000
0010
0010
0000
1000
1000
,
0000
0001
0001
0000
0220
0000
0330
0000
0100
0100
0000
0010
0010
0000
0001
0001
,
0000
0001
0100
0000
1010
0000
2000
0000
3100
0010
0000
0010
0001
0000
0001
0100
,
0000
0100
1000
0000
1100
0000
0110
0000
0010
1001
0000
0100
1010
0000
0100
0011
,
0000
0001
0010
1000
0020
0000
0230
0000
1300
0100
0000
1000
0010
0000
0010
0100
,
0000
0010
1000
0001
0200
0000
0000
0000
0301
0100
0000
0100
1000
0000
1000
0100
,
0000
0010
1000
0001
2001
0000
0000
0000
3100
1000
0000
0100
0100
0000
0010
0010
,
0000
0001
0010
0100
2000
0000
0000
0000
3100
1000
0000
0010
0100
0000
0010
1000
,
0000
0001
0010
0100
2000
0000
3001
0000
0001
0010
0001
0010
0100
0010
0001
0100
,
1000
0100
0010
1000
0001
0020
0000
0030
0010
0100
1000
0100
0001
0100
0100
0010
,
0001
0010
1000
0010
0200
0000
0000
0000
1300
0100
0001
0100
0010
0001
0100
1000
,
0100
0010
1000
0001
0020
0000
0030
0000
0011
1100
0000
0101
1010
0000
1001
1001
,
0000
0000
0000
0001
0000
0000
0010
0000
0000
0100
0000
0000
2000
0000
0000
0000
0000
0000
3001
0000
0000
0000
0000
0000
0001
0000
0100
0000
0010
0000
1000
0000
0001
0000
0100
0000
0010
0000
1000
0000
0001
0000
0100
0000
0010
0000
1000
0000
,
0001
0010
0100
1000
0100
0010
0001
0010
0100
1000
0100
0010
0001
0100
0010
1000
0100
0010
0100
1000
0010
0100
0001
0010
,
0100
0010
0001
0100
0010
1000
0100
0010
0100
1000
0010
0100
0001
1000
0100
1000
0001
0100
0001
0010
0100
0010
0100
1000
,
0100
1000
0010
0100
0001
0010
0100
0010
0001
0100
0010
1000
0001
0010
0100
1000
0100
0010
0100
1000
0100
0010
0001
0010
,
0100
0010
0001
0100
0010
1000
0100
0010
0100
1000
0010
0100
0001
0010
0100
0010
0001
0100
0001
0010
0100
0010
0001
1000
,
0010
1000
0010
1000
0010
0100
0010
0100
0001
0100
0001
0100
0001
1000
0001
1000
0100
1000
0100
0010
0001
0010
0100
0010
,
0001
0100
0010
1000
0001
0010
0100
0010
0001
0100
0010
1000
0100
1000
0010
0100
0001
0010
0001
1000
0100
1000
0001
0100
,
0001
0010
0001
1000
0010
1000
0001
0010
0100
1000
0100
1000
0100
0010
0100
1000
0010
0100
0001
0010
0100
1000
0100
0010
,
0100
0000
1000
0000
0001
0000
0100
0000
0010
0000
1000
0000
0200
0000
0000
0000
0000
0000
1300
0000
0000
0000
0000
0000
0100
0000
0000
1000
0000
0000
0000
0000
0000
0100
0000
0000
0001
0000
0000
0000
0000
0000
0001
0000
0000
0100
0000
0000
,
0000
0100
0010
0000
0022
0000
0033
0000
0001
0100
0000
1000
0100
0000
0100
0010
,
0000
1000
0010
0000
2100
0000
3100
0000
1000
0100
0000
0100
0010
0000
0010
0100
,
0000
0100
1000
0000
0110
0000
0000
0000
1001
0101
0000
0010
1001
0000
0010
1001
,
0000
0001
0100
1000
0100
0000
0110
0000
0010
1000
0000
0010
0100
0000
0001
0100
,
0000
0010
0100
0000
2002
0000
3003
0000
0001
0010
0000
0010
0100
0000
0100
0010
,
0000
0010
0010
0000
0110
0100
2000
0000
3001
0100
0000
0100
1000
0000
1000
0100
,
0000
0010
0100
0000
0220
0000
0330
0000
0100
1001
0000
1010
0001
0000
0100
1001
,
0000
0000
0010
0000
1001
0000
0101
0000
0011
0000
0000
0000
0110
0000
0000
0000
1000
0100
0010
0000
0000
0000
0010
0001
0100
0000
0000
0000
0100
0010
1000
0001
,
0200
0000
0000
0000
0001
0000
0000
0000
0302
0000
0000
0000
0000
0000
0000
0000
0013
0100
1000
0000
0000
0000
1000
0010
0100
0000
0000
0000
0100
0010
1000
0000
,
0100
0000
0000
0000
0000
0000
0000
0000
0000
0000
0000
0000
0000
0000
0000
0000
0000
0000
0000
0000
0100
0000
0000
0000
0010
0000
0000
0000
0000
0000
0000
0000
0000
0000
0000
0000
0001
0000
0000
0000
0000
0000
0000
0000
0000
0000
0000
0000
1000
0000
0000
0000
0000
0000
0000
0000
0000
0000
0000
0000
0001
0000
0000
0000
0000
0000
0000
0000
0000
0000
0000
0000
0020
0000
0000
0000
0000
0000
0000
0000
0000
0000
0000
0000
0000
0000
0000
0000
0000
0000
0000
0000
0000
0000
0000
0000
0130
0000
0000
0000
0000
0000
0010
0000
0000
0000
0000
0000
0001
0000
0000
0000
0000
0000
0000
0000
0000
0000
0000
0000
0000
0000
0000
0000
0000
0000
0000
0000
0000
0000
0000
0000
0001
0000
0000
0000
0000
0000
0100
0000
0000
0000
0000
0000
0010
0000
0000
0000
0000
0000
0000
0000
0000
0000
0000
0000
0000
0000
0000
0000
0000
0000
0000
0000
0000
0000
0000
0000
0100
0000
0000
0000
0000
0000
0010
0000
0000
0000
0000
0000
1000
0000
0000
0000
0000
0000
0000
0000
0000
0000
0000
0000
,
0100
0000
0000
0000
0000
0000
0000
0000
0000
0000
0000
0000
0000
0000
0000
0000
0000
0000
0000
0000
0100
0000
0000
0000
0010
0000
0000
0000
0000
0000
0000
0000
0000
0000
0000
0000
0100
0000
0000
0000
0000
0000
0000
0000
0000
0000
0000
0000
2000
0000
0000
0000
0000
0000
0000
0000
0000
0000
0000
0000
0000
0000
0000
0000
0000
0000
0000
0000
0000
0000
0000
0000
0000
0000
0000
0000
0000
0000
0000
0000
0000
0000
0000
0000
0000
0000
0000
0000
0000
0000
0000
0000
0000
0000
0000
0000
3100
0000
0000
0000
0000
0000
0010
0000
0000
0000
0000
0000
0001
0000
0000
0000
0000
0000
0000
0000
0000
0000
0000
0000
0000
0000
0000
0000
0000
0000
0000
0000
0000
0000
0000
0000
0001
0000
0000
0000
0000
0000
0100
0000
0000
0000
0000
0000
1000
0000
0000
0000
0000
0000
0000
0000
0000
0000
0000
0000
0000
0000
0000
0000
0000
0000
0000
0000
0000
0000
0000
0000
1000
0000
0000
0000
0000
0000
0100
0000
0000
0000
0000
0000
0010
0000
0000
0000
0000
0000
0000
0000
0000
0000
0000
0000
,
0100
0000
0000
0000
0000
0000
0000
0000
0000
0000
0000
0000
0010
0000
0000
0000
0000
0000
0100
0000
0000
0000
0000
0000
0010
0000
0000
0000
0000
0000
0000
0000
0000
0000
0000
0000
0100
0000
0000
0000
0000
0000
0000
0000
0000
0000
0000
0000
2001
0000
0000
0000
0000
0000
0000
0000
0000
0000
0000
0000
0001
0000
0000
0000
0000
0000
0000
0000
0000
0000
0000
0000
0002
0000
0000
0000
0000
0000
0000
0000
0000
0000
0000
0000
3003
0000
0000
0000
0000
0000
0000
0000
0000
0000
0000
0000
0101
0000
0000
0000
0000
0000
0000
0000
1010
0000
0000
0000
0000
0000
0000
0000
1100
0000
0000
0000
0000
0000
0000
0000
0110
0000
0000
0000
0000
0000
0000
0000
0011
0000
0000
0000
0000
0000
0000
0000
1001
0000
0000
0000
0000
0000
0000
0000
0001
0000
0000
0000
1000
0000
0000
0000
0010
0000
0000
0000
0100
0000
0000
0000
0001
0000
0000
0000
0010
0000
0000
0000
0100
0000
0000
0000
1000
0000
0000
0000
0100
0000
0000
0000
0020
0000
0000
0000
0000
0000
0000
0000
0000
0000
0000
0000
,
0000
0000
0000
0000
0000
0000
0000
0000
0030
0000
0000
0000
0011
0000
0000
0000
0000
0000
1100
0000
0000
0000
0000
0000
0011
0000
0000
0000
0000
0000
2002
0000
0000
0000
0000
0000
3003
0000
0000
0000
0000
0000
0000
0000
0000
0000
0000
0000
0000
0000
0000
0000
0000
0000
0000
0000
0000
0000
0000
0000
0000
0000
0000
0000
0000
0000
0000
0000
0000
0000
0000
0000
0000
0000
0000
0000
0000
0000
0000
0000
0000
0000
0000
0000
0000
0000
0000
0000
0000
0000
0000
0000
0000
0000
0000
0000
0000
0000
0000
0000
0000
0000
0000
0000
0000
0000
0000
0000
0000
0000
0000
0000
0000
0000
0000
0000
0000
0000
0000
0000
0000
0000
0000
0000
0000
0000
0000
0000
0000
0000
0000
0000
0000
0000
0000
0000
0000
0000
0000
0000
0000
0000
0000
0000
0000
0000
0000
0000
0000
0000
0000
0000
0000
0000
0000
0000
0000
0000
0000
0000
0000
0000
0000
0000
0000
0000
0000
0000
0000
0000
0000
0000
0000
0000
0000
0000
0000
0000
0000
0000
0000
0000
0000
0000
0000
0000
0000
0000
0000
0000
0000
0000
;

//---------------dance-single - ----------------
#NOTES:
     dance-single:
     :
     Medium:
     9:
     0.588,0.694,0.335,0.491,0.616:
0000
0000
0000
0000
0000
0000
0000
0000
1000
0000
0000
0001
0000
0000
0100
0000
,
0001
0000
0000
0010
0000
0000
0100
0000
0010
0000
0000
0001
0000
0000
1000
0000
,
0010
0000
0000
0100
0000
0000
0010
0000
1000
0000
0000
0010
0000
0000
0100
0000
,
0001
0000
0000
0100
0000
0000
0001
0000
0010
0000
0000
0010
0000
0000
0100
0000
,
1000
0000
0000
1000
0000
0000
0001
0000
0100
0000
0010
0000
1000
0000
0001
0000
,
0100
0010
0100
0000
0100
0001
0010
0100
,
1000
0100
0010
0000
0100
1000
0010
0100
,
0001
0010
0100
0010
0002
0000
0000
0000
,
2003
3200
0320
0000
,
0000
0000
0000
0000
,
0000
0000
0000
0000
,
0000
0000
0000
0000
0000
0000
0030
0000
0001
0100
0000
0010
1000
0000
0001
0100
,
0000
0010
1000
0000
2002
0000
3003
0000
1000
0100
0000
0010
0001
0000
1000
0100
,
0000
0010
0001
0000
0001
0000
0100
0000
0010
0100
0000
0010
1000
0000
0010
0100
,
0000
0010
1000
0000
2020
0000
3030
0000
1000
1010
0000
0010
0110
0000
0100
0101
,
0000
0001
0010
0100
1000
0000
1100
0000
1000
0001
0000
0001
0100
0000
0100
0010
,
0000
0010
1000
0000
2020
0000
3030
0000
1000
0010
0000
0010
0100
0000
0100
0001
,
0000
0001
0010
0000
0200
0000
1000
0000
0310
0100
0000
0100
1000
0000
1000
0010
,
0000
0010
0100
0000
0202
0000
0303
0000
0001
0101
0000
0100
0110
0000
0010
0110
,
0000
0010
0100
0100
0010
0000
1000
0000
0102
0000
0103
0000
0201
0000
0301
0000
,
0102
0103
0202
0303
1020
1030
2010
3010
,
1020
1030
2020
3030
1002
1003
2001
3001
,
1002
1003
2002
3003
0102
0103
0201
0301
,
0102
0103
0220
0330
1020
1030
0120
0130
,
0210
0310
2002
3003
0102
0103
0120
0130
,
0120
0130
0110
0000
1002
1003
2100
3100
,
0210
0000
0310
0000
0022
0000
0033
0000
0001
0100
0000
0010
1000
0000
1000
0100
,
0000
0100
0010
0001
0010
0000
0001
0000
1000
0100
0000
0100
0010
0000
0010
0001
,
0000
0001
0020
0000
0000
0000
0000
0000
0130
1000
0000
0100
0010
0000
0010
0001
,
0000
0001
0100
0000
0010
0000
0100
0000
0001
1000
0000
0100
0010
0000
0010
0001
,
0000
0001
0020
0000
0000
0000
0000
0000
0130
1000
0000
0100
0010
0000
0010
0001
,
0000
0000
0000
0001
0000
0000
1000
0000
0000
1000
0000
0000
0001
0000
0000
0000
0000
0000
0100
0000
0000
0000
0000
0000
0001
0000
0100
0000
0010
0000
1000
0000
0000
0000
0000
0000
1000
0000
0100
0000
0010
0000
0001
0000
0000
0000
0000
0000
,
0001
0010
0100
1000
0000
0000
1000
0001
0100
0010
1000
0001
0010
0100
1000
0100
0000
0000
0100
0010
0001
0010
0000
0000
,
0001
0100
0010
0100
0000
0000
0100
0010
1000
0001
0010
0100
1000
0100
0010
0001
0000
0000
0001
0100
0010
0100
0000
0000
,
0100
0000
0010
0000
1000
0000
0001
0000
0000
0000
0000
0000
0001
0000
0010
0000
0100
0000
0010
0000
0001
0000
1000
0000
0001
0000
0000
0100
0000
0000
0000
0000
0000
0010
0000
0000
1000
0000
0000
0000
0000
0000
1000
0000
0000
0100
0000
0000
,
0000
0100
0010
0001
0020
0000
0030
0000
0001
0100
0000
0010
1000
0000
0001
0100
,
0000
0010
1000
0000
0202
0000
0303
0000
0001
0010
0000
0100
1000
0000
0001
0010
,
0000
0100
1000
0000
1000
0100
0020
0000
0130
1000
0000
0100
0010
0000
0010
0001
,
0000
0001
0010
0000
0200
0000
0000
0000
0310
0001
0000
0001
0010
0000
0010
0001
,
0000
0001
0010
0010
0100
0000
1000
0000
0100
1000
0000
1000
0010
0000
0010
0100
,
0000
0100
0010
0000
2002
0000
3003
0000
0001
0100
0000
0010
1000
0000
0001
0010
,
0000
0010
0100
0000
0100
1000
0020
0000
0130
0010
0000
0010
0100
0000
0100
0010
,
0000
0010
0100
0000
2002
0000
3003
0000
0001
0100
0000
0010
1000
0000
1000
0100
,
0000
1000
0100
0010
0001
0000
1000
0000
0001
0100
0000
0010
1000
0000
0001
0100
,
0010
0000
0100
0010
2000
0000
0000
0000
3001
0010
0000
0100
1000
0000
1000
0100
,
0010
0000
0100
0000
1000
0010
0200
0000
0301
1000
0000
0001
0100
0000
0001
0100
,
0010
0000
0100
0001
2000
0000
0000
0000
3100
1000
0000
0100
0010
0000
0010
0001
,
0010
0000
0000
0000
0000
0000
0100
0000
0000
0000
0000
0000
1000
0000
0000
0010
0000
0000
0100
0000
0000
0000
0000
0000
0001
0000
1000
0000
0001
0000
1000
0000
0001
0000
1000
0000
0220
0000
0000
0000
0000
0000
0000
0000
0000
0330
0000
0000
,
0000
0000
0100
0100
1000
0010
0000
0000
0000
0000
0000
0000
0000
0000
0000
0000
0000
0000
0000
0000
0000
0000
0000
0000
0000
0000
0000
0000
0000
0000
0000
0000
;

//---------------dance-single - ----------------
#NOTES:
     dance-single:
     :
     Easy:
     6:
     0.335,0.357,0.249,0.140,0.121:
0000
0000
0010
0000
,
0100
0000
0001
0000
,
1000
0000
0100
0000
,
1000
0000
0010
0000
,
0100
0001
2000
0000
,
0000
0000
3020
0000
,
0000
0000
0230
0000
,
0000
0000
0302
0000
,
2003
3020
0200
0000
,
0000
0000
0000
0000
,
0000
0000
0000
0000
,
0000
0000
0000
0000
0000
0000
0330
0000
0001
0000
0000
0000
1000
0000
0000
0100
,
0000
0000
1000
0000
0010
0000
0000
0000
0100
0000
0000
0000
0010
0000
0000
0100
,
0000
0000
0001
0000
1000
0000
0000
0000
0100
0000
0000
0000
1000
0000
0000
0100
,
0000
0000
0010
0000
0001
0000
0000
0000
0011
0000
0000
0000
1100
0000
0000
0101
,
0000
0000
0001
0000
1000
0000
0010
0000
0100
0000
0000
0000
0010
0000
0000
1000
,
0000
0000
0010
0000
0110
0000
0000
0000
0100
0000
0000
0000
0010
0000
0000
1000
,
0000
0000
0100
0000
0110
0000
0000
0000
0010
0000
0000
0000
0100
0000
0000
1000
,
0000
0000
0001
0000
1001
0000
0000
0000
0101
0000
0000
0000
1010
0000
0000
0101
,
0000
1001
1100
1001
0001
0000
0100
0000
,
0010
1000
1010
0000
1000
0000
0100
0000
,
0010
0100
0010
0000
0100
0000
0010
0000
,
0001
0010
0110
0000
0100
0000
1000
0000
,
0010
0100
1001
0000
0001
1000
0100
1000
,
0001
0100
0101
0000
0001
1000
0010
1000
,
0001
0010
0100
0000
0010
0001
0100
1000
,
0100
0010
1000
0000
0010
0100
0001
1000
,
0100
0010
0110
1001
1001
0001
0001
0001
,
0100
0010
0100
0010
1000
1000
1000
1000
,
0001
1000
0001
1000
0100
0100
0100
0100
,
0010
0100
1000
0100
0010
0001
0010
1000
,
0010
0001
0010
1000
0100
1000
0010
0100
,
0001
1000
0001
0100
0001
1000
0001
1000
,
0100
1000
0010
0100
0010
1000
0010
0100
,
0001
0010
0100
0010
0001
1000
0010
0100
,
0001
0000
0010
0000
0100
0000
1001
0000
0001
0000
0000
0000
0100
0000
0000
0010
,
0000
0000
1000
0000
2002
0000
3003
0000
0010
0000
0000
0000
0100
0000
0000
0001
,
0000
0000
1000
0000
2200
0000
3300
0000
1000
0000
0000
0000
0100
0000
0000
0010
,
0000
0000
0001
0000
0022
0000
0033
0000
0001
0100
0000
0001
0100
0000
0001
0100
,
0000
0001
0100
0010
1000
0000
0010
0000
0100
0000
0000
0000
0010
0000
0000
1000
,
0000
0000
0100
0000
0220
0000
0330
0000
0110
0000
0000
0000
0100
0000
0000
1000
,
0000
0000
0100
0000
0010
0001
2000
0000
3010
0000
0000
0000
0100
0000
0000
0001
,
0000
0000
1000
0000
1100
0000
0000
0000
1000
0100
0000
0010
0001
0000
0001
0100
,
0000
0001
0100
0010
1000
0000
0010
0000
0100
0000
0000
0010
0000
0000
0100
0000
,
1001
0000
0000
0000
0110
0000
0000
0000
0001
0000
0000
0100
0000
0000
0010
0000
,
1010
0000
0000
0000
0010
0100
0010
0000
0100
0000
0000
0010
0000
0000
1000
0000
,
1001
0000
0000
0000
0101
0000
0000
0000
1001
0000
0000
1000
0000
0000
0100
0000
,
1000
0000
0100
0000
0010
0000
0001
0000
0200
0000
0000
0000
0000
0000
0000
0020
,
0000
0000
0000
0330
0000
0000
0000
0000
0000
0000
0000
0000
0000
0000
0000
0000
;

//---------------dance-single - ----------------
#NOTES:
     dance-single:
     :
     Beginner:
     3:
     0.207,0.336,0.234,0.039,0.008: // measure 1
0000
0000
0000
0000
,  // measure 2
1000
0000
0001
0000
,  // measure 3
0100
0000
0001
0000
,  // measure 4
1000
0000
0100
0000
,  // measure 5
1000
0000
0020
0000
,  // measure 6
0000
0030
0200
0000
,  // measure 7
0000
0300
0002
0000
,  // measure 8
0000
0003
2000
0000
,  // measure 9
3001
0000
0000
0000
0100
0000
0000
0020
0000
0000
0000
0000
0000
0000
0000
0000
,  // measure 10
0000
0000
0000
0000
,  // measure 11
0000
0000
0000
0000
,  // measure 12
0000
0000
0000
0030
0110
0000
0000
0000
,  // measure 13
0000
0010
1001
0000
,  // measure 14
0000
1000
0110
0000
,  // measure 15
0000
0001
0010
0010
,  // measure 16
0010
0000
0100
0100
1000
0000
0000
0000
,  // measure 17
0000
1001
0010
0000
,  // measure 18
0000
0110
0110
0000
,  // measure 19
0000
1001
0010
0100
,  // measure 20
0001
0000
1000
1000
0100
0000
1000
0000
,  // measure 21
0010
0100
0010
1000
,  // measure 22
0001
1000
1000
0100
,  // measure 23
1000
0010
1000
0001
,  // measure 24
0100
0001
1000
0001
,  // measure 25
0100
0110
0010
0100
,  // measure 26
0001
1001
1000
0001
,  // measure 27
0100
0110
0100
0010
,  // measure 28
1000
0000
0001
1000
0001
0000
0001
0000
,  // measure 29
0001
0001
1000
1000
,  // measure 30
1000
1000
0010
0010
,  // measure 31
0010
0010
0100
0010
,  // measure 32
1000
0010
1000
0001
,  // measure 33
1000
0001
1000
0001
,  // measure 34
1000
0001
1000
0001
,  // measure 35
1000
0001
1000
0001
,  // measure 36
1000
0001
1000
1001
1001
0000
0001
0000
,  // measure 37
0100
0110
0100
0001
,  // measure 38
1000
1001
1000
0001
,  // measure 39
0100
1001
1001
0110
,  // measure 40
1001
0000
0010
0010
1001
0000
0100
0000
,  // measure 41
0010
1001
0100
0010
,  // measure 42
1000
0110
0010
1000
,  // measure 43
0001
0110
1001
0110
,  // measure 44
1001
0000
1001
0110
1001
0000
0001
0000
,  // measure 45
1001
0000
1000
0001
,  // measure 46
0100
0000
0001
0010
,  // measure 47
0100
0000
1000
0100
,  // measure 48
0010
0000
0000
0000
0000
0000
0000
0000
0100
0000
0000
0000
0000
0000
0000
1001
;
