#TITLE:Keep It In The Family;
#SUBTITLE:;
#ARTIST:Hybrid;
#TITLETRANSLIT:;
#SUBTITLETRANSLIT:;
#ARTISTTRANSLIT:;
#CREDIT:;
#BANNER:Keep It In The Family-banner.png;
#BACKGROUND:Keep It In The Family-bg.png;
#LYRICSPATH:;
#CDTITLE:;
#MUSIC:Keep It In The Family.mp3;
#OFFSET:-5.502;
#SAMPLESTART:16.340;
#SAMPLELENGTH:12.000;
#SELECTABLE:YES;
#BPMS:0.000=88.033;
#STOPS:;
#BGCHANGES:;

//---------------dance-single - ----------------
#NOTES:
     dance-single:
     :
     Hard:
     8:
     0.450,0.452,0.337,0.034,0.741: // measure 1
0001
0010
0100
1000
0000
0000
1000
0100
0010
0001
0000
0000
,  // measure 2
0001
0100
0010
1000
0000
0000
1000
0010
0100
0001
0000
0000
,  // measure 3
1000
0100
0010
0100
0000
0000
0010
0001
0100
0010
0000
0000
,  // measure 4
0100
1000
0100
0001
0000
0000
0001
0010
1000
0010
0000
0000
,  // measure 5
0010
0001
0100
0010
1000
0010
0100
0001
1000
0100
1000
0100
,  // measure 6
1000
0010
0100
0001
0010
0001
0010
0100
0010
0001
0100
0001
,  // measure 7
1000
0001
0100
0010
0100
0001
1000
0100
1000
0001
0100
0001
,  // measure 8
1000
0100
1000
0010
1000
0001
1000
0100
1000
0001
0010
0100
,  // measure 9
1000
0000
0100
0010
0000
0010
0001
0000
0001
0100
0000
0100
,  // measure 10
0010
0000
0010
1000
0000
1000
0001
0000
0001
0010
0000
0010
,  // measure 11
0100
0000
0100
1000
0000
1000
0100
0000
0100
0010
0000
0010
,  // measure 12
0001
0000
0001
1000
0000
1000
0001
0000
0001
0100
0000
0100
,  // measure 13
0010
1000
0010
0110
0000
0000
0100
0001
1000
1100
0000
0000
,  // measure 14
1000
0100
0010
0011
0000
0000
0001
0010
0100
1100
0000
0000
,  // measure 15
0100
0010
0001
1001
0000
0000
0001
0100
0010
1010
0000
0000
,  // measure 16
0100
0010
1000
1100
0000
0000
1000
0001
0010
0110
0000
0000
,  // measure 17
1001
0001
0000
0101
0000
0001
1001
1000
0000
1010
0000
0010
,  // measure 18
0110
0100
0000
1010
0000
0010
0110
0100
0000
1001
0000
0001
,  // measure 19
0101
0100
0000
1010
0000
1000
1100
0100
0000
0110
0000
0010
,  // measure 20
0011
0001
0000
1001
0000
0001
0101
0100
0000
1010
0000
0010
,  // measure 21
0110
0010
0000
1001
0000
0001
0101
0100
0000
1010
0000
0100
,  // measure 22
1100
0010
0000
0110
0000
0010
0011
0100
0000
0110
0000
0001
,  // measure 23
1001
0001
0000
1010
0000
0010
0110
0100
0000
1001
0000
0001
,  // measure 24
0011
0010
0000
1100
0000
0100
0110
0010
0000
1100
0000
1000
,  // measure 25
0001
0100
0001
0010
0001
0010
0001
0100
0001
1000
0001
1000
,  // measure 26
0001
0100
0001
0010
0001
0100
0001
1000
0001
1000
0100
1000
,  // measure 27
0001
0100
0001
1000
0001
0100
0001
0100
0001
0010
0001
0010
,  // measure 28
0001
1000
0001
0100
0001
1000
0001
0010
0100
1000
0001
1000
,  // measure 29
1000
0010
1000
0100
1000
0100
1000
0010
1000
0001
1000
0001
,  // measure 30
1000
0010
1000
0100
1000
0010
1000
0001
1000
0001
0010
0001
,  // measure 31
1000
0010
1000
0001
1000
0010
1000
0010
1000
0100
1000
0100
,  // measure 32
1000
0001
1000
0010
1000
0001
1000
0100
0010
0001
1000
0100
,  // measure 33
0010
0010
0010
0010
,  // measure 34
0010
0010
0010
0010
,  // measure 35
0001
0001
0001
0001
,  // measure 36
0001
0001
0001
0001
,  // measure 37
1000
1000
1000
1000
,  // measure 38
1000
1000
0020
0000
,  // measure 39
0200
0000
0000
0000
,  // measure 40
0330
0000
0002
0000
,  // measure 41
2000
0000
0000
0000
,  // measure 42
0000
0000
0000
0000
3003
0000
0000
0000
0000
0000
0000
0000
;

//---------------dance-single - ----------------
#NOTES:
     dance-single:
     :
     Medium:
     6:
     0.346,0.435,0.312,0.076,0.379:
1001
0000
0001
0100
0000
0100
0010
0000
0010
1000
0000
1000
,
0100
0000
0100
0010
0000
0010
0100
0000
0100
1000
0000
1000
,
0001
0000
0001
0100
0000
0100
0010
0000
0010
1000
0000
1000
,
0100
0000
0100
0010
0000
0010
0001
0000
0001
0010
0000
0010
,
0110
0110
1001
0101
,
0001
0000
0100
0010
0000
0010
1000
0000
1000
0100
0000
0100
,
1000
1100
0100
0110
,
0010
0011
1100
0101
,
0001
0100
0010
0100
0000
0000
0010
0000
0000
1010
0000
0000
,
1000
0100
0010
0001
0000
0000
0010
0000
0000
0110
0000
0000
,
0100
0010
0001
1000
0000
0000
0001
0000
0000
0101
0000
0000
,
0001
0100
0010
0100
0000
0000
0010
0000
0000
0110
0000
0000
,
0100
1000
0100
0001
0000
0000
0010
0000
0000
1100
0000
0000
,
1000
0100
0010
0001
0000
0000
0010
0000
0000
0011
0000
0000
,
0001
0010
1000
0010
0000
0000
0100
0000
0000
1100
0000
0000
,
1020
0000
0230
0000
,
0301
1001
0001
0110
,
1000
0110
0001
1100
,
0100
0110
0100
1100
,
1000
1001
0001
0101
,
1001
0000
0000
0110
0000
0000
0101
0001
0100
0010
0000
0000
,
0110
0000
0000
1010
0000
0000
1010
0010
0100
0010
0000
0000
,
0101
0000
0000
1010
0000
0000
1000
0010
0100
0010
0000
0000
,
0110
0000
0000
1010
0000
0000
0110
0010
1000
0001
0000
0000
,
1000
0100
1000
0100
1000
0100
1000
0000
0000
0100
0000
0000
,
0010
0001
0010
0001
0010
0001
0010
0000
0000
0001
0000
0000
,
0100
0010
0100
0010
0100
0010
0100
0000
0000
0010
0000
0000
,
1000
0001
1000
0001
1000
0001
1000
0000
0000
0100
0000
0000
,
1000
0100
1000
0100
1000
0100
1000
0100
1000
0100
1000
0100
,
0010
0001
0010
0001
0010
0001
0010
0001
0010
0001
0010
0001
,
0010
0100
1000
0100
0010
0001
0010
0100
1000
0100
0010
0001
,
0010
0001
0010
0100
0001
0100
0001
0100
0010
0100
0010
1000
,
0010
0100
0010
0100
,
0010
0100
0010
0100
,
0002
1000
1000
1000
,
1003
1000
2000
0100
,
3200
1000
1000
1000
,
1000
1000
0320
0000
,
0032
0000
0000
0000
,
0003
0000
2000
0000
,
0020
0000
0000
0000
,
0000
0000
0000
0000
3030
0000
0000
0000
0000
0000
0000
0000
;

//---------------dance-single - ----------------
#NOTES:
     dance-single:
     :
     Easy:
     3:
     0.235,0.311,0.387,0.143,0.000:
1001
0001
0100
0001
,
1000
0100
1000
0010
,
0100
0001
0100
0010
,
0100
0001
1000
0100
,
1020
1030
0010
0100
,
0002
1003
0200
0310
,
0001
0010
0100
1000
,
0200
1300
2000
3010
,
0100
0001
0100
1000
,
0100
0001
0100
1000
,
0100
0001
0100
1000
,
0100
0001
0100
1000
,
0001
0010
1000
0010
,
0001
0010
1000
0010
,
0000
0100
0000
1000
,
0000
0010
0000
0100
,
1001
0101
0001
0010
,
0110
1100
0100
0010
,
0011
1100
0100
1000
,
1010
0101
0100
0100
,
0110
1001
0101
1001
,
1100
0110
0011
1001
,
0011
1010
0011
1001
,
0101
1010
1100
0110
,
2100
0100
0100
3100
,
0102
0100
0100
0103
,
0021
0001
0001
0031
,
2010
0010
0010
3010
,
0110
1001
0101
1010
,
1001
1100
0110
1100
,
1001
0101
1001
1100
,
1001
0101
1001
1100
,
0200
0000
0000
0000
,
0000
0000
0000
0000
,
2300
0000
0000
0000
,
0000
0000
3002
0000
,
0203
0000
0000
0000
,
0000
0000
0302
0000
,
0023
0000
0000
0000
,
0000
0000
0230
0000
,
2000
0000
0000
0000
,
3300
0000
0000
0000
;

//---------------dance-single - ----------------
#NOTES:
     dance-single:
     :
     Beginner:
     1:
     0.082,0.101,0.042,0.000,0.000:
0001
0000
0001
0000
,
0100
0000
0100
0000
,
0010
0000
0010
0000
,
1000
0000
1000
0000
,
1001
0000
0000
0000
,
0010
0000
0100
0000
,
0001
0000
0000
0000
,
1000
0000
0100
0000
,
1000
0000
1000
0000
,
1000
0000
1000
0000
,
0001
0000
0001
0000
,
0001
0000
0001
0000
,
0100
0000
0000
0000
,
0001
0000
0000
0000
,
0010
0000
0000
0000
,
0100
0000
0000
0000
,
0110
0000
0100
0000
,
0100
0000
1000
0000
,
0001
0000
0100
0000
,
0001
0000
1000
0000
,
0100
0000
1000
0000
,
0010
0000
0100
0000
,
0001
0000
1000
0000
,
0100
0000
1000
0000
,
1001
0000
0000
0000
,
0110
0000
0100
0000
,
0100
0000
0000
0000
,
0001
0000
0010
0000
,
0110
0000
0000
0000
,
0100
0000
1000
0000
,
0010
0000
0000
0000
,
0100
0000
0001
0001
,
1000
0000
0000
0000
,
0000
0000
0000
0000
,
0100
0000
0000
0000
,
0000
0000
1000
0000
,
0010
0000
0000
0000
,
0000
0000
0100
0000
,
0010
0000
0000
0000
,
0000
0000
0001
0000
,
1000
0000
0000
0000
;
