#TITLE:Jatatap;
#SUBTITLE:;
#ARTIST:X-Ray;
#TITLETRANSLIT:;
#SUBTITLETRANSLIT:;
#ARTISTTRANSLIT:;
#CREDIT:;
#BANNER:Jatatap.png;
#BACKGROUND:Jatatap-background.png;
#JACKET:Jatatap-jacket.png;
#LYRICSPATH:;
#CDTITLE:cdtitle.png;
#MUSIC:Jatatap.mp3;
#OFFSET:-11.720;
#SAMPLESTART:82.420;
#SAMPLELENGTH:12.000;
#SELECTABLE:YES;
#BPMS:0.000=166.230;
#STOPS:;
#BGCHANGES:;

//---------------dance-single - ----------------
#NOTES:
     dance-single:
     :
     Hard:
     8:
     0.436,0.471,0.000,0.391,0.106:
2000
0100
0100
0100
,
0001
0000
0001
0000
3001
1000
0010
1000
,
0200
0010
0010
0010
,
0320
0001
0001
0230
,
2300
0000
0001
0000
0001
0000
3001
0100
,
0100
0010
1000
0001
0010
0100
0020
0000
,
0032
0000
0100
0000
0100
0000
0103
0010
,
2000
0010
0100
0010
,
3200
0010
1000
0010
,
1000
0000
0010
0000
1300
0010
0100
0100
,
0002
0000
0100
0000
0100
0000
0103
0001
,
0020
0100
0100
0100
,
0031
0000
0000
0100
0000
0000
0010
0000
2000
0000
0000
0000
3100
0000
0000
0000
,
1000
0000
0000
0001
0000
0000
0100
0000
0002
0000
0000
0000
0013
0000
0000
0000
,
0002
0010
0100
1000
,
2003
0001
0100
0010
,
3020
0000
0000
0000
0000
1030
0010
0002
,
0000
0000
0000
0000
0000
0013
0100
0020
,
0000
0000
0000
0000
0000
0000
0000
0130
,
0010
0000
0000
0000
0000
1000
0000
0001
,
2000
0000
0000
0000
0000
3100
0010
0002
,
0000
0000
0000
0000
0000
0013
0100
2000
,
0000
0000
0000
0000
,
3000
0000
0000
0000
1000
0001
1000
0001
,
0200
0000
0000
0000
0000
0310
1000
0020
,
0000
0000
0000
0000
0000
0130
0001
0200
,
0000
0000
0000
0000
0000
0000
0000
0001
,
0301
0000
0000
0000
0000
1000
0000
0001
,
0200
0000
0000
0000
0000
0310
1000
0002
,
0000
0000
0000
0000
0000
0013
0100
0020
,
0000
0000
0000
0000
,
0030
0000
0000
0000
0100
0100
1000
1000
,
0001
0000
0000
0100
0000
0000
0001
0000
0000
0000
0000
0000
0000
0000
0000
0000
,
0001
0010
0010
0001
0010
1000
0010
0100
,
0010
0000
0000
0100
0000
0000
1000
0000
0000
0000
0100
0000
0000
0000
0000
0000
,
0000
0000
0000
1000
0010
0010
0020
0000
,
0130
0000
0000
0010
0000
0000
1000
0000
0000
0000
0000
0000
0000
0000
0000
0000
,
1000
0100
1000
0010
0001
0010
0100
0010
,
1000
0000
0000
0001
0000
0000
0100
0000
0000
0000
0001
0000
0010
0000
0000
0000
,
0000
0100
1000
0000
0100
0100
1000
0001
,
0100
0000
0000
0010
0000
0000
0100
0000
0000
0000
0000
0000
0000
0000
0000
0000
,
0010
1000
0001
0010
1000
0010
0100
0010
,
0100
0000
0000
1000
0000
0000
0100
0000
0000
0000
1000
0000
0000
0000
0000
0000
,
0100
0000
0000
0000
0000
1000
0100
0001
,
0100
0000
0000
0010
0000
0000
0000
0000
0000
0000
0000
0000
0000
0000
0000
0000
,
0001
0100
1000
0100
0010
1000
0001
0010
,
0001
0000
0000
1000
0000
0000
0001
0000
0000
0000
0100
0000
0001
0000
0001
0000
,
0000
0000
0000
0010
0100
0100
1000
0001
,
0200
0000
0000
0000
0002
0000
0000
0303
,
0200
0001
0010
1000
,
0010
0000
0001
0000
0310
1000
0010
0100
,
0020
0100
1000
0100
,
2030
0010
0100
3020
,
0230
0000
0010
0000
0001
0000
0310
0010
,
1000
0100
1000
0100
0010
0001
1000
0000
,
2000
0000
0100
0000
0100
0000
3100
0010
,
0002
0010
0010
0010
,
0023
0100
0100
0100
,
0100
0000
0100
0000
0130
0010
0001
1000
,
0020
0000
1000
0000
0100
0000
1030
0010
,
0200
0010
0010
0310
,
1000
0000
0000
0010
0000
0000
0001
0000
0020
0000
0000
0000
1000
0000
0000
0000
,
0230
0010
1000
0010
,
0320
1000
0100
1000
,
0230
0001
0010
0001
,
0310
1000
0000
0000
0000
1000
0100
0000
0000
0000
0100
0000
0010
0000
0100
0000
,
1000
0001
0000
0000
0000
0001
0100
0000
0000
0000
0100
0000
0010
0000
1000
0000
,
0001
1000
0000
0000
0000
0001
1000
0000
0000
0000
1000
0000
0100
0000
1000
0000
,
0010
1000
0000
0000
0000
0010
0100
0000
0000
0000
0010
0000
0100
0000
0001
0000
,
0010
0001
0000
0000
0000
0001
0010
0000
0000
0000
0001
0000
0100
0000
0010
0000
,
0100
0010
0000
0000
0000
0000
1000
0010
0000
0000
1000
0000
0100
0000
1000
0000
,
0001
0100
0000
0000
0000
0100
0010
0000
0000
0000
0100
0000
0001
0000
1000
0000
,
0100
1000
0000
0000
0000
1000
0100
0000
0000
0000
1000
0000
0001
0000
0100
0000
,
0020
0000
0000
0000
,
2000
0000
0000
0030
,
0200
0000
0000
0000
,
0000
0000
3300
0000
,
2000
0000
0000
0000
,
0002
0000
0000
0000
0000
0000
0000
3000
,
0200
0000
0000
0000
,
0000
0303
0000
0000
;

//---------------dance-single - ----------------
#NOTES:
     dance-single:
     :
     Medium:
     5:
     0.258,0.341,0.016,0.352,0.000:
0002
0000
0000
0000
,
0000
0000
0000
0000
0000
1000
0000
2000
,
0000
0000
0000
0003
,
0020
0000
3000
0100
,
0200
0000
0000
0000
0030
0000
0301
0100
,
0010
0000
0100
0000
0010
1000
0001
0000
,
0020
0000
0000
0130
,
0020
0000
0000
0000
,
0032
0000
0000
0000
,
0000
0000
0000
0000
0000
1000
0000
2000
,
0000
0000
0000
0000
3003
0000
0000
0001
,
0200
0000
0000
0310
,
1000
0010
0200
0000
,
0002
0000
0000
0303
,
0002
0000
0000
0000
,
0023
0000
0000
0000
,
0230
0000
0000
0000
0000
1300
0100
2000
,
0000
0000
0000
0000
0000
3100
1000
0200
,
0000
0000
0000
0000
0000
0000
0000
1300
,
0020
0000
0000
0000
0000
0001
0000
0130
,
0002
0000
0000
0000
0000
0013
0001
0020
,
0000
0000
0000
0000
0000
0031
0010
0002
,
0000
0000
0000
0000
,
0003
0000
1000
1000
,
0020
0000
0000
0000
0000
0130
0001
2000
,
0000
0000
0000
0000
0000
3100
0010
0002
,
0000
0000
0000
0000
,
0013
0000
0000
0000
0000
0100
0000
0100
,
2000
0000
0000
0000
0000
3010
0100
0002
,
0000
0000
0000
0000
0000
1003
0010
0200
,
0000
0000
0000
0000
,
0000
0000
0300
0000
0001
1000
0001
1000
,
0001
0100
0010
0000
,
0100
0100
0001
0001
,
1000
0010
0100
0001
,
1000
0000
0000
0100
1000
0100
2000
0000
,
3100
0100
0100
0000
,
0010
0001
0100
0010
,
0100
0001
1000
0100
,
0000
0010
0001
0000
0001
0100
0010
0000
,
0100
0010
1000
0000
,
0001
0001
1000
1000
,
0001
0100
0100
0001
,
0000
0000
0000
0000
,
0001
1000
0000
0000
,
1000
0010
0001
0010
,
0100
1000
0001
0100
,
0000
0000
0000
0100
0001
1000
0001
1000
,
0001
0000
0000
0000
,
0020
0000
0000
0000
,
0000
0000
0000
0000
0000
0100
0000
0200
,
0030
0000
0000
0000
,
0320
0000
0000
2030
,
3200
0000
0000
1300
,
0010
0000
0100
0000
0001
0100
0010
0000
,
2000
0000
0000
0001
,
0002
0000
0000
3003
,
0002
0000
0000
0000
,
0000
0000
0000
0000
0000
0100
0000
0200
,
0000
0000
0003
0000
,
0020
0000
0300
0100
,
0130
0001
2000
0000
,
0020
0000
0000
3030
,
0020
0000
0000
0000
,
0230
0000
0000
0000
,
0301
1000
0100
0000
,
0010
0001
0010
0000
,
0100
1000
0010
0000
,
0100
0001
1000
0000
,
0001
0001
1000
0000
,
1000
0010
0100
0000
,
0010
0100
0001
0000
,
1000
0010
0100
0000
,
0102
0000
0000
0000
,
0100
0000
0000
0000
,
0200
0000
0000
0000
,
0303
0000
0000
0000
,
2010
0000
0000
0000
,
0010
0000
0000
0000
,
0020
3030
0000
0000
;

//---------------dance-single - ----------------
#NOTES:
     dance-single:
     :
     Easy:
     3:
     0.224,0.313,0.031,0.258,0.000:
0001
0100
0000
0100
,
0000
0100
0000
0010
,
1000
0100
0000
0100
,
0010
0001
0000
0001
,
0100
0001
0000
1000
,
0100
1000
0010
0100
,
0001
0000
0000
1000
,
1000
0010
0000
0010
,
0100
0001
0000
1000
,
0100
1000
0000
0100
,
1000
0010
0000
0100
,
0001
0010
0000
0100
,
1000
1000
1000
0000
,
0001
0001
0001
0000
,
0100
0000
0000
0000
,
0010
0000
0000
1000
,
0002
0000
0003
0000
,
2000
0000
3000
0000
,
0020
0000
0030
0000
,
0100
0000
0000
0010
,
2000
0000
3000
0000
,
0002
0000
0003
0000
,
0020
0000
0030
0000
,
0000
0000
0100
0100
,
0200
0000
0300
0000
,
0020
0000
0030
0000
,
0002
0000
0003
0000
,
1000
0000
0001
1000
,
0020
0000
0030
0000
,
0200
0000
0300
0000
,
0002
0000
0003
0000
,
0000
0000
1000
0001
,
0100
0001
0010
0000
,
0010
0100
1000
0100
,
1000
0010
0100
0001
,
0000
0000
1000
0020
,
0130
0001
0010
0000
,
0010
0001
0001
1000
,
1000
0010
0100
0001
,
0000
0101
0000
1100
,
1000
1000
1000
0000
,
0001
0100
0001
0010
,
0001
0001
1000
0010
,
0000
0000
0000
0000
,
0100
0100
0000
0000
,
0010
1000
0001
0010
,
0100
0100
0010
0010
,
0001
1000
0100
0010
,
0022
0000
0033
0000
,
0002
0000
0000
0000
,
0000
0003
0000
1000
,
0020
0000
0000
0000
,
0130
0000
0000
0100
,
0200
0000
0000
0310
,
1000
0010
0001
0010
,
0200
0000
0000
0001
,
0002
0000
0000
0303
,
0200
0000
0000
0000
,
0000
0300
0000
0010
,
2000
0000
0000
0000
,
0002
0000
0000
3003
,
0001
1000
0020
0000
,
0200
0000
0000
0330
,
0200
0000
0000
0000
,
0002
0000
0000
0303
,
1001
0000
0000
0010
,
0100
0000
0000
1000
,
0100
0000
0000
0010
,
0001
0000
0000
0001
,
1000
0000
0000
1000
,
0010
0000
0000
0100
,
0001
0000
0000
0001
,
1000
0000
0000
0100
,
0020
0000
0000
0030
,
0002
0000
0000
0003
,
0200
0000
0000
0000
,
0300
0000
0000
0000
,
0020
0000
0030
0000
,
2000
0000
3000
0000
,
0002
0000
0000
0000
,
0003
0000
0000
0000
;

//---------------dance-single - ----------------
#NOTES:
     dance-single:
     :
     Beginner:
     1:
     0.101,0.155,0.000,0.000,0.000: // measure 1
0001
0000
0000
0000
,  // measure 2
0000
0000
0000
1000
,  // measure 3
1000
0000
0000
0000
,  // measure 4
0100
0000
0000
1000
,  // measure 5
1000
0000
0000
0000
,  // measure 6
0001
0000
1000
0000
,  // measure 7
0100
0000
0000
1000
,  // measure 8
1000
0000
0000
0000
,  // measure 9
0010
0000
0000
0000
,  // measure 10
0000
0000
0000
0100
,  // measure 11
0100
0000
0000
0000
,  // measure 12
0010
0000
0000
0000
,  // measure 13
1000
0000
0000
0000
,  // measure 14
0001
0000
0000
0000
,  // measure 15
0100
0000
0000
0000
,  // measure 16
0001
0000
0000
0000
,  // measure 17
1000
0000
0000
0100
,  // measure 18
0000
0000
0000
0010
,  // measure 19
0000
0000
0000
0000
,  // measure 20
0001
0000
0000
0000
,  // measure 21
0001
0000
0000
0010
,  // measure 22
0000
0000
0000
0100
,  // measure 23
0000
0000
0000
0000
,  // measure 24
0000
0000
1000
1000
,  // measure 25
1000
0000
0000
0001
,  // measure 26
0000
0000
0000
0100
,  // measure 27
0000
0000
0000
0000
,  // measure 28
0001
0000
0000
0000
,  // measure 29
1000
0000
0000
0100
,  // measure 30
0000
0000
0000
1000
,  // measure 31
0000
0000
0000
0000
,  // measure 32
0000
0000
0000
0000
,  // measure 33
0001
0000
0000
0000
,  // measure 34
0100
0000
0001
0000
,  // measure 35
1000
0000
0000
0000
,  // measure 36
0000
0000
0100
0100
,  // measure 37
0010
0000
0000
0000
,  // measure 38
0100
0000
1000
0000
,  // measure 39
0001
0000
0000
0000
,  // measure 40
0000
0100
0000
0100
,  // measure 41
0100
0000
0000
0000
,  // measure 42
0001
0000
0000
0000
,  // measure 43
1000
0000
0000
0000
,  // measure 44
0000
0000
0000
0000
,  // measure 45
0100
0000
0000
0000
,  // measure 46
1000
0000
0100
0000
,  // measure 47
0010
0000
0000
0000
,  // measure 48
0000
0000
0001
0001
,  // measure 49
0001
0000
0000
0000
,  // measure 50
1000
0000
0000
0000
,  // measure 51
0000
0000
0000
0001
,  // measure 52
0001
0000
0000
0000
,  // measure 53
0100
0000
0000
0001
,  // measure 54
0001
0000
0000
0000
,  // measure 55
1000
0000
0100
0000
,  // measure 56
1000
0000
0000
0010
,  // measure 57
0010
0000
0000
0000
,  // measure 58
0100
0000
0000
0000
,  // measure 59
0000
0000
0000
0001
,  // measure 60
0001
0000
0000
0000
,  // measure 61
0010
0000
0000
0000
,  // measure 62
0001
0000
0000
0000
,  // measure 63
1000
0000
0000
0000
,  // measure 64
0100
0000
0000
0000
,  // measure 65
1000
0000
0000
0000
,  // measure 66
0010
0000
0000
0000
,  // measure 67
0100
0000
0000
0000
,  // measure 68
0001
0000
0000
0000
,  // measure 69
0001
0000
0000
0000
,  // measure 70
1000
0000
0000
0000
,  // measure 71
0100
0000
0000
0000
,  // measure 72
1000
0000
0000
0000
,  // measure 73
0001
0000
0000
0000
,  // measure 74
0100
0000
0000
0000
,  // measure 75
0100
0000
0000
0000
,  // measure 76
0100
0000
0000
0000
,  // measure 77
0000
0000
0000
0000
,  // measure 78
0010
0000
0000
0000
,  // measure 79
0010
0000
0000
0000
,  // measure 80
0010
0000
0000
0000
;
