#TITLE:In the Blackest Den;
#SUBTITLE:;
#ARTIST:Bulluvegola;
#TITLETRANSLIT:;
#SUBTITLETRANSLIT:;
#ARTISTTRANSLIT:;
#CREDIT:;
#BANNER:In the Blackest Den.png;
#BACKGROUND:In the Blackest Den-background.png;
#JACKET:In the Blackest Den-jacket.png;
#LYRICSPATH:;
#CDTITLE:cdtitle.png;
#MUSIC:22 In the Blackest Den.mp3;
#OFFSET:-0.638;
#SAMPLESTART:26.680;
#SAMPLELENGTH:12.000;
#SELECTABLE:YES;
#BPMS:0.000=177.000;
#STOPS:;
#BGCHANGES:;

//---------------dance-single - ----------------
#NOTES:
     dance-single:
     :
     Hard:
     9:
     0.620,0.647,0.649,0.102,0.132:
0000
0000
0000
0000
,
0000
0000
0000
0000
,
0000
0000
0000
0000
,
0000
0000
1000
0001
,
0100
0000
0001
0100
0000
0001
0000
0100
,
0000
0010
0100
0000
0001
0000
1000
0000
,
0001
1000
0000
0100
0000
1000
0100
0010
,
0001
0010
0100
0000
0000
0000
0000
0000
,
0000
0000
0000
0000
,
0000
0000
0001
0100
0000
0010
1000
0100
,
0010
0000
0100
1000
0000
0010
0100
0001
,
1000
0100
1001
0000
0000
0101
0000
0000
,
0000
0000
0101
0000
1000
1100
0000
0000
,
0000
0000
0110
0000
0100
1100
0000
0000
,
0000
0000
0100
0100
0010
0001
0000
0001
,
0100
0000
0010
0100
0001
0010
0001
1000
,
0100
0001
0100
0010
0001
0100
0010
1000
,
0100
1000
0000
1100
0011
0011
0101
0000
,
0000
0101
0000
1010
0000
1001
0110
0000
,
0000
0000
1001
0000
0000
0000
0001
0100
,
0001
1000
0000
0100
0010
0100
1000
0010
,
0100
0001
1000
0100
0010
0001
0010
0100
,
1000
0100
0010
0001
0010
0100
0010
0001
,
0100
0010
0110
0000
0010
0100
0001
1000
,
0100
1000
0010
0000
0000
0000
0100
0100
,
0100
0000
0001
1000
0100
0000
1000
0010
,
0100
0000
0010
1000
0001
0010
0200
0000
,
0000
0000
0310
0001
0010
0000
0100
1000
,
0100
0000
0010
0001
0010
0000
0100
1000
,
0100
0000
1000
1000
0100
0100
0010
0010
,
0001
0001
1000
0001
0000
0100
0000
0010
,
1000
0000
1010
0000
0010
1001
0000
0000
,
1001
0000
0001
1100
0000
0010
0000
0001
,
0101
0000
0001
1001
0000
0010
0110
0000
,
1100
0000
0000
0001
0000
0100
0000
0010
0000
1000
0000
0001
,
0000
0000
0010
0000
0000
0000
0100
0000
0000
0000
0000
0000
0010
0000
0000
0001
0000
0000
0100
0000
0000
0010
0000
0000
,
0110
0000
0100
0000
0001
0010
0100
1000
,
1100
0000
1000
0100
0001
0100
1000
0010
,
0110
0000
0000
0000
0010
0100
0001
1000
,
1100
0000
1000
0010
0110
0000
0010
1000
,
1001
0000
0001
0010
0110
0000
0100
1000
,
1100
0000
0000
0000
0100
0010
0000
0010
0001
0000
0100
0000
0001
0100
0000
0100
,
0010
0000
0100
0000
0010
1000
0000
1000
0010
0000
0100
0000
0001
1000
0000
1000
,
0100
0000
0000
0010
0000
0000
0001
0000
0000
0000
0000
0000
0000
0000
0000
1000
0000
0000
1010
0000
0000
0000
1010
0000
,
0000
0000
1100
0000
0000
0000
1001
0000
0000
0000
0000
0000
0000
0000
0000
0001
0000
0000
0101
0000
0000
0000
0101
0000
,
0000
0000
0011
0000
0000
0000
1001
0000
0000
0000
0000
0000
0000
0000
0000
0001
0000
0000
0011
0000
0000
0000
0110
0000
,
0000
0000
0011
0000
0000
0000
1001
0000
0000
0000
0000
0000
0000
0000
0000
1000
0000
0000
1010
0000
0000
0000
0110
0000
,
0000
0000
1010
0000
0000
0000
1001
0000
0000
0000
0000
0000
0010
0000
0000
0010
0000
0000
0000
0000
0000
0100
0000
0000
,
0000
0000
0000
0100
0000
0000
0000
0000
0000
0000
0000
0000
0100
0000
0000
0000
0000
0000
0010
0000
0000
0000
0010
0000
,
0000
0000
0010
0000
0000
0000
0100
0000
0000
0000
0000
0000
0001
0000
0000
0001
0000
0000
0000
0000
0000
1000
0000
0000
,
0000
0001
0000
0000
1001
0000
1001
0000
,
0000
0000
0000
0000
0000
0000
1001
0000
0000
0000
0000
0000
0000
0000
0000
0001
0000
0000
0011
0000
0000
0000
0110
0000
,
0000
1100
0000
1001
0000
0000
0101
0000
0000
1001
0000
0000
,
1100
0000
0000
0000
0000
0000
1001
0000
0000
0000
0000
0000
0000
0000
0000
0100
0000
0000
0101
0000
0000
0000
1010
0000
,
0000
0000
0000
0000
1100
0000
0000
0000
0000
0000
0000
0000
1001
0000
0000
0000
0000
0000
0000
0000
0000
0001
0000
0000
0100
0000
0000
0000
0000
0000
0000
0000
0000
0100
0000
0000
0010
0000
0000
0000
0000
0000
0000
0000
0000
0010
0000
0000
,
1000
0000
0000
1000
0001
0000
0000
0000
0000
0000
1100
0000
0000
0000
0000
0000
,
0000
0011
1010
1001
,
0101
0000
0001
0100
1000
0200
0000
0310
,
1000
0200
0000
0310
0001
0200
0000
0310
,
1000
0001
1001
0000
1000
0000
0100
0000
,
1000
0020
0130
0002
,
0013
0000
0100
1000
0100
0001
0100
1000
,
0100
0001
0100
1000
0100
0001
0100
0000
,
0010
0001
0100
2000
,
3100
0000
0100
0000
0010
0000
0100
0001
,
0100
1000
0100
0001
0100
1000
0100
0001
,
0100
1000
0100
0001
0100
0000
0010
0000
,
1000
0001
0020
0130
,
2000
0000
3100
0000
1000
0010
0001
0010
,
1000
0010
0001
0010
1000
0100
0001
0100
,
1000
0100
0010
0001
,
0200
0301
0002
0103
,
0100
0010
1000
0010
0001
0010
1000
0100
,
0001
0100
1000
0100
0010
0100
1100
0100
,
0000
1000
1000
0100
0010
0000
0010
0001
,
0000
1000
1000
0010
1000
0000
0010
0100
,
0001
1000
0100
1000
0010
0100
0001
0010
,
0100
1000
0001
0100
0010
0100
0000
0101
,
0011
0110
1100
0000
0000
1100
0000
0011
,
0000
0000
0001
0100
0020
0000
0000
0000
0000
0000
0000
0000
0030
0000
0000
0000
;

//---------------dance-single - ----------------
#NOTES:
     dance-single:
     :
     Medium:
     7:
     0.498,0.545,0.529,0.162,0.060:
0000
0000
0000
0000
,
0000
0000
0000
0000
,
0000
0000
0000
0000
,
0000
0000
1001
0001
,
1000
0000
0010
1000
0000
0100
0000
1000
,
0000
0010
0100
0000
0010
0000
1000
0000
,
0001
0010
0000
0010
0000
0010
0100
0010
,
0001
0010
0010
0000
0000
0000
0000
0000
,
0000
0000
0000
0000
,
0000
0000
0001
0100
0000
0100
0010
0000
,
1000
0000
0010
0100
0000
0100
0010
0000
,
1000
0000
1001
0000
0000
1001
0000
0000
,
0000
0000
0101
0000
0001
0001
0000
0000
,
0000
0000
1100
0000
0100
0100
0000
0000
,
0000
0000
0010
0001
0010
0001
0000
1000
,
1000
0100
0010
0001
,
1000
0000
0010
0100
0001
1000
0001
0010
,
0100
1000
0000
0100
0010
0100
0010
0000
,
0000
0110
0000
0011
0000
0011
1100
0000
,
0000
0000
1001
0000
0101
0000
0001
0100
,
0010
0000
0100
0000
0110
0000
0100
0001
,
1000
0100
0010
0100
,
0010
0000
1000
0100
0010
0001
0010
0001
,
0010
0100
1000
0000
0100
0000
1000
0010
,
0100
0001
0001
0000
0000
0000
1000
0000
,
0000
0001
1000
0100
,
1000
0000
0010
0100
0001
0100
0010
0000
,
0000
0100
0101
0001
,
0011
0001
1001
1000
,
1100
0000
1000
0100
0010
0001
1000
0100
,
0010
0001
0000
0010
0000
0100
0000
0000
,
1000
0000
0001
1000
0000
1010
0000
0000
,
0000
0000
0110
0000
0000
0101
0000
0000
,
1001
0000
0000
1100
0000
0000
1001
0000
,
0101
0001
0010
0100
,
1000
0000
0101
0000
0001
0100
0001
0100
,
0010
0000
0000
0000
0100
0010
0100
0010
,
1000
0000
1000
0001
1000
0001
1000
0001
,
0100
0000
0000
0000
0010
1000
0010
1000
,
0100
0000
1000
0100
0110
0000
0010
0001
,
0011
0000
0001
0100
0101
0000
0100
0010
,
0110
0010
1001
0010
,
1001
0100
1001
0100
,
1001
0000
0000
0000
0000
0000
1001
0000
0000
0000
0000
0000
0000
0000
0000
1000
0000
0000
0010
0000
0000
0000
0010
0000
,
0000
0000
0100
0000
0000
0000
0001
0000
0000
0000
0000
0000
0000
0000
0000
0001
0000
0000
1000
0000
0000
0000
0001
0000
,
0000
0000
1000
0000
0000
0000
0001
0000
0000
0000
0000
0000
0000
0000
0000
0001
0000
0000
0010
0000
0000
0000
0010
0000
,
0000
0000
0001
0000
0000
0000
0001
0000
0000
0000
0000
0000
0000
0000
0000
1000
0000
0000
0010
0000
0000
0000
0010
0000
,
0000
0000
0010
0000
0000
0000
0100
0000
0000
0000
0000
0000
0010
0000
0000
1000
0000
0000
0000
0000
0000
0001
0000
0000
,
0000
0000
0000
0100
0000
0000
0000
0000
0000
0000
0000
0000
0100
0000
0000
0000
0000
0000
0010
0000
0000
0000
1000
0000
,
0000
0000
0010
0000
0000
0000
0100
0000
0000
0000
0000
0000
0001
0000
0000
0010
0000
0000
0000
0000
0000
0100
0000
0000
,
0000
0010
0000
0000
1000
0000
0001
0000
,
0000
0000
0000
0000
0000
0000
0001
0000
0000
0000
0000
0000
0000
0000
0000
1000
0000
0000
0001
0000
0000
0000
0010
0000
,
0000
0100
0000
1000
0000
0000
0100
0000
0000
0010
0000
0000
,
0100
0000
0000
0000
0000
0000
1000
0000
0000
0000
0000
0000
0000
0000
0000
0001
0000
0000
1000
0000
0000
0000
0010
0000
,
0000
0100
0000
0001
0000
0000
0101
0000
0000
0110
0000
0000
,
1010
0000
1001
0000
0000
0101
0000
0000
,
0000
0011
0110
1001
,
0101
0002
0103
0200
,
0310
0020
1030
2000
,
3100
1100
0100
1000
,
0010
0100
0001
1000
,
0010
0120
0130
0210
,
0310
0120
0130
0110
,
0010
1000
0001
0010
,
0100
0010
0001
1002
,
1003
2001
3001
1002
,
1003
2001
3001
0001
,
0100
0100
0010
0010
,
1000
1000
1020
1030
,
2010
3010
1020
1030
,
1010
0010
0100
0100
,
0010
1000
0001
0010
,
0120
0130
0210
0310
,
0120
0000
0130
0000
0010
0001
0011
0000
,
0000
0001
0000
1000
0000
0000
0010
0000
,
0000
0100
0000
0100
0000
0000
0010
0000
,
1000
0001
0010
0001
,
1000
0000
0010
0000
0100
0000
0000
0001
,
0100
0010
0100
0000
0000
1010
0000
0101
,
0000
0001
0022
0000
0000
0000
0033
0000
;

//---------------dance-single - ----------------
#NOTES:
     dance-single:
     :
     Easy:
     4:
     0.299,0.408,0.213,0.162,0.000:
0000
0000
0000
0000
,
0000
0000
0000
0000
,
0000
0000
0000
0000
,
0000
0000
1001
0001
,
1000
0001
1000
1000
,
0001
1001
0001
1000
,
1000
0010
0100
0010
,
1000
0101
0000
0000
,
0000
0000
0000
0000
,
0000
0001
0000
0000
,
0000
1000
0000
0000
,
0000
0010
0100
0000
0000
0010
0000
0000
,
0000
0000
1000
0000
0001
1000
0000
0000
,
0000
0000
1000
0000
1000
0010
0000
0000
,
0000
0000
0100
0000
0010
0100
0000
0010
,
0100
0100
0010
1000
,
0001
0010
0001
1000
,
0010
0000
0000
0001
0100
0001
0100
0000
,
0000
0001
0000
0100
0000
0001
1000
0000
,
0000
1001
0000
1000
,
0000
0001
0000
0100
,
0000
0010
0010
0010
,
0010
1000
0001
0010
,
0100
1000
0100
1000
,
0010
1000
0000
0001
,
0000
1000
0100
1000
,
0010
0100
0001
0020
,
0000
0130
1000
0100
,
1000
0100
1000
0100
,
1000
0100
0100
0010
,
0010
0001
1000
0010
,
0100
0000
0001
0000
0000
0001
0000
0000
,
0000
0000
0100
0000
0000
0010
0000
0000
,
1000
0000
0000
0100
0000
0000
0010
0000
,
0002
2000
0000
0000
,
3003
0000
0001
0200
,
0310
0000
0010
2000
,
3100
2000
3010
0100
,
0010
0000
0100
0002
,
1003
0000
1001
0000
,
0101
0000
1010
0000
,
0110
0000
0101
0000
,
1100
0000
1001
0000
,
0110
1001
0000
0001
,
0100
0110
0000
0010
,
1000
1100
0000
1000
,
0010
1010
0000
0010
,
0100
0101
0001
1000
,
0100
0010
0001
0010
,
0010
0001
0010
0100
,
1000
0001
1000
1000
,
0000
1001
0000
0001
,
0100
0010
0010
0010
,
0010
0100
0000
0010
,
1000
0001
1001
1001
,
1001
0000
1001
0000
0000
0110
0000
0000
,
0000
0010
1000
0100
,
0010
0001
0010
0000
,
0010
0000
0010
0000
,
0010
0100
0000
0000
,
0000
0100
0000
2000
,
0000
0002
0000
0000
,
0000
0000
0000
3003
,
0000
0000
0000
0001
,
0000
0200
0000
0020
,
0000
0000
0000
0000
,
0000
0000
0330
0000
,
0000
0000
0020
0000
,
2030
0000
0200
0000
,
0000
0000
0000
0000
,
3300
0000
0000
0000
,
2000
0000
3002
0000
,
0200
0000
0000
0000
,
0000
0000
0000
0000
0000
0303
1001
0000
,
0000
0000
0000
0000
,
0000
0000
0000
0001
,
0100
0010
1000
0010
,
0100
0000
0001
0000
1000
0000
0000
0001
,
0100
0010
1000
0000
0000
0100
0000
0010
,
0000
0001
0022
0000
0000
0000
0033
0000
;

//---------------dance-single - ----------------
#NOTES:
     dance-single:
     :
     Beginner:
     1:
     0.129,0.203,0.051,0.034,0.000: // measure 1
0000
0000
0000
0000
,  // measure 2
0000
0000
0000
0000
,  // measure 3
0000
0000
0000
0000
,  // measure 4
0000
0000
1000
0000
,  // measure 5
0000
0000
0000
0000
,  // measure 6
0000
0001
0000
0000
,  // measure 7
0000
0000
0000
0100
,  // measure 8
0100
0100
0000
0000
,  // measure 9
0000
0000
0000
0000
,  // measure 10
0000
0001
0000
0000
,  // measure 11
0000
1000
0000
0000
,  // measure 12
0000
0100
0000
0000
,  // measure 13
0000
0010
0000
0000
,  // measure 14
0000
0001
0000
0000
,  // measure 15
0000
1000
0000
0000
,  // measure 16
0000
1000
0000
0000
,  // measure 17
0000
0001
0000
0000
,  // measure 18
0000
0000
1001
1001
,  // measure 19
0000
0000
0000
0000
,  // measure 20
0000
0100
0000
0000
,  // measure 21
0000
0010
0000
0000
,  // measure 22
0000
1000
0000
1000
,  // measure 23
0000
0001
0000
0001
,  // measure 24
0000
0100
0000
0001
,  // measure 25
0001
0001
0000
0000
,  // measure 26
0000
1000
0000
0100
,  // measure 27
0000
0010
0010
0010
,  // measure 28
0000
0100
0000
0000
,  // measure 29
0000
1000
0000
0000
,  // measure 30
0000
0001
0000
0000
,  // measure 31
0000
0100
0000
0000
,  // measure 32
0000
0001
0000
0000
,  // measure 33
0000
1000
0000
0000
,  // measure 34
0100
0000
0000
1000
,  // measure 35
0010
0010
0000
0000
,  // measure 36
0000
0000
0200
0000
,  // measure 37
0300
0000
0020
0000
,  // measure 38
0030
0200
0000
0000
,  // measure 39
0300
0000
0002
0000
,  // measure 40
0003
0000
1000
0000
,  // measure 41
0001
0000
1000
0000
,  // measure 42
0001
0000
0100
0000
,  // measure 43
0010
0000
0100
0000
,  // measure 44
0010
0010
0000
0100
,  // measure 45
0000
0000
0000
0001
,  // measure 46
0000
0000
0000
1000
,  // measure 47
0000
0000
0000
0100
,  // measure 48
0000
1000
0000
0000
,  // measure 49
0000
0000
0001
0000
,  // measure 50
0000
0100
0000
0000
,  // measure 51
0000
0000
0001
0000
,  // measure 52
0000
1000
0000
0001
,  // measure 53
0000
0100
0000
0100
,  // measure 54
0000
0100
0000
0001
,  // measure 55
0000
1000
0010
0010
,  // measure 56
0010
0010
0000
0000
,  // measure 57
0000
0100
0000
0001
,  // measure 58
0000
0010
0000
0000
,  // measure 59
0000
0000
0000
0000
,  // measure 60
0000
0100
0000
0000
,  // measure 61
0000
1000
0000
0001
,  // measure 62
0000
0100
0000
0000
,  // measure 63
0000
0000
0000
0000
,  // measure 64
0000
0000
0000
0001
,  // measure 65
0000
1000
0000
0010
,  // measure 66
0000
0000
0000
0000
,  // measure 67
0000
0000
0000
0000
,  // measure 68
0000
0000
0010
0000
,  // measure 69
0100
0000
0001
0000
,  // measure 70
0000
0000
0000
0000
,  // measure 71
0000
0000
0000
0000
,  // measure 72
0010
0000
0100
0000
,  // measure 73
1000
0000
0000
0000
,  // measure 74
0000
0000
0000
1001
,  // measure 75
0000
0000
0000
0000
,  // measure 76
0000
0000
0000
1000
,  // measure 77
0000
0001
0000
0100
,  // measure 78
0000
0010
0000
0000
,  // measure 79
0110
0110
0000
0000
,  // measure 80
0000
1001
0000
0000
;
