#TITLE:Illegal Function Call;
#SUBTITLE:;
#ARTIST:U1-ASAMI;
#TITLETRANSLIT:;
#SUBTITLETRANSLIT:;
#ARTISTTRANSLIT:;
#CREDIT:;
#BANNER:Illegal Function Call.png;
#BACKGROUND:Illegal Function Call-background.png;
#JACKET:Illegal Function Call-jacket.png;
#LYRICSPATH:;
#CDTITLE:cdtitle.png;
#MUSIC:1-24 Illegal Function Call.mp3;
#OFFSET:1.716;
#SAMPLESTART:86.900;
#SAMPLELENGTH:12.000;
#SELECTABLE:YES;
#BPMS:0.000=260.001;
#STOPS:512.000=2.137
,512.500=0.608
;
#BGCHANGES:0.000=[IIDX TRICORO] Illegal Function Call U1 ASAMi.avi=1.000=1=0=0,
99999=-nosongbg-=1.000=0=0=0 // don't automatically add -songbackground-
;

//---------------dance-single - ----------------
#NOTES:
     dance-single:
     :
     Hard:
     10:
     0.724,0.934,0.081,0.016,0.004:
0000
0000
0000
0000
,
0000
0000
0000
0000
,
0000
0000
0000
0000
,
0000
0000
0000
0000
,
0000
0000
0000
0000
,
0000
0000
0000
0000
,
1000
0010
0100
0001
,
0010
0000
0100
0000
1000
0000
0001
0100
,
0001
1000
0001
0100
,
1000
0000
0100
0000
0010
0000
1000
0001
,
0100
0001
0010
0100
,
1000
0000
0100
0000
1000
0000
0010
0100
,
0010
1000
0001
0010
,
0001
0000
0100
0000
0010
0000
0100
0001
,
1000
0100
0010
0100
,
1000
0000
0010
0000
0100
0000
0010
0100
,
0010
0100
0010
1000
,
0001
0000
0010
0000
0100
0000
1000
0100
,
1000
0100
0010
0001
,
1000
0001
0100
0010
,
0100
0001
0100
0000
0010
1000
0010
0000
,
0100
0010
0100
0000
0001
1000
0001
0000
,
1000
0000
1001
0000
,
0001
0100
1000
0000
,
1000
0000
0110
0000
,
0010
0001
0010
0000
,
0100
0000
1001
0000
,
0001
0010
0100
0000
,
0010
0000
0011
0000
,
0001
0000
0000
0000
0100
0000
0000
0000
0000
0001
0000
0000
0100
0000
0000
0000
0000
0000
0001
0000
0000
0000
0000
0000
,
1000
0000
1000
0100
0000
0010
0001
0000
,
0001
0100
0001
0100
0001
0100
0001
0100
,
0001
0000
0100
0010
0000
0010
1000
0000
,
1000
0100
1000
0100
1000
0100
1000
0100
,
0010
0000
0001
0100
0000
0100
0010
0000
,
0100
0001
0100
0001
0100
0001
0100
0001
,
0010
0000
0100
1000
0000
1000
0010
0000
,
0100
0001
0100
0001
0100
0001
0100
0001
,
0010
0000
0100
1000
0010
0000
0100
0000
,
0100
0001
0010
0000
0100
0000
0100
1000
,
0001
0000
0001
0100
0010
0000
0100
0000
,
0001
0100
0010
0000
0100
0010
1000
0001
,
0010
0000
0100
1000
0010
0000
0100
0000
,
0100
0001
0010
0000
0100
0000
0100
1000
,
0010
0000
0100
0001
0010
0000
0100
0000
,
1000
0100
0010
0001
1000
0100
0010
0001
,
1001
0000
0101
0000
,
0001
0100
1000
0000
,
0100
0000
0110
0000
,
0010
1000
0001
0000
,
0100
0100
0001
0000
0001
0001
1000
0000
,
1000
1000
0100
0000
0100
0100
0010
0000
,
0010
0001
0100
0000
0100
0010
1000
0000
,
0001
0100
0010
1000
0100
0010
0001
1000
,
0010
0000
0000
0000
,
0000
0000
0000
0000
,
0000
0000
0000
0000
,
0000
0000
0000
0000
,
1000
0100
0010
0001
0010
0000
0001
0000
,
0100
0001
0101
0000
,
0001
0100
0010
0100
0001
0000
1000
0000
,
0100
0010
0110
0000
,
0010
0001
0100
0010
0100
0000
0001
0000
,
1000
0100
1000
0010
,
0100
0010
1000
0001
0010
0000
0100
0000
,
1000
1000
0100
1000
,
0010
0000
1000
0010
0000
0100
0001
0000
,
0001
0010
0000
0100
1000
0000
1000
0001
,
0000
0001
0100
0000
0010
1000
0000
1000
,
0100
0010
0100
1000
0001
0100
0010
0100
,
0001
0000
0001
0010
0000
0010
0100
0000
,
0100
1000
0000
1000
0100
0000
0100
0010
,
0000
0010
0001
0000
0001
1000
0000
1000
,
0010
0000
0100
0001
0100
0010
1000
0100
,
0010
0000
0010
0001
0000
0001
0010
0000
,
0010
0100
0000
0100
0010
0000
0010
0100
,
0000
0100
1000
0000
0100
0010
0000
0010
,
0001
1000
0001
1000
0001
1000
0001
0000
,
0001
0100
1000
0100
0001
0100
1000
0100
,
0001
0100
1000
0100
0001
0100
1000
0000
,
1000
0010
0001
0010
1000
0010
0001
0010
,
1000
0010
0001
0010
1000
0010
0001
0000
,
0001
0100
0010
0100
0001
0010
0100
0010
,
0001
1000
0010
0100
0010
1000
0100
0010
,
0100
1000
0100
1000
0100
1000
0100
1000
,
0100
1000
0100
1000
0100
1000
0100
1000
,
0001
1000
0001
1000
0001
1000
0001
1000
,
0001
1000
0001
1000
0001
1000
0001
1000
,
0010
1000
0010
1000
0010
1000
0010
1000
,
0010
1000
0010
1000
0010
1000
0010
1000
,
0100
0000
0000
0000
,
0000
0000
0000
0000
,
0000
0000
0000
0000
,
0000
0000
0000
0000
,
0000
0000
0000
0000
,
0000
0000
0000
0000
,
1000
0001
0010
0100
,
0010
0000
0001
0000
0100
0000
0010
1000
,
0010
0100
0001
0010
,
0001
0000
1000
0000
0100
0000
0010
0001
,
0010
0001
0100
0000
0010
0000
0100
0010
,
0000
0100
0001
0000
0001
1000
0000
0000
,
1000
0001
0100
0000
0010
0000
1000
0010
,
0000
0100
0001
0000
0001
0010
0000
0010
,
0100
0010
0001
0100
,
0010
0000
1000
0000
0100
0000
0010
0001
,
0100
0010
1000
0001
,
0010
0000
0100
0000
1000
0000
0100
0010
,
0001
0000
0100
0000
0010
0000
1000
0010
,
0000
0010
0100
0000
0100
0001
0000
0001
,
0010
0000
0100
0000
0010
0000
0001
0100
,
0000
0100
0010
0000
0010
1000
0000
1000
,
0100
1000
0000
0100
0000
0010
0000
0010
,
0000
0100
0000
1000
0000
0010
0000
0100
,
0010
0100
0000
0001
0000
0100
0000
0001
,
0000
1000
0000
0100
0000
0010
0000
0100
,
1000
0010
0100
0001
0010
0100
1000
0000
,
0001
0000
1000
0000
0010
0000
0100
0010
,
0100
0010
0100
0001
,
0010
0100
1000
0001
,
0001
0010
0100
1000
0010
0100
0001
1000
,
0100
0010
0001
0100
0001
1000
0100
1000
,
0001
0010
0001
1000
0010
0100
0001
1000
,
0100
0010
0001
0100
0010
1000
0001
1000
,
0001
0010
0100
1000
0100
0010
0001
1000
,
0001
0100
0010
1000
0100
1000
0010
0100
,
0001
1000
0001
0100
0001
1000
0100
0010
,
0001
0100
0010
1000
0001
0100
0001
1000
,
2002
3000
0003
0000
0000
0000
0000
0000
;

//---------------dance-single - ----------------
#NOTES:
     dance-single:
     :
     Medium:
     9:
     0.571,0.882,0.283,0.218,0.000:
0000
0000
0000
0000
,
0000
0000
0000
0000
,
0000
0000
0000
0000
,
0000
0000
0000
0000
,
0000
0000
0000
0000
,
0000
0000
0000
0000
,
1000
0001
0100
0010
,
0100
0010
0100
0001
,
0010
0100
1000
0001
,
0010
0100
1000
1000
,
0001
0100
0010
0100
,
0001
0100
0010
0100
,
0001
0100
1000
0100
,
0001
0100
1000
0100
,
0010
0100
0010
1000
,
0010
0001
0010
1000
,
0010
0100
0001
0010
,
0100
1000
0001
0010
,
0100
0010
0001
0100
,
1000
0100
0010
1000
,
0001
0001
1000
1000
,
0010
0010
0100
0100
,
0010
0000
1001
0000
,
0010
0000
1001
0000
,
0100
0000
1001
0000
,
0100
0000
1001
0000
,
0001
0000
1010
0000
,
0001
0000
1100
0000
,
1000
0000
0110
0000
,
2002
0000
0000
3003
,
0001
0100
1000
0100
,
0020
0230
0320
0230
,
0310
1000
0001
0010
,
0200
2300
3200
2300
,
3100
0010
0001
0010
,
0200
2300
3200
2300
,
3100
0010
0001
0100
,
0020
0230
0320
0230
,
0301
0100
1000
0100
,
0100
0010
0001
0010
,
0010
1000
0010
0100
,
1000
0100
0100
1000
,
0010
0001
0010
0010
,
0100
0010
1000
0100
,
0001
0100
1000
0010
,
0001
0010
1000
0100
,
0010
0000
0011
0000
,
0001
0000
0010
0000
,
0001
0000
0110
0000
,
0001
0000
0100
0000
,
0010
0010
0100
0100
,
0001
0001
1000
1000
,
0001
1000
0010
0100
,
0001
0100
1000
0100
,
0010
0000
0000
0000
,
0000
0000
0000
0000
,
0000
0000
0000
0000
,
0000
0000
0000
0000
,
0110
0100
0110
0010
,
1001
1001
1001
0000
,
0110
0100
0110
0010
,
1001
1001
1001
0000
,
0001
0100
0010
1000
,
0100
0010
0100
1000
,
0010
0100
0010
1000
,
0001
0010
0100
1000
,
0001
0000
0000
0001
0000
0000
1000
0000
,
0000
0010
0000
0000
0100
0000
0000
0100
,
0000
0000
0010
0000
0000
1000
0000
0000
,
0010
0100
0001
1000
,
0100
0000
0000
0100
0000
0000
1000
0000
,
0000
1000
0000
0000
0001
0000
0000
0001
,
0000
0000
0100
0000
0000
0010
0000
0000
,
0100
0001
0100
1000
,
0100
0000
0000
0010
0000
0000
0001
0000
,
0000
0010
0000
0000
0100
0000
0000
0010
,
0000
0000
1000
0000
0000
0001
0000
0000
,
1000
0001
0100
0010
,
1000
0000
0100
1000
0000
0000
0000
0000
,
0100
0010
0011
0000
,
0001
0000
0100
0010
0000
0000
0000
0000
,
0010
0100
1001
0000
,
0001
0000
0100
0010
0000
0000
0000
0000
,
0100
0010
1000
0001
,
0011
0001
0011
0010
,
0011
0001
0011
0010
,
0110
0100
0110
0010
,
0110
0100
0110
0010
,
1010
0010
0110
0010
,
0011
0001
0101
0100
,
0110
0000
0000
0000
,
0000
0000
0000
0000
,
0000
0000
0000
0000
,
0000
0000
0000
0000
,
0000
0000
0000
0000
,
0000
0000
0000
0000
,
0001
1000
0010
0100
,
0001
0000
0100
0000
0010
0000
0100
0010
,
0100
0010
1000
0001
,
0010
0000
0100
0000
1000
0000
0100
1000
,
0100
0010
0001
0010
,
0100
0000
0010
0000
0100
0000
0010
0001
,
0010
0001
0100
0010
,
1000
0000
0001
0000
0100
0001
0100
0001
,
0100
0010
1000
0010
,
0100
0000
0010
0000
1000
0000
0001
1000
,
0001
1000
0100
0010
,
0001
0000
0010
0000
0100
0000
0010
0100
,
0010
0100
1000
0010
,
0100
0000
0001
0000
1000
0000
0001
0100
,
0001
0100
0010
1000
,
0001
0000
0100
0000
0010
0000
1000
0010
,
0200
0000
0001
0000
,
0010
0000
1000
0000
,
0320
0000
2030
0000
,
3200
0000
0302
0000
,
0203
0000
1000
0000
,
0010
0000
1000
0000
,
0320
0000
0001
0000
,
1000
0000
0001
0000
,
0031
0100
0001
0100
0001
0100
0001
0100
,
0001
0100
0001
0100
0001
0100
0001
0100
,
0001
0100
0001
0100
0001
1000
0001
1000
,
0100
1000
0100
0010
0100
0010
0001
0010
,
0001
1000
0001
1000
0001
1000
0001
1000
,
0001
1000
0001
1000
0001
1000
0001
1000
,
0010
0100
0010
0100
0010
0100
0010
0100
,
0010
0100
0010
0100
0010
0100
0010
0200
,
0020
0300
0030
0000
0000
0000
0000
0000
;

//---------------dance-single - ----------------
#NOTES:
     dance-single:
     :
     Easy:
     5:
     0.291,0.518,0.105,0.178,0.000:
0000
0000
0000
0000
,
0000
0000
0000
0000
,
0000
0000
0000
0000
,
0000
0000
0000
0000
,
0000
0000
0000
0000
,
0000
0000
0000
0000
,
1000
0000
1000
0000
,
0001
0000
0001
0000
,
0100
0000
0100
0000
,
0010
0000
0010
0000
,
0100
0000
0001
0000
,
0100
0000
0010
0000
,
1000
0000
0010
0000
,
0100
0000
0001
0000
,
1000
0000
1000
0000
,
0001
0000
0001
0000
,
0100
0000
0100
0000
,
0010
0000
0010
0000
,
1000
0000
0100
0000
,
0010
0000
0001
0000
,
0010
0001
0010
0000
,
0100
1000
0100
0000
,
1001
0000
0000
0000
,
0010
0100
0010
0000
,
0110
0000
0000
0000
,
0001
1000
0001
0000
,
0110
0000
0000
0000
,
0100
0010
1000
0000
,
1010
0000
0000
0000
,
1000
0100
0010
0000
,
0001
0000
0010
0000
,
0001
0010
0100
0000
,
1000
0000
0100
0000
,
0100
0010
0001
0000
,
1000
0000
0001
0000
,
0100
0010
1000
0000
,
0010
0000
0100
0000
,
0001
1000
0010
0100
,
0001
0100
0010
0000
,
0100
0010
0000
0100
,
0010
1000
0001
0000
,
0001
0010
0001
0010
,
0100
1000
0100
0000
,
0100
0010
0000
0010
,
0001
0100
0010
1000
,
0001
0100
0010
1000
,
1001
0000
0000
0000
,
0001
0100
0001
0000
,
0000
0000
0000
0000
,
1000
0100
1000
0000
,
0100
0000
0010
0000
,
0001
0000
0010
0000
,
0100
0000
1000
0000
,
0001
0100
0010
1000
,
1001
0000
0000
0000
,
0000
0000
0000
0000
,
0000
0000
0000
0000
,
0000
0000
0000
0000
,
1000
0000
0010
0000
,
0100
0010
0100
0000
,
0010
0000
1000
0000
,
0001
1000
0001
0000
,
0101
0000
0101
0000
,
0001
0100
0010
0000
,
0110
0000
0110
0000
,
0010
1000
0010
0000
,
0100
0000
0001
0000
,
1000
0000
0100
0000
,
1000
0000
0001
0000
,
0100
0001
0100
0001
,
0100
0000
0010
0000
,
1000
0000
0001
0000
,
0010
0000
0001
0000
,
1000
0010
1000
0010
,
1000
0000
0001
0000
,
0010
0000
0001
0000
,
1000
0000
0100
0000
,
1000
0000
0010
0000
,
0100
0000
0010
0000
,
0100
0100
0001
0000
,
1000
0000
0010
0000
,
0100
0100
0010
0000
,
1000
0000
0001
0000
,
0010
0010
0100
0000
,
2000
0000
0100
0000
,
0100
0000
3100
0000
,
0002
0000
0100
0000
,
0100
0000
0103
0000
,
0020
0000
0100
0000
,
0100
0000
0130
0000
,
1001
0000
0000
0000
,
0000
0000
0000
0000
,
0000
0000
0000
0000
,
0000
0000
0000
0000
,
0000
0000
0000
0000
,
0000
0000
0000
0000
,
0002
0000
0000
0000
,
0000
0000
0000
0000
,
0000
0000
0100
0000
,
0100
0000
0100
0000
,
0203
0000
0000
0000
,
0000
0000
0000
0000
,
0020
0000
0000
0000
,
0000
0000
0000
0330
,
0020
0000
0000
0000
,
0000
0000
0000
0000
,
0000
0000
1000
0000
,
1000
0000
1000
0000
,
2000
0000
0000
0000
,
0000
0000
0030
0000
,
0200
0000
0000
0000
,
0000
0000
3300
0000
,
1002
0000
0000
0000
,
0000
0000
0000
0000
,
2003
0000
3002
0000
,
0203
0000
0320
0000
,
2030
0000
0000
0000
,
0000
0000
0000
0000
,
0002
0000
0000
0000
,
0000
0000
3003
0000
,
0120
0000
0000
0000
,
0000
0000
0000
0000
,
0000
0000
0230
0000
,
0302
0000
2003
0000
,
3200
0000
0000
0000
,
0000
0000
0000
0000
,
0020
0000
0000
0000
,
0000
0000
0000
0000
,
0330
0000
0000
0000
;

//---------------dance-single - ----------------
#NOTES:
     dance-single:
     :
     Challenge:
     13:
     1.000,1.000,0.121,0.016,0.546:
0000
0000
0000
0000
,
0000
0000
0000
0000
,
0000
0000
0000
0000
,
0000
0000
0000
0000
,
0000
0000
0000
0000
,
0000
0000
0000
0000
,
1000
0010
0100
0000
0100
0010
1000
0000
,
1000
0001
0010
0000
0100
1000
0010
0000
,
1000
0100
0010
0001
1000
0100
0010
0001
,
0010
0100
1000
0100
0010
0001
0010
0100
,
1000
0010
0100
0000
0010
1000
0010
0000
,
0100
0001
0100
0000
0001
0010
0001
0000
,
0001
0010
0100
1000
0100
0010
0100
1000
,
0100
0010
0001
0010
0100
0010
0001
0010
,
0100
0010
0001
0000
0001
0100
0010
0000
,
0100
0010
1000
0000
1000
0001
0010
0000
,
0100
1000
0010
0100
0001
0010
0100
1000
,
0100
1000
0010
0100
0001
0010
0100
1000
,
0001
0100
0010
1000
0001
0100
0010
1000
,
0001
0100
0010
1000
0001
1000
0010
0100
,
0001
0010
0100
1000
0001
0010
0100
1000
,
0100
0010
0001
0010
0100
1000
0100
0010
,
0001
0000
0100
0000
0010
1000
0000
0000
,
1000
0100
0010
0001
0000
0000
0000
0000
,
0001
0000
0100
0000
0010
1000
0000
0000
,
0100
0010
1000
0100
0000
0000
0000
0000
,
0010
0000
0001
0000
0010
0100
0000
0000
,
0100
0010
0001
0100
0000
0000
0000
0000
,
0010
0100
0000
0100
0010
0000
0110
0000
,
1000
0100
0001
0100
0010
0000
0001
0000
,
0100
0000
0001
0100
0000
0100
0010
0000
,
1000
0010
1000
0010
1000
0010
1000
0010
1000
0010
1000
0010
,
1000
0000
1000
0100
0000
0010
0001
0000
,
0001
0100
0001
0100
0001
0100
0001
0100
0001
0100
0001
0100
,
0001
1000
0001
1000
0001
1000
0001
0000
,
0010
0100
0010
0100
0010
0100
0010
0100
0010
0100
0010
0100
,
0010
0000
0010
0001
0000
0001
1000
0000
,
0100
1000
0100
1000
0100
1000
0100
1000
0100
1000
0100
1000
,
0100
0000
0000
0010
0000
0000
0001
0000
1000
0000
0001
0000
0100
0000
0000
0010
0000
0000
1000
0000
0000
0001
0000
0000
,
0010
0000
0100
0000
0010
0000
0100
0000
0000
1000
0000
0000
0010
0000
0000
0100
0000
0000
0001
0000
0100
0000
0010
0000
,
0100
0000
0000
0010
0000
0000
0100
0000
0001
0000
0010
0000
0100
0000
0010
0000
1000
0000
0001
0000
0000
0000
0000
0000
,
0001
0000
0010
0000
0100
0000
1000
0000
0001
0000
0100
0000
0001
0000
0100
0000
0010
0000
0100
0000
0000
0010
0000
0000
,
0100
0000
0000
0010
0000
0000
1000
0000
0001
0000
1000
0000
0010
0000
0000
0100
0000
0000
0001
0000
0000
1000
0000
0000
,
0100
0000
0010
0000
0100
0000
0010
0000
0000
0001
0000
0000
0100
0000
0000
0010
0000
0000
1000
0000
0010
0000
0100
0000
,
0010
0000
0000
0100
0000
0000
0010
0000
1000
0000
0100
0000
0010
0000
0100
0000
0001
0000
1000
0000
0000
0100
0000
0000
,
0010
0001
0100
0010
1000
0001
0010
0100
1000
0100
0010
0001
,
1000
0001
0001
1000
,
0010
0010
0100
0100
,
0001
0010
0100
1000
,
0100
0100
1000
0010
,
0100
0000
0000
0000
0000
0100
0000
0000
0000
0110
0000
0000
0000
0000
0000
0000
0010
0000
0000
0000
0010
0000
0000
0000
1010
0000
0000
0000
0000
0000
0000
0000
,
0001
0000
0000
0000
0000
0100
0000
0000
0000
0101
0000
0000
0000
0000
0000
0000
0001
0000
0000
0000
0001
0000
0000
0000
0000
0000
0000
0000
0001
0000
0000
0000
,
1000
0001
0100
0100
0100
0001
0001
1000
,
0100
0010
0001
0100
0010
1000
0001
0010
,
0100
0000
0000
0000
,
0000
0000
0000
0000
0000
0000
0000
0000
1000
0000
0000
0000
0000
0001
0000
0000
,
0100
0010
0100
0010
,
0000
0000
0000
0000
,
0001
0100
0010
1000
0100
0010
0100
1000
,
0010
0100
0001
0010
0100
1000
0001
0000
,
0001
0010
0100
0010
0001
0100
0010
1000
,
0001
0010
0100
1000
0010
0100
0010
0000
,
0100
0010
1000
0000
0010
0100
0001
0000
,
0001
0010
0100
0000
0100
1000
0010
0000
,
0100
0001
0010
0000
0001
0010
0100
0000
,
0010
0100
1000
0100
1000
0001
1000
0001
,
1000
0010
1000
0000
0010
0100
0010
0000
,
0100
0001
0100
0000
0001
0010
0001
0000
,
0001
0010
0100
0000
0100
1000
0001
0000
,
0001
0010
1000
0010
0001
0010
1000
0010
,
0001
0100
0010
0000
0100
0010
1000
0000
,
1000
0001
0010
0000
0100
1000
0010
0000
,
0100
0010
1000
0000
0001
0010
0100
0000
,
0100
1000
0010
0100
0001
0010
0100
1000
,
0100
1000
0100
0000
0010
0001
0010
0000
,
0001
0100
0001
0000
0100
0010
0100
0000
,
0010
1000
0010
0000
0100
0010
0100
0000
,
0001
0010
0100
1000
0001
0100
0001
0100
,
0001
0100
0100
0001
0100
0100
0001
0100
,
0001
0100
0010
1000
0100
0010
0001
0000
,
1000
0010
0010
1000
0010
0010
1000
0010
,
0010
0100
0001
0010
0100
1000
0001
0000
,
0001
0100
0010
1000
0001
0100
0010
1000
,
0001
0100
0010
1000
0001
1000
0001
0000
,
1000
0100
1000
0100
1000
0100
1000
0100
1000
0100
1000
0100
,
1000
0100
1000
0100
1000
0100
1000
0100
1000
0100
1000
0100
,
1000
0100
0010
0100
0010
0100
0010
0100
0010
0100
0010
0100
,
0010
0100
0010
0100
0010
0100
0010
0100
0010
0100
0010
0100
,
0010
0001
0010
0001
0010
0001
0010
0001
0010
0001
0010
0001
,
0010
0001
0010
0001
0010
0001
0010
0001
0010
0001
0010
0001
,
0010
0000
0000
0000
,
0000
0000
0000
0000
,
0000
0000
0000
0000
,
0000
0000
0000
0000
,
0000
0000
0000
0000
,
0000
0000
0000
0000
,
1000
0100
0010
0001
1000
0100
0010
0001
,
0010
0100
1000
0100
0010
0001
0010
0100
,
1000
0001
0100
0010
1000
0001
0010
0100
,
0010
0001
0100
0010
1000
0100
0010
0001
,
0100
0010
1000
0001
0010
0100
0010
0001
,
0100
0010
1000
0100
0010
0001
0010
0001
,
0100
0010
1000
0001
0010
0100
0010
0001
,
0100
0010
1000
0001
0010
0100
1000
0001
,
0001
0010
0100
1000
0001
0010
0100
1000
,
0100
0010
0001
0010
0100
1000
0100
0010
,
0001
1000
0010
0100
0001
1000
0100
0010
,
0100
1000
0010
0100
0001
0010
0100
1000
,
0010
0100
0001
1000
0100
0010
0100
1000
,
0010
0100
0001
0010
0100
1000
0100
1000
,
0010
0100
0001
1000
0100
0010
0100
1000
,
0010
0100
0001
1000
0100
0010
0001
1000
,
0001
0100
0101
0000
0100
0010
0110
0000
,
0010
1000
1010
0000
1000
0001
1001
0000
,
1000
0100
1100
0000
0100
0010
0110
0000
,
0010
0001
0010
0001
0010
0001
0011
0000
,
0001
0100
0101
0000
0100
0010
0110
0000
,
0010
1000
1010
0000
1000
0001
1001
0000
,
0001
0100
0010
1000
0100
0001
0100
0010
,
1000
0001
0010
0100
1000
0001
1000
0000
,
1000
0010
0100
0001
0010
1000
0010
0001
,
0100
0010
0001
0100
1000
0100
0010
1000
,
0001
0010
1000
0010
0001
0100
1000
0100
,
0010
0001
0010
0100
0010
0001
0100
1000
,
0100
0010
1000
0001
0010
1000
0010
0001
,
0100
0010
1000
0100
0010
0001
0010
0100
,
1000
0100
0010
0001
0010
0100
1000
0100
0010
0001
0010
0100
,
1000
0100
0010
0001
0010
0100
1000
0100
0010
0001
0010
0200
,
2000
0000
0000
0000
0000
0000
0000
0000
0000
0300
0000
0000
0000
0000
0000
0000
0000
0000
0000
0000
3000
0000
0000
0000
0000
0000
0000
0000
0000
0000
0000
0000
0000
0000
0000
0000
0000
0000
0000
0000
0000
0000
0000
0000
0000
0000
0000
0000
0000
0000
0000
0000
0000
0000
0000
0000
0000
0000
0000
0000
0000
0000
0000
0000
;

//---------------dance-single - ----------------
#NOTES:
     dance-single:
     :
     Beginner:
     3:
     0.213,0.518,0.154,0.057,0.000: // measure 1
0000
0000
0000
0000
,  // measure 2
0000
0000
0000
0000
,  // measure 3
0000
0000
0000
0000
,  // measure 4
0000
0000
0000
0000
,  // measure 5
0000
0000
0000
0000
,  // measure 6
0000
0000
0000
0000
,  // measure 7
1001
0000
0000
0000
,  // measure 8
0001
0000
0000
0000
,  // measure 9
0100
0000
0000
0000
,  // measure 10
0001
0000
0000
0000
,  // measure 11
1001
0000
0000
0000
,  // measure 12
1000
0000
0000
0000
,  // measure 13
0100
0000
0000
0000
,  // measure 14
1000
0000
0000
0000
,  // measure 15
0110
0000
0000
0000
,  // measure 16
0100
0000
0000
0000
,  // measure 17
0001
0000
0000
0000
,  // measure 18
1000
0000
0000
0000
,  // measure 19
0100
0000
0000
0000
,  // measure 20
1000
0000
0000
0000
,  // measure 21
0010
0000
0010
0000
,  // measure 22
0010
0000
0000
0000
,  // measure 23
1001
0000
0000
0000
,  // measure 24
0000
0000
0000
0000
,  // measure 25
0010
0000
0000
0000
,  // measure 26
0000
0000
0000
0000
,  // measure 27
0100
0000
0000
0000
,  // measure 28
0000
0000
0000
0000
,  // measure 29
0001
0000
0000
0000
,  // measure 30
1000
0000
0000
0000
,  // measure 31
0001
0000
0100
0000
,  // measure 32
0020
0000
0000
0030
,  // measure 33
0100
0000
0001
0000
,  // measure 34
2000
0000
0000
3000
,  // measure 35
0001
0000
1000
0000
,  // measure 36
0200
0000
0000
0300
,  // measure 37
1000
0000
0001
0000
,  // measure 38
0020
0000
0000
0030
,  // measure 39
0000
0001
0001
0000
,  // measure 40
0001
0000
0000
1000
,  // measure 41
1000
0000
1000
0000
,  // measure 42
0010
0010
0010
0000
,  // measure 43
0000
0100
0100
0000
,  // measure 44
0010
0000
0000
0100
,  // measure 45
0100
0000
0001
0000
,  // measure 46
0010
0000
0100
0000
,  // measure 47
1001
0000
0000
0000
,  // measure 48
0000
0000
0000
0000
,  // measure 49
0110
0000
0000
0000
,  // measure 50
0000
0000
0000
0000
,  // measure 51
0010
0000
0100
0000
,  // measure 52
0001
0000
1000
0000
,  // measure 53
0100
0000
1000
0000
,  // measure 54
0010
0000
0100
0000
,  // measure 55
0001
0000
0000
0000
,  // measure 56
0000
0000
0000
0000
,  // measure 57
0000
0000
0000
0000
,  // measure 58
0000
0000
0000
0000
,  // measure 59
1000
0001
1000
0000
,  // measure 60
1001
0000
0000
0000
,  // measure 61
0010
0100
0010
0000
,  // measure 62
0110
0000
0000
0000
,  // measure 63
0001
0100
0010
0000
,  // measure 64
0110
0000
0000
0000
,  // measure 65
0100
0010
1000
0000
,  // measure 66
1001
0000
0000
0000
,  // measure 67
0001
0000
0000
1000
,  // measure 68
0000
0000
0010
0000
,  // measure 69
0000
0100
0000
0000
,  // measure 70
0001
0100
0001
0000
,  // measure 71
1000
0000
0000
1000
,  // measure 72
0000
0000
0001
0000
,  // measure 73
0000
0100
0000
0000
,  // measure 74
0010
0010
0010
0000
,  // measure 75
0100
0000
0000
0001
,  // measure 76
0000
0000
1000
0000
,  // measure 77
0000
0100
0000
0000
,  // measure 78
1000
0000
0000
0000
,  // measure 79
0001
0000
0100
0000
,  // measure 80
0010
0100
0010
0000
,  // measure 81
0100
0000
0010
0000
,  // measure 82
1000
0010
1000
0000
,  // measure 83
0010
0000
0100
0000
,  // measure 84
0001
1000
0001
0000
,  // measure 85
0200
0000
0000
0000
,  // measure 86
0000
0000
0000
0300
,  // measure 87
0020
0000
0000
0000
,  // measure 88
0000
0000
0000
0030
,  // measure 89
2000
0000
0000
0000
,  // measure 90
0000
0000
0000
3000
,  // measure 91
0000
0000
0000
0000
,  // measure 92
0000
0000
0000
0000
,  // measure 93
0000
0000
0000
0000
,  // measure 94
0000
0000
0000
0000
,  // measure 95
0000
0000
0000
0000
,  // measure 96
0000
0000
0000
0000
,  // measure 97
1001
0000
0000
0000
,  // measure 98
0000
0000
0000
0000
,  // measure 99
0000
0000
0010
0000
,  // measure 100
1000
0000
0100
0000
,  // measure 101
0010
0000
0000
0000
,  // measure 102
0000
0000
0000
0000
,  // measure 103
0100
0000
0000
0000
,  // measure 104
0000
0000
0000
0000
,  // measure 105
1001
0000
0000
0000
,  // measure 106
0000
0000
0000
0000
,  // measure 107
0001
0000
1000
0000
,  // measure 108
0100
0000
1000
0000
,  // measure 109
0010
0000
0000
0000
,  // measure 110
0000
0000
0000
0000
,  // measure 111
0100
0000
0000
0000
,  // measure 112
0000
0000
0000
0000
,  // measure 113
1001
0000
0000
0000
,  // measure 114
0000
0000
0000
0000
,  // measure 115
0110
0000
1001
0000
,  // measure 116
0110
0000
0110
0000
,  // measure 117
1001
0000
0000
0000
,  // measure 118
0000
0000
0000
0000
,  // measure 119
0110
0000
0000
0000
,  // measure 120
0000
0000
0000
0000
,  // measure 121
0010
0100
0010
0000
,  // measure 122
0001
1000
0001
0000
,  // measure 123
0100
0000
0010
0000
,  // measure 124
0001
0000
1000
0000
,  // measure 125
0100
0000
0010
0000
,  // measure 126
0001
0000
0010
0000
,  // measure 127
0001
0010
0100
1000
,  // measure 128
0001
0010
0100
1000
,  // measure 129
0001
0000
0000
0000
;
