#TITLE:Ice Cube;
#SUBTITLE:;
#ARTIST:Juno Reactor;
#TITLETRANSLIT:;
#SUBTITLETRANSLIT:;
#ARTISTTRANSLIT:;
#CREDIT:;
#BANNER:Ice Cube.png;
#BACKGROUND:Ice Cube-background.png;
#JACKET:Ice Cube-jacket.png;
#LYRICSPATH:;
#CDTITLE:cdtitle.png;
#MUSIC:Ice Cube.mp3;
#OFFSET:-7.681;
#SAMPLESTART:61.440;
#SAMPLELENGTH:12.000;
#SELECTABLE:YES;
#BPMS:0.000=125.000;
#STOPS:144.000=1.440
;
#BGCHANGES:;

//---------------dance-single - ----------------
#NOTES:
     dance-single:
     :
     Hard:
     7:
     0.388,0.420,0.203,0.083,0.090:
1000
0001
1000
0001
,
0100
0010
0100
0010
,
1000
0010
0100
0001
,
0000
0000
0000
0000
,
0001
0100
0010
0100
0001
0000
1000
0000
,
0001
1000
0100
1000
0010
0000
0100
0000
,
0010
1000
0010
1000
0100
0000
0010
0000
,
0001
0010
0001
0010
0100
0000
0010
0000
,
0001
1000
0100
1000
0001
0000
0100
0000
,
0010
1000
0001
0010
0001
0000
1000
0000
,
0001
0100
1000
0100
0010
0000
0100
0000
,
0010
1000
0001
0020
0230
0000
1300
0000
,
1000
0001
0101
0000
0001
0000
1001
0000
,
0001
0100
0110
0000
0010
0000
0110
0000
,
0100
0010
1010
0000
1000
0000
1001
0000
,
1000
0100
0110
0000
0010
0000
0011
0000
,
0001
1000
1010
0000
0010
0000
1001
0000
,
0001
0100
0010
0000
1000
0000
1010
0000
,
0010
0100
0001
0000
1000
0000
1100
0000
,
1000
0010
0100
0000
0010
0000
1010
0000
,
0100
0000
0100
0000
0000
0000
0000
0001
0000
0001
0000
2000
0000
0000
3000
0000
,
0000
0000
0100
0000
0010
0000
0000
0001
0000
1000
0000
0200
0000
0000
0300
0000
,
0010
0000
0010
0000
0100
0000
0000
0100
0000
0100
0000
2000
0000
0000
3000
0000
,
0000
0000
0001
0000
0001
0000
0000
0100
0000
0100
0000
0020
0000
0000
0030
0000
,
1000
0000
1000
0000
0100
0000
0000
0100
0000
0100
0000
0020
0000
0000
0030
0000
,
0000
0000
0001
0000
1000
0000
0000
0010
0000
0100
0000
0002
0000
0000
0003
0000
,
1000
0000
0010
0000
0010
0000
0000
0100
0000
0001
0000
0020
0000
0000
0030
0000
,
0000
0000
0100
0000
1000
0000
0000
0001
0000
1000
0000
0200
0000
0000
0300
0000
,
1000
0000
0100
0000
0010
0001
0010
0001
,
0000
0001
0000
0100
0000
0100
0010
1000
,
0001
0000
1000
0000
1000
0001
0100
0010
,
0000
0100
0000
0001
0000
1000
0001
1000
,
0100
0000
1000
0000
0100
1000
0010
0100
,
0000
0001
0000
0100
0000
1000
0100
0010
,
1000
0000
0010
0000
0100
0001
1000
0001
,
0000
1000
0000
0100
0000
0010
0001
0000
,
0000
0001
0001
0001
,
0001
1000
1000
1000
,
1000
0001
0001
0001
,
0001
1000
1000
1000
,
1000
0010
0010
0010
,
0010
0100
0100
0100
,
0100
0010
0010
0010
,
0010
0100
0100
0100
,
0100
0000
0010
1000
1010
0000
0010
0100
,
0110
0000
0100
0001
0101
0000
1001
0000
,
0110
0000
0010
1000
1010
0000
0010
0100
,
0110
0000
0010
1000
0001
0010
1000
0100
,
0001
0100
1000
0100
1100
0000
0100
0010
,
0110
0000
0010
0001
0011
0000
1100
0000
,
0101
0000
0001
0100
0110
0000
0010
1000
,
1010
0000
0010
0100
0010
1000
1000
0010
,
0100
0000
0100
0001
1000
0100
0001
0100
,
1000
0000
0100
1000
0010
0001
0010
0100
,
0001
0000
0001
1000
0010
0100
0010
0001
,
0010
0000
0100
1000
0100
0001
0100
1000
,
0100
0000
1000
0010
0100
0001
0100
0010
,
0001
0000
0001
0010
1000
0100
1000
0010
,
0100
0000
0010
1000
0001
0010
1000
0010
,
0100
0000
0100
0010
0001
1000
0010
0100
,
0001
2000
0000
0000
,
0000
0000
0000
0000
,
0000
3000
0000
0000
;

//---------------dance-single - ----------------
#NOTES:
     dance-single:
     :
     Medium:
     5:
     0.313,0.316,0.098,0.000,0.000:
1000
0001
0100
0001
,
1000
0100
1000
0001
,
0100
0001
1000
0100
,
0000
0000
0000
0000
,
0010
0000
0001
0000
0010
0100
0010
0000
,
0100
0000
1000
0000
0010
0100
0010
0000
,
0100
0000
0001
0000
1000
0100
1000
0000
,
1000
0000
0010
0000
0100
0001
0100
0000
,
0001
0000
0010
0000
0100
0010
0100
0000
,
0010
0000
0001
0000
1000
0010
1000
0000
,
0010
0000
0100
0000
0010
1000
0010
0000
,
1000
0000
0100
0000
0010
0001
0010
0000
,
0001
0100
0010
0000
0100
0000
0010
0000
,
1000
0001
0010
0000
0100
0000
1000
0000
,
0100
1000
0010
0000
0100
0000
0100
0000
,
0100
0001
0010
0000
0100
0000
1000
0000
,
0100
1000
0010
0000
0100
0000
0001
0000
,
1000
0001
0100
0000
0001
0000
1000
0000
,
0010
1000
0100
0000
1000
0000
0010
0000
,
0100
0010
1000
0000
1000
0000
0010
0000
,
0100
0001
0100
0000
0001
0000
1000
0000
,
0100
1000
0100
0000
0010
0000
0001
0000
,
0010
0100
0010
0000
0100
0000
1000
0000
,
0010
0100
0010
0000
0100
0000
0001
0000
,
1000
0100
1000
0000
0010
0000
0100
0000
,
0001
0010
0001
0000
0010
0000
0100
0000
,
0010
0001
0010
0000
0100
0000
1000
0000
,
0100
0010
0001
0000
0010
0100
1000
0000
,
0001
0000
1000
0000
0010
0000
0100
0001
,
0000
0100
0000
0001
0000
0100
0010
0000
,
1000
0000
0001
0000
0010
0000
0100
1000
,
0000
0100
0000
0100
0000
0100
0010
0000
,
0001
0000
0010
0000
0100
0000
1000
0010
,
0000
0100
0000
0010
0000
1000
0001
0000
,
1000
0000
0100
0000
1000
0000
0010
0100
,
0000
0100
0000
0100
0000
0100
0010
0000
,
1001
0001
0001
1000
,
1000
0001
0001
1000
,
1000
0010
0010
0100
,
0100
0010
0010
0100
,
0100
0001
0100
0010
,
1000
0010
0001
0010
,
0100
1000
0100
0010
,
1000
0010
0100
0001
,
0010
0100
1100
0100
,
0110
0010
0011
0001
,
1000
0001
1001
1000
,
1010
0000
0010
0000
0110
0000
0100
0010
,
0100
0010
1010
0010
,
0110
0100
0101
0001
,
1001
0001
1100
0010
,
0101
0000
0001
0010
0100
0000
0010
0100
,
1000
0000
0100
1000
0010
0000
0100
0000
,
0001
0000
1000
0001
0100
0000
0010
0000
,
1000
0000
0100
1000
0010
0000
0100
0000
,
0001
0000
0010
0100
0010
0000
0100
0000
,
1000
0000
0100
0010
0001
0000
0010
0000
,
0100
0000
0010
0100
0001
0000
0100
0000
,
1000
0000
0010
0100
0001
0000
1000
0000
,
0010
0000
0100
0010
1000
0000
0001
0010
,
1000
0010
0000
0000
;

//---------------dance-single - ----------------
#NOTES:
     dance-single:
     :
     Easy:
     3:
     0.213,0.226,0.113,0.128,0.000:
0001
0000
1000
0000
,
0001
0000
1000
0000
,
0001
0000
1000
0000
,
0000
0000
0000
0000
,
0010
0010
0010
0000
,
0100
0100
0100
0000
,
0001
0001
0001
0000
,
1000
1000
1000
0000
,
0100
0100
0100
0000
,
0001
0001
0001
0000
,
0100
0100
0100
0000
,
0010
0010
0010
0000
,
0100
1000
0100
1000
,
0100
0010
0100
0010
,
0001
0010
0001
0010
,
0001
1000
0001
1000
,
0001
0100
0001
0100
,
0010
1000
0010
1000
,
0100
0010
0100
0010
,
0001
1000
0001
1000
,
0001
1000
0100
0100
,
1000
0001
0100
0100
,
0001
1000
0100
0100
,
1000
0001
0100
0100
,
0001
1000
0010
0010
,
1000
0001
0010
0010
,
0001
1000
0010
0010
,
1000
0001
0010
0010
,
0100
0000
1000
0000
,
0010
0100
0001
1000
,
0100
0000
1000
0000
,
0010
0100
0001
0001
,
1000
0000
0010
0000
,
1000
1000
0001
0001
,
0100
0000
0001
0000
,
1000
0100
0010
0001
,
1001
0020
0000
0000
,
0030
0200
0000
0000
,
0300
0002
0000
0000
,
0003
2000
0000
0000
,
3000
0020
0000
0000
,
0030
2000
0000
0000
,
3000
0002
0000
0000
,
0003
0020
0000
0000
,
0030
0000
1001
0000
,
0110
0000
1001
0000
,
0110
0000
0101
0000
,
1010
0000
0101
0000
,
1010
0000
1100
0000
,
0011
0000
1100
0000
,
0011
0000
1001
0000
,
0110
0200
0000
0000
,
0300
0001
1000
0200
,
0300
1000
0010
0200
,
0300
0010
1000
0020
,
0030
0100
0001
0020
,
0030
0100
0010
0002
,
0003
1000
0001
2000
,
3000
0010
1000
0200
,
0300
1000
0001
0020
,
0030
0100
0000
0000
;

//---------------dance-single - ----------------
#NOTES:
     dance-single:
     :
     Beginner:
     1:
     0.076,0.113,0.030,0.000,0.000: // measure 1
0001
0000
0000
0000
,  // measure 2
0001
0000
0000
0000
,  // measure 3
1000
0000
0000
0000
,  // measure 4
1000
0000
0000
0000
,  // measure 5
0010
0000
0000
0000
,  // measure 6
0100
0000
0000
0000
,  // measure 7
0001
0000
0000
0000
,  // measure 8
1000
0000
0000
0000
,  // measure 9
0100
0000
0000
0000
,  // measure 10
1000
0000
0000
0000
,  // measure 11
0001
0000
0000
0000
,  // measure 12
0100
0000
0100
0000
,  // measure 13
0110
0000
0000
0000
,  // measure 14
0010
0000
0000
0000
,  // measure 15
1000
0000
0000
0000
,  // measure 16
0100
0000
0000
0000
,  // measure 17
1000
0000
0000
0000
,  // measure 18
0001
0000
0000
0000
,  // measure 19
0100
0000
0000
0000
,  // measure 20
0001
0000
0000
0000
,  // measure 21
1000
0000
0000
0000
,  // measure 22
0000
0001
0000
0000
,  // measure 23
0100
0000
0000
0000
,  // measure 24
0000
0010
0000
0000
,  // measure 25
0100
0000
0000
0000
,  // measure 26
0000
0001
0000
0000
,  // measure 27
1000
0000
0000
0000
,  // measure 28
0000
0100
0000
0000
,  // measure 29
1001
0000
0000
0000
,  // measure 30
0001
0000
1000
0000
,  // measure 31
0010
0000
0000
0000
,  // measure 32
0010
0000
0100
0000
,  // measure 33
0110
0000
0000
0000
,  // measure 34
0100
0000
0001
0000
,  // measure 35
1000
0000
0000
0000
,  // measure 36
0100
0000
0010
0000
,  // measure 37
0000
0001
0000
0000
,  // measure 38
0000
1000
0000
0000
,  // measure 39
0000
0001
0000
0000
,  // measure 40
0000
0100
0000
0000
,  // measure 41
0000
0001
0000
0000
,  // measure 42
0000
1000
0000
0000
,  // measure 43
0000
0100
0000
0000
,  // measure 44
0000
1000
0000
0000
,  // measure 45
0000
0010
0000
0000
,  // measure 46
0000
0100
0000
0000
,  // measure 47
0000
0001
0000
0000
,  // measure 48
0000
1000
0000
1000
,  // measure 49
0000
1000
0000
0000
,  // measure 50
0000
0100
0000
0000
,  // measure 51
0000
1000
0000
0000
,  // measure 52
0000
0010
0000
0000
,  // measure 53
0000
0100
0000
0000
,  // measure 54
0000
0001
0000
0000
,  // measure 55
0000
1000
0000
0000
,  // measure 56
0000
0100
0000
0000
,  // measure 57
0000
1000
0000
0000
,  // measure 58
0000
0010
0000
0000
,  // measure 59
0000
0100
0000
0000
,  // measure 60
0000
0001
0000
0000
,  // measure 61
0000
1001
0000
0000
;
