#TITLE:Icarus;
#SUBTITLE:;
#ARTIST:Madeon;
#TITLETRANSLIT:;
#SUBTITLETRANSLIT:;
#ARTISTTRANSLIT:;
#CREDIT:;
#BANNER:Icarus.png;
#BACKGROUND:Icarus-background.png;
#JACKET:Icarus-jacket.png;
#LYRICSPATH:;
#CDTITLE:cdtitle.png;
#MUSIC:Icarus.mp3;
#OFFSET:-7.620;
#SAMPLESTART:95.240;
#SAMPLELENGTH:12.000;
#SELECTABLE:YES;
#BPMS:0.000=125.980;
#STOPS:;
#BGCHANGES:;

//---------------dance-single - ----------------
#NOTES:
     dance-single:
     :
     Hard:
     7:
     0.335,0.365,0.165,0.181,0.161:
0001
0000
0000
0100
0000
0000
0020
0000
0000
0000
0000
0000
0000
0000
0000
0000
,
0000
0000
0000
0000
,
0130
0001
1000
0100
,
1000
0000
0000
0001
0000
0000
1000
0000
0000
0001
0000
0000
0100
0000
0000
0000
,
0001
0000
1100
0000
0010
0001
0010
0000
,
0001
0100
0010
0100
0001
0000
0001
0000
,
1000
0000
1010
0000
0100
0010
1000
0000
,
1000
1000
0100
0000
0100
0000
1000
0000
,
0001
0000
1010
0000
0100
0001
0010
0000
,
0100
1000
0100
1000
0001
0000
0001
0000
,
0100
0000
0010
0000
0100
0010
1000
0000
,
0001
0000
0000
0001
0000
0000
0100
0000
0000
0100
0000
0000
0010
0000
1000
0000
,
0100
0000
0011
0000
0001
0010
0100
0000
,
0100
1000
0010
0100
0101
0000
0101
0000
,
0001
0000
1100
0000
0100
0010
0001
0000
,
0002
0103
0200
0310
,
0100
0000
1001
0000
0010
1000
0100
0000
,
0010
0001
0100
0010
0110
0000
0110
0000
,
0010
0000
1010
0000
1000
0001
0010
0000
,
0200
0000
0000
0000
,
1300
0000
0000
0001
0000
0100
0000
0000
0010
0000
0000
0010
0000
0000
0010
0000
,
0100
0000
0000
0001
0000
1000
0000
0000
0100
0000
0000
0100
0000
0000
0100
0000
,
0010
0000
0000
0001
0000
0010
0000
0000
0100
0000
0000
0100
0000
0000
0100
0000
,
0110
0000
0000
0110
0000
0000
0220
0000
0000
0000
0000
0000
0000
0000
0330
0000
,
0010
0000
0000
0100
0000
0100
0000
0000
1000
0000
0000
0001
0000
0000
0100
0000
,
0010
0000
0000
1000
0000
1000
0000
0000
0010
0000
0000
0100
0000
0000
0010
0000
,
0100
0000
0000
0001
0000
0001
0000
0000
0010
0000
0000
0100
0000
0000
0010
0000
,
0001
0000
0000
0010
0000
0000
0100
0000
0000
1000
0000
0000
1000
0000
0100
0000
,
0020
0000
0000
0000
,
0030
0000
0000
0000
,
0002
0000
0000
0003
,
2000
0000
0000
3000
,
0020
0000
0000
0030
,
0200
0000
0000
0002
0000
0000
0000
0303
,
0002
0000
0000
0003
,
2000
0000
0000
3000
,
0200
0000
0000
0300
,
2000
0000
0000
0020
0000
0000
3030
0000
,
0010
0010
0100
0100
,
0001
0001
1000
1000
,
0001
0001
1000
1000
,
0010
0100
0001
0100
,
0010
1000
0010
0001
,
1000
0010
0100
1000
,
0100
0001
0010
0010
,
0100
0000
0000
0100
0000
0000
0100
0000
0000
0100
0000
0000
0200
0000
0000
0000
,
0310
0000
1100
0000
1000
0010
0001
0000
,
0010
1000
0001
1000
0010
0000
0100
0000
,
0001
0010
0001
0000
0010
0001
0010
0000
,
0100
1000
0100
0001
0100
0010
0002
0000
,
0013
0000
1100
0000
0100
0010
0001
0000
,
1000
0001
1000
0100
0110
0000
1100
0000
,
1000
0010
0100
0000
0010
0100
0001
0000
,
0200
0000
0000
0000
,
0301
0000
0000
1000
0000
1000
0000
0000
0010
0000
0000
0100
0000
0000
0001
0000
,
1000
0000
0000
0100
0000
0100
0000
0000
0010
0000
0000
0001
0000
0000
0010
0000
,
0100
0000
0000
0010
0000
0010
0000
0000
0100
0000
0000
1000
0000
0000
0010
0000
,
0100
0000
0000
0001
0000
0001
0000
0000
0001
0000
0010
0000
0100
0000
1000
0000
,
1100
0000
0000
0011
0000
0000
2002
0000
0000
0000
0000
0000
0000
0000
0000
0000
,
0000
0000
0000
3003
,
0010
0000
0000
0100
0000
0000
0020
0000
0000
0000
0000
0000
0000
0000
0000
0000
,
0000
0000
0000
0000
0000
0000
0000
0030
;

//---------------dance-single - ----------------
#NOTES:
     dance-single:
     :
     Medium:
     5:
     0.242,0.317,0.142,0.197,0.016:
0002
0000
0000
0000
,
0000
0000
0000
0000
,
2000
0000
0000
0000
,
3003
0000
0000
0000
,
0020
0000
0130
0000
0010
0100
0010
0000
,
0100
0001
1100
1100
,
1000
0000
0010
0000
0100
0010
1000
0000
,
0010
0100
1001
1001
,
0001
0000
0100
0000
0010
0100
0001
0000
,
0001
1000
0100
0000
1100
0000
1100
0000
,
1000
0000
0010
0000
0100
0001
1000
0000
,
0020
0000
0000
0000
,
0130
0000
0011
0000
0001
0010
0100
0000
,
0100
0010
0011
1100
,
0100
0000
1000
0000
0010
0100
0001
0000
,
1000
1000
0001
0000
0001
0001
0100
0000
,
0010
0000
0101
0000
0001
0100
0010
0000
,
0100
0010
0110
0110
,
0010
0000
1000
0000
0001
0010
0100
0000
,
1000
0000
0000
0000
,
0001
1000
0010
0010
,
1000
0001
0010
0010
,
0001
1000
0010
0010
,
0100
0020
2000
3030
,
1000
0001
0100
0100
,
0001
1000
0100
0100
,
1000
0001
0100
0100
,
0001
0100
0010
2000
,
0200
0000
0000
0000
,
3300
0000
0000
0000
,
2000
0000
0000
0000
,
3000
0000
0000
0000
,
0002
0000
0000
0000
,
0100
0000
0000
0100
0000
0000
0000
0000
,
0203
0000
0000
0000
,
0000
0000
0000
0000
,
0320
0000
0000
0000
,
1000
0000
0000
1000
0000
0000
0000
0000
,
2030
0000
0000
3000
,
0002
0000
0000
0003
,
0200
0000
0000
0300
,
0002
0000
1000
1000
,
2003
0000
0000
0000
,
3020
0000
0000
0000
,
0230
0000
0000
0000
,
0301
1000
0100
0010
,
0100
0000
0011
0000
0001
0100
0010
0000
,
0100
0010
1001
1001
,
0001
0000
0100
0000
0010
1000
0001
0000
,
1000
0100
0010
0000
0010
0001
0010
0000
,
0010
1000
0100
0000
0100
0010
0001
0000
,
1000
0001
0101
1100
,
0100
0000
0010
0000
0001
0010
0100
0000
,
2200
0000
0000
3300
,
1000
0000
0000
0010
0000
0000
0200
0000
0000
0000
0000
0000
0000
0000
0000
0000
,
0000
0000
0000
0300
,
0010
0000
0000
1000
0000
0000
0002
0000
0000
0000
0000
0000
0000
0000
0000
0000
,
0000
0000
0000
0000
,
1003
0000
0000
0001
0000
0000
0200
0000
0000
0000
0000
0000
0000
0000
0000
0000
,
0000
0000
0000
0000
,
0301
0000
0000
1000
0000
0000
0200
0000
0000
0000
0000
0000
0000
0000
0000
0000
,
0000
0000
0000
0000
0000
0000
0000
0300
;

//---------------dance-single - ----------------
#NOTES:
     dance-single:
     :
     Easy:
     3:
     0.207,0.292,0.150,0.205,0.000: // measure 1
0002
0000
0000
0000
,  // measure 2
0000
0000
0000
0000
,  // measure 3
1000
0000
1000
0000
,  // measure 4
2000
0000
0000
3003
,  // measure 5
0010
1001
0001
0001
,  // measure 6
0100
0001
0011
0011
,  // measure 7
0001
1000
0010
0100
,  // measure 8
0010
1000
1100
1100
,  // measure 9
1000
0001
0100
0100
,  // measure 10
0001
0010
0110
1100
,  // measure 11
1000
0010
0100
0100
,  // measure 12
0020
0000
0000
0030
,  // measure 13
0100
1001
0001
1000
,  // measure 14
0100
1000
1010
0011
,  // measure 15
0010
0100
0010
0001
,  // measure 16
0002
0103
0200
0310
,  // measure 17
2000
3100
1000
0010
,  // measure 18
0100
0100
0110
1010
,  // measure 19
0010
1000
0001
0010
,  // measure 20
0200
0000
0000
0300
,  // measure 21
1000
0000
0001
0000
,  // measure 22
0100
0000
0001
0000
,  // measure 23
0010
0000
0001
0000
,  // measure 24
2020
0000
0000
3030
,  // measure 25
0010
0000
0100
0000
,  // measure 26
0001
0000
1000
0000
,  // measure 27
1000
0000
0100
0000
,  // measure 28
0020
0000
0000
0000
,  // measure 29
0200
0000
0000
0000
,  // measure 30
0330
0000
0000
0000
,  // measure 31
0001
0000
0000
0000
,  // measure 32
1000
0000
0000
0000
,  // measure 33
0001
0000
0000
0000
,  // measure 34
0010
0000
0000
0010
0000
0000
0010
0000
,  // measure 35
0100
0000
0000
0000
,  // measure 36
1000
0000
0000
0000
,  // measure 37
0010
0000
0000
0000
,  // measure 38
0100
0000
0000
0100
0000
0000
0100
0000
,  // measure 39
0002
0000
0000
0003
,  // measure 40
2000
0000
0000
3000
,  // measure 41
0020
0000
0000
0030
,  // measure 42
0200
0000
0010
0000
,  // measure 43
0320
0000
0000
0000
,  // measure 44
2030
0000
0000
0000
,  // measure 45
3200
0000
0000
0000
,  // measure 46
0320
0001
0001
0031
,  // measure 47
2000
3010
0100
0001
,  // measure 48
0010
0010
0011
1100
,  // measure 49
1000
0010
0100
0001
,  // measure 50
1000
0000
0100
0000
0010
0001
0010
0000
,  // measure 51
0001
0101
0001
0100
,  // measure 52
0010
0010
0110
1001
,  // measure 53
0001
1000
0100
1000
,  // measure 54
0020
0000
0000
0030
,  // measure 55
0100
0001
0020
0000
,  // measure 56
0000
0000
0000
0030
,  // measure 57
0100
1000
0020
0000
,  // measure 58
0000
0000
0000
0030
,  // measure 59
2002
0000
0000
0000
,  // measure 60
0000
0000
3003
0000
,  // measure 61
0200
0000
0000
0000
,  // measure 62
0000
0000
0000
0000
0000
0000
0000
0300
;

//---------------dance-single - ----------------
#NOTES:
     dance-single:
     :
     Challenge:
     9:
     0.512,0.560,0.465,0.362,0.224:
1100
0000
0000
0100
0000
0000
0020
0000
0000
0000
0000
0000
0100
0000
0000
0000
,
0000
0001
0000
0100
,
0001
0000
0000
0000
0100
0000
0000
0000
1000
0000
0000
0000
0100
0000
0000
0030
,
0110
0000
0000
0011
0000
0000
1100
0000
0000
0101
0000
0000
1010
0000
0000
0000
,
0102
0000
0013
0001
0010
1010
0011
0000
,
0001
0100
0010
0100
0101
0000
1010
0000
,
2001
0000
3100
0010
0001
0011
1100
0000
,
1000
0001
0100
0000
0110
0000
1001
0000
,
1001
0000
0110
0100
0010
1010
0101
0000
,
0001
0100
0100
0010
1010
0000
0101
0000
,
2001
0000
3100
0010
0001
0100
1000
0000
,
0100
0000
0000
0000
0000
0000
0010
0100
0000
0000
0000
0000
0100
0000
0000
0000
0000
0000
0001
0000
0000
0000
0000
0000
0001
0000
0000
0000
0010
0000
0000
0000
,
0200
0300
0110
0010
0001
1000
1001
0000
,
0001
1000
0100
0010
0011
0000
1001
0000
,
0201
0000
0310
0100
0010
0010
0100
0000
,
0102
0023
2030
3020
,
0130
0000
1100
0100
0011
1100
1001
0000
,
0001
1000
0010
0010
1010
0000
0101
0000
,
0001
0010
0100
1000
0100
0001
0100
0000
,
0020
0000
0000
2000
0000
0030
0002
0000
3000
0020
0000
0003
0200
0030
2000
0300
,
3001
0000
0000
0100
0000
0001
0100
0000
0010
0000
0000
1000
0000
0000
1000
0000
,
0010
0000
0000
1000
0000
0100
0010
0000
0001
0000
0000
0010
0000
0000
0010
0000
,
0100
0000
0000
0010
0000
0001
0100
0000
0010
0000
0000
1000
0000
0000
0010
0000
,
0101
0000
0000
1010
0000
0000
2200
0000
0000
0000
0000
0000
0000
0000
3300
0000
,
1000
0000
0000
0100
0000
0100
0010
0000
0100
0000
0000
1000
0000
0000
0010
0000
,
0001
0000
0000
0010
0000
0010
0100
0000
0010
0000
0000
1000
0000
0000
1000
0000
,
0001
0000
0000
0010
0000
0010
0100
0000
1000
0000
0000
1000
0000
0000
0100
0000
,
1000
0000
0000
0000
0000
1000
0100
0000
0000
0000
0000
0000
0010
0000
0000
0000
0000
0000
0001
0000
0000
0000
0000
0000
0100
0000
0000
0000
0010
0000
0000
0000
,
2000
0000
0000
0000
,
0002
3003
0000
0000
0000
0000
0000
0000
0000
0000
0000
0000
0000
0000
0000
0000
,
0001
0001
0001
0001
,
1000
1000
1000
1000
,
0010
0010
0010
0010
,
0100
0100
0100
0100
,
0001
0100
0001
0100
0001
0100
0001
0100
,
0010
1000
0010
1000
0010
1000
0010
1000
,
0001
1000
0001
1000
0001
1000
0001
1000
,
0001
0100
0001
0010
0001
0010
0001
0010
,
0002
0010
0100
1003
,
2000
0100
0010
3001
,
0002
0100
0010
1003
,
2000
0100
0010
3001
,
1002
0100
0010
0103
,
2001
0100
0010
3100
,
1000
0100
0010
0001
0010
0100
1000
0100
,
0110
0000
0000
0000
0000
0000
0000
0000
0000
0000
0000
0000
0011
0000
0000
0000
0000
0000
0000
0000
0000
0000
0000
0000
1010
0000
0000
0000
0000
0000
0000
0000
0000
0000
0000
0000
0101
0000
0000
0000
0000
0000
0000
0000
0000
0000
0000
0000
2002
0000
0000
0000
0000
0000
0000
0000
0000
0000
0000
0000
0000
0000
0000
3003
,
2002
0000
0000
3003
0101
0000
0001
0100
0000
0100
0001
0000
1002
0000
0000
0000
,
0013
0100
0010
0001
0101
0000
0101
0000
,
0001
0000
1000
0000
0010
0000
0100
0010
0000
0100
0010
0000
0010
0000
1000
0000
,
1010
0000
0101
0000
0011
0000
0001
0000
0010
0000
0100
1000
0020
0000
0000
0000
,
0130
0000
0100
0000
0110
0000
0010
1000
0000
1000
0010
0000
0200
0000
0000
0000
,
0301
0010
1000
0010
0210
0300
0012
0010
,
0023
0130
2000
0001
3001
0010
0100
1000
,
0020
0000
0000
0002
0000
0030
0020
0000
0003
2000
0000
0030
3200
0000
0320
0000
,
0031
0000
0000
0100
0000
0010
1000
0000
0010
0000
0000
0100
0000
0000
0010
0000
,
1000
0000
0000
0001
0000
0010
0100
0000
1000
0000
0000
0100
0000
0000
1000
0000
,
0010
0000
0000
0100
0000
0010
1000
0000
0001
0000
0000
0010
0000
0000
0100
0000
,
1000
0000
0000
0100
0000
1000
0100
0000
0010
0000
0010
0000
0001
0000
0001
0000
,
0011
0000
0000
1001
0000
0000
2020
0000
0000
0000
0000
0000
0000
0000
0000
0000
,
0000
0000
0000
3000
0000
0000
0000
0000
,
1000
0000
0000
0100
0000
0000
0002
0000
0000
0000
0000
0000
0000
0000
0033
0000
,
0100
0000
0000
0100
0000
0010
0100
0000
1000
0000
0000
0010
0000
0000
0100
0000
;

//---------------dance-single - ----------------
#NOTES:
     dance-single:
     :
     Beginner:
     1:
     0.095,0.195,0.039,0.047,0.000:
0001
0000
0000
0000
,
0000
0000
0000
0000
,
0000
0000
0000
0000
,
1000
0000
0000
0000
,
0010
1001
0000
0000
,
0001
0000
0000
0000
,
0100
0000
0000
0000
,
0001
0000
0000
0000
,
1000
0000
0000
0000
,
0100
0000
0000
0000
,
1000
0000
0000
0000
,
0020
0000
0000
0030
,
0100
1001
0000
0000
,
0001
0000
0000
0000
,
0100
0000
0000
0000
,
0001
0000
1000
0000
,
0110
0000
0000
0000
,
0010
0000
0000
0000
,
0100
0000
0000
0000
,
0001
0000
0000
0000
,
1000
0000
0000
0000
,
1000
0000
0000
0000
,
1000
0000
0000
0000
,
0020
0000
0000
0030
,
0001
0000
0000
0000
,
0001
0000
0000
0000
,
0001
0000
0000
0000
,
0200
0000
0000
0000
,
0300
0000
0000
0000
,
0000
0000
0000
0000
,
0010
0000
0000
0000
,
1000
0000
0000
0000
,
0100
0000
0000
0000
,
1000
0000
0001
0000
,
0100
0000
0000
0000
,
0001
0000
0000
0000
,
1000
0000
0000
0000
,
0100
0000
0000
0000
,
1000
0000
0000
0000
,
0010
0000
0000
0000
,
0100
0000
0000
0000
,
0001
0000
0000
0000
,
1000
0000
0000
0000
,
0100
0000
0000
0000
,
1000
0000
0000
0000
,
0001
0000
1000
0000
,
0110
1001
0000
0001
,
0000
0000
1000
1000
,
1000
0000
0100
0000
,
1000
0000
0010
0010
,
0100
0000
0010
0000
,
0100
0000
0001
0001
,
1000
0000
0100
0000
,
2000
0000
0000
3000
,
0001
1000
0001
0000
,
0000
0000
0000
0000
,
0100
0010
0100
0000
,
0000
0000
0000
0000
,
0002
0000
0000
0000
,
0000
0000
0003
0000
,
0200
0000
0000
0000
,
0000
0000
0000
0000
0000
0000
0000
0300
;
