#TITLE:IRIS;
#SUBTITLE:;
#ARTIST:STA;
#TITLETRANSLIT:;
#SUBTITLETRANSLIT:;
#ARTISTTRANSLIT:;
#GENRE:;
#CREDIT:;
#BANNER:Iris.png;
#BACKGROUND:Iris-bg.png;
#LYRICSPATH:;
#CDTITLE:;
#MUSIC:IRIS.mp3;
#OFFSET:-0.923000;
#SAMPLESTART:15.699883;
#SAMPLELENGTH:12.000000;
#SELECTABLE:YES;
#BPMS:0.000000=195.000000
;
#STOPS:
;
#BGCHANGES:;
#KEYSOUNDS:;
#ATTACKS:;

//---------------dance-single - ----------------
#NOTES:
     dance-single:
     :
     Hard:
     9:
     0.714624,0.998942,0.464747,0.481647,0.211249,480.000000,55.000000,57.000000,0.000000,0.000000,0.000000,0.714624,0.998942,0.464747,0.481647,0.211249,480.000000,55.000000,57.000000,0.000000,0.000000,0.000000:
// measure 0
0000
0000
0000
0000
,  // measure 1
0000
0000
0000
0000
,  // measure 2
0000
0000
0000
0000
,  // measure 3
0000
0000
0000
0000
,  // measure 4
0000
0000
0000
0000
,  // measure 5
0000
0000
0000
0000
,  // measure 6
1000
0000
0001
0000
0011
0000
0010
0100
,  // measure 7
0000
1000
0010
0100
0010
0000
0100
0001
,  // measure 8
1000
0000
0100
0010
0000
0001
1000
0001
,  // measure 9
0100
0000
0001
0100
0001
0100
0001
0000
,  // measure 10
0100
0000
0010
1000
0010
1000
0010
0100
,  // measure 11
0010
1000
0001
0010
1000
0010
0001
1000
,  // measure 12
0020
0000
0100
0000
1030
0001
0020
0000
,  // measure 13
0130
0000
0010
0001
2000
0000
3001
0100
,  // measure 14
0001
0010
0200
0000
1300
0000
0010
1000
,  // measure 15
0200
0000
1300
0000
0100
0010
0002
0000
,  // measure 16
0103
0010
1000
0001
2000
0000
3020
0000
,  // measure 17
2030
0000
3020
0000
0230
0000
0301
0010
,  // measure 18
0200
0000
1300
0000
1000
0010
0200
0000
,  // measure 19
0301
0000
0100
0000
0020
0000
1030
0100
,  // measure 20
0010
0001
2000
0000
3001
0000
0100
0010
,  // measure 21
2000
0000
3020
0000
0130
0001
2000
0000
,  // measure 22
3100
0001
0100
1000
0020
0000
0230
0000
,  // measure 23
0302
0023
0230
2300
,  // measure 24
3001
0101
0000
1010
0000
1010
0000
1010
,  // measure 25
1000
0010
0100
0001
0010
0110
0000
1100
,  // measure 26
0000
0101
0000
1100
0100
0010
0100
1000
,  // measure 27
0001
0011
0000
1100
0000
1100
0000
1100
,  // measure 28
0100
1000
0100
0010
0001
0000
0100
1000
,  // measure 29
0000
1000
0010
0100
0010
1000
0200
0000
,  // measure 30
0310
0011
0000
1100
0000
1100
0000
1100
,  // measure 31
1000
0010
0100
0001
1000
1001
0000
0101
,  // measure 32
0000
0101
0000
0101
0001
0100
0010
1000
,  // measure 33
0001
1001
0000
1010
0000
1010
0000
1010
,  // measure 34
1000
0010
0100
0010
1000
1001
0000
0110
,  // measure 35
0000
0100
2002
0000
0000
0000
3003
0000
,  // measure 36
0010
0000
0101
0000
0000
0011
0000
0000
,  // measure 37
0010
0010
0100
0000
1000
0000
0001
0000
,  // measure 38
0100
0100
0001
0000
1000
0000
0100
0000
,  // measure 39
0001
0100
1100
0000
0000
1010
0000
0000
,  // measure 40
0010
0000
0000
0000
0000
0000
0200
0000
0000
0000
0000
0000
0302
0000
0000
0000
0000
0000
0023
0000
0000
0000
0000
0000
0230
0000
0000
0300
2000
0000
3002
0000
0000
2003
0000
0000
3002
0000
0000
2003
0000
0000
3002
0000
0000
2003
0000
0000
,  // measure 41
3020
0000
0000
0000
0000
0000
0000
0130
,  // measure 42
0110
0000
1010
0000
0000
0011
0000
0000
,  // measure 43
0010
0010
0100
0000
0010
0000
0001
0000
,  // measure 44
1000
0010
1000
0001
,  // measure 45
0101
0000
0110
0000
0000
1020
0000
0000
,  // measure 46
0000
0000
0000
0000
,  // measure 47
0000
0000
0000
0000
0000
1030
0010
0010
,  // measure 48
0100
0000
0001
0010
0001
0000
0010
0100
,  // measure 49
0010
0000
0100
1000
0100
0000
1000
0001
,  // measure 50
1000
0000
0001
0100
0001
0000
0100
0010
,  // measure 51
0100
0000
0010
1000
0010
0000
1000
0001
,  // measure 52
1000
0000
0100
0010
0100
0000
0010
0001
,  // measure 53
0010
0000
0001
1000
0001
0000
1000
0100
,  // measure 54
1000
0000
0100
0010
0100
0000
1000
0100
,  // measure 55
1000
0000
0010
1000
0010
0000
0100
0010
,  // measure 56
0100
0000
0000
0001
0100
0001
0100
0000
0000
0001
0100
0001
,  // measure 57
0100
0000
0000
0010
0100
0010
0100
0000
0000
0100
0010
0100
,  // measure 58
0010
0000
0000
1000
0010
1000
0010
0000
0000
0010
1000
0010
,  // measure 59
1000
0000
0000
0001
1000
0001
1000
0000
0000
1000
0001
1000
,  // measure 60
0001
0000
0000
1000
0100
0010
0001
1000
0100
0010
0001
0010
,  // measure 61
0100
0000
0000
0010
0001
0100
0010
0100
0001
0010
0100
1000
,  // measure 62
0001
0000
0000
1000
0100
0010
0001
0010
0100
0010
0001
1000
,  // measure 63
0001
0100
0010
1000
0001
0010
0100
0010
0001
1000
0010
1000
,  // measure 64
0001
2002
0000
0000
,  // measure 65
0000
0000
0000
0000
,  // measure 66
0000
0000
0000
0000
,  // measure 67
0000
0000
0000
3000
2000
0000
0000
0000
,  // measure 68
0000
0000
0000
0000
,  // measure 69
0000
0000
0000
0000
0000
0000
0000
3003
,  // measure 70
1001
0000
1000
0100
1000
0100
1000
0000
,  // measure 71
0100
0010
0000
0100
0010
0001
1000
0100
,  // measure 72
0001
0100
0010
0001
1000
0000
0001
0100
,  // measure 73
0001
0100
0010
1000
0010
0100
0000
0010
,  // measure 74
1000
0010
1000
0001
1000
0100
0010
0001
,  // measure 75
1000
0001
1000
0001
1000
0001
1000
1001
,  // measure 76
1001
0201
0000
0000
0000
0300
1000
0001
,  // measure 77
0020
0000
0130
0000
0010
0001
2000
0000
,  // measure 78
3001
0100
0001
0010
0200
0000
1300
0000
,  // measure 79
0010
1000
0200
0000
1300
0000
0100
0010
,  // measure 80
0002
0000
0103
0010
1000
0001
2000
0000
,  // measure 81
3020
0000
2030
3020
0230
0000
0302
0000
,  // measure 82
2003
0000
3100
1100
0000
0110
0000
0110
,  // measure 83
0000
0110
0010
0001
1000
0010
0100
0101
,  // measure 84
0000
0011
0000
0011
0000
0011
0001
0010
,  // measure 85
0001
1000
0010
1010
0000
1001
0000
1001
,  // measure 86
0000
1001
1000
0100
1000
0001
0100
0010
,  // measure 87
1000
0010
0001
0010
0100
0010
1000
0100
,  // measure 88
0001
0100
0020
0000
0000
0000
0000
0000
,  // measure 89
0130
0001
1000
0001
1000
0001
1000
0001
,  // measure 90
1000
0000
0001
0000
1000
0000
0001
0000
1000
0001
0100
0001
0010
0100
1000
0001
;

//---------------dance-single - ----------------
#NOTES:
     dance-single:
     :
     Medium:
     7:
     0.491304,0.576709,0.321098,0.346448,0.000000,328.000000,38.000000,41.000000,0.000000,0.000000,0.000000,0.491304,0.576709,0.321098,0.346448,0.000000,328.000000,38.000000,41.000000,0.000000,0.000000,0.000000:
// measure 0
0000
0000
0000
0000
,  // measure 1
0000
0000
0000
0000
,  // measure 2
0000
0000
0000
0000
,  // measure 3
0000
0000
0000
0000
,  // measure 4
0000
0000
0000
0000
,  // measure 5
0000
0000
0000
0000
,  // measure 6
1000
0000
0100
0000
1000
0000
0010
1000
,  // measure 7
0000
1000
0100
1000
0010
0000
0100
0000
,  // measure 8
1001
0000
0001
0100
0001
0000
0100
0000
,  // measure 9
0010
0000
1000
0010
0000
0100
0001
0010
,  // measure 10
0000
0010
0100
1000
0002
0000
0203
0000
,  // measure 11
0320
0000
2030
0000
3001
0010
0100
1000
,  // measure 12
0002
0000
0000
0000
1003
0001
0020
0000
,  // measure 13
0000
0000
0130
0000
2000
0000
0000
3001
,  // measure 14
0100
0010
0100
0000
0000
0000
0100
0010
,  // measure 15
2000
0000
3010
0000
0100
0010
2000
0000
,  // measure 16
0000
3001
0010
0100
2000
0000
3200
0000
,  // measure 17
0320
0032
0203
0320
,  // measure 18
1030
0000
0010
0000
0100
0010
1010
0000
,  // measure 19
1000
0000
0001
0000
0011
0000
0010
0100
,  // measure 20
1000
0001
1000
0000
0000
0000
1000
0001
,  // measure 21
0200
0310
0020
2030
,  // measure 22
3001
0000
0010
0100
2000
0000
3200
0000
,  // measure 23
0320
0032
0203
0320
,  // measure 24
1030
0010
0000
0100
0000
0001
0000
1000
,  // measure 25
0100
0010
0001
0010
0100
1000
0000
0100
,  // measure 26
0000
1000
0000
0010
0100
0001
1000
0010
,  // measure 27
0100
0010
0000
1000
0000
0010
0000
0100
,  // measure 28
0010
0100
0001
1000
0001
0000
0000
0100
,  // measure 29
0000
0000
0010
0000
0000
1000
0000
0000
,  // measure 30
0010
0100
0000
0110
0000
0110
0000
0010
,  // measure 31
0100
0000
0010
0000
1000
0001
0000
1001
,  // measure 32
0000
1001
0000
0001
1000
0000
0100
0000
,  // measure 33
0010
0001
0000
0011
0000
0011
0000
0001
,  // measure 34
0010
0000
0100
0000
1100
0000
0000
0011
,  // measure 35
0000
2002
0000
3003
,  // measure 36
1001
0000
0101
0000
0000
1010
0000
0000
,  // measure 37
0000
0000
0000
0000
,  // measure 38
0000
0000
0000
0000
,  // measure 39
1010
0000
0101
0000
0000
0011
0000
0000
,  // measure 40
0020
0000
0000
0000
,  // measure 41
0000
0000
0000
0000
,  // measure 42
0130
0000
1001
0000
0000
0101
0000
0000
,  // measure 43
0000
0000
0000
0000
,  // measure 44
0000
0000
0000
0000
,  // measure 45
0010
0000
0101
0000
0000
1010
0000
0000
,  // measure 46
0000
0000
0000
0000
,  // measure 47
0000
0000
0000
0000
0000
0000
1000
0010
,  // measure 48
0100
0001
0001
1000
,  // measure 49
1000
0000
0001
1000
0001
1000
0001
0000
,  // measure 50
1001
1000
1000
0010
,  // measure 51
0010
0000
1000
0010
1000
0010
1000
0000
,  // measure 52
1010
0001
0001
0100
,  // measure 53
0100
0000
0001
0100
0001
0100
0001
0000
,  // measure 54
0101
0001
1000
0010
,  // measure 55
0100
0000
0010
0100
0001
1000
0010
0000
,  // measure 56
1010
0000
0001
0100
0001
0000
0100
0010
,  // measure 57
0100
0000
0010
1000
0010
0000
1000
0000
,  // measure 58
1001
0000
1000
0100
1000
0000
0100
0010
,  // measure 59
0100
0000
0010
0001
0010
0000
0001
0000
,  // measure 60
1001
0000
0001
0100
0001
0000
0100
0010
,  // measure 61
0100
0000
0010
1000
0010
0000
1000
0000
,  // measure 62
1001
0000
0001
0100
0010
0000
0100
0010
,  // measure 63
1000
0000
1000
0100
0001
0100
1000
0010
,  // measure 64
0100
0001
2000
0000
0000
0000
0000
0000
,  // measure 65
0000
0000
0000
0000
,  // measure 66
0000
0000
0000
0000
,  // measure 67
0000
0000
0002
0000
,  // measure 68
0000
0000
0000
0000
,  // measure 69
0000
0000
0000
3000
,  // measure 70
1003
0010
0010
0100
,  // measure 71
0010
1000
0010
0100
,  // measure 72
0100
0100
0010
1000
,  // measure 73
0100
1000
1000
0001
,  // measure 74
0100
0001
1000
0100
,  // measure 75
0010
0000
0001
0000
0100
0000
0010
1000
,  // measure 76
0001
0001
0020
0000
0000
0000
0130
0010
,  // measure 77
1010
1000
0001
0011
,  // measure 78
0010
0100
1000
0001
1000
0000
0000
0000
,  // measure 79
1000
0001
0200
0000
0310
0000
0020
0000
,  // measure 80
2030
0000
3001
0000
0010
0100
2000
0000
,  // measure 81
3200
0320
0032
0203
,  // measure 82
0320
0000
1030
0010
0000
0110
0000
0110
,  // measure 83
0000
0010
0100
0001
1000
0000
1000
0100
,  // measure 84
0000
0011
0000
0011
0000
0001
0010
0100
,  // measure 85
1000
0000
0001
1000
0000
0101
0000
1010
,  // measure 86
0000
0001
0100
0010
1000
0000
1001
0000
,  // measure 87
0000
0010
0000
0000
0200
0000
0000
0000
,  // measure 88
0000
0020
0000
0000
,  // measure 89
0000
0000
0000
0000
,  // measure 90
0000
0000
0000
0000
,  // measure 91
0330
0000
0000
0000
;

//---------------dance-single - ----------------
#NOTES:
     dance-single:
     :
     Easy:
     4:
     0.261948,0.346025,0.092949,0.219699,0.000000,180.000000,11.000000,26.000000,0.000000,0.000000,0.000000,0.261948,0.346025,0.092949,0.219699,0.000000,180.000000,11.000000,26.000000,0.000000,0.000000,0.000000:
0000
0000
0000
0000
,
0000
0000
0000
0000
,
0000
0000
0000
0000
,
0000
0000
0000
0000
,
0000
0000
0000
0000
,
0000
0000
0000
0000
,
0001
0000
0010
0000
,
0001
0000
1000
0000
,
0100
0000
1000
0000
,
0010
0000
0100
0000
,
0001
0000
1000
0000
,
0001
0000
1000
0010
,
0100
0000
0010
1000
,
0000
0010
0100
0000
,
0010
1000
0000
0010
,
0100
0001
0010
0100
,
0000
0010
0001
1000
,
0010
1000
0001
0100
,
0001
0000
1000
0100
,
0000
1000
0010
0000
,
1000
0001
0000
0001
,
0100
0001
1000
0100
,
1000
0010
0100
0001
,
0010
0100
1000
0010
,
0100
0000
0000
0000
,
0010
0100
1001
0000
,
0000
0000
0100
0010
,
1001
0000
0000
0000
,
0000
0000
0000
0000
0010
0000
0000
1000
,
0000
0100
0000
1000
,
0010
0000
0000
0000
,
0100
0001
1001
0000
,
0000
0000
1000
0100
,
0110
0000
0000
0000
,
0000
0000
0000
0000
0110
0000
0000
0001
,
0000
1000
0000
0000
,
0000
0000
0010
0000
0000
0110
0000
0000
,
0000
0000
0000
0000
,
0000
0000
0000
0000
,
0100
0000
0001
0000
0000
1010
0000
0000
,
0000
0000
0000
0000
,
0000
0000
0000
0000
,
1000
0000
0100
0000
0000
0011
0000
0000
,
0000
0000
0000
0000
,
0000
0000
0000
0000
,
0001
0000
1000
0000
0000
0110
0000
0000
,
0000
0000
0000
0000
,
0000
0000
0000
0010
,
0100
0002
0000
2003
,
0000
3200
0000
2300
,
0000
3020
0000
0230
,
0000
0302
0000
0023
,
0000
0230
0000
2300
,
0000
3200
0000
2300
,
0000
3020
0000
0230
,
0000
0302
0000
2003
,
0000
3200
0000
1000
,
0000
1000
0000
1000
,
0000
0320
0000
0001
,
0000
0001
0000
0001
,
0000
0230
0000
1000
,
0000
0010
0000
1000
,
0000
0320
0000
0001
,
0000
0100
0000
0031
,
0000
2002
0000
0000
,
0000
0000
0000
0000
,
0000
0000
0000
0000
,
0000
0000
0000
3003
,
0000
0000
0000
0000
,
0000
0000
0000
0000
,
1000
0001
0100
0001
,
0000
0100
0010
0100
,
0000
0010
1000
0010
,
1000
0001
0000
1000
,
0000
0100
0000
1000
,
0000
0010
0000
0100
,
0010
2000
0000
3010
,
0200
0000
0310
1000
,
0000
0001
0010
0000
,
0100
0010
0001
0010
,
1000
0010
0100
0010
,
0001
0010
1000
0010
,
0100
0000
0010
0000
0000
0100
0000
0100
,
0000
0100
0010
0000
0100
0000
0001
0000
,
0000
0001
0000
0100
0000
1000
0010
0000
,
0100
0000
0001
0000
0000
1000
0000
0100
,
0000
0010
0001
0000
0010
0000
0100
0000
,
0000
0010
0000
0000
0001
0000
0000
1000
,
0000
2002
0000
0000
,
0000
0000
0000
0000
,
0000
0000
0000
0000
,
3003
0000
0000
0000
;

//---------------dance-single - ----------------
#NOTES:
     dance-single:
     :
     Beginner:
     2:
     0.160549,0.230683,0.118299,0.033800,0.000000,115.000000,14.000000,4.000000,0.000000,0.000000,0.000000,0.160549,0.230683,0.118299,0.033800,0.000000,115.000000,14.000000,4.000000,0.000000,0.000000,0.000000:
0000
0000
0000
0000
,
0000
0000
0000
0000
,
0000
0000
0000
0000
,
0000
0000
0000
0000
,
0000
0000
0000
0000
,
0000
0000
0000
0000
,
1000
0000
0001
0000
,
0000
0100
0010
0000
,
0100
0000
0001
0000
,
1000
0000
0000
0000
,
1000
0000
0010
0000
,
0100
0000
0000
0010
,
0100
0000
0000
0010
,
0000
0000
1000
0000
,
0001
0001
0000
0000
,
1000
0000
0000
0010
,
0000
0000
0100
0000
,
0000
0001
0000
0000
,
1000
0000
0000
0010
,
0000
0000
1000
0000
,
0001
0001
0000
0000
,
1000
0000
0000
0001
,
0000
0000
0100
0000
,
0000
0010
0000
0000
,
1001
0000
0000
0000
,
1000
1000
1001
0000
,
0000
0000
0010
0010
,
1001
0000
0000
0000
,
0000
0000
0100
0000
,
0000
0010
0000
0000
,
1001
0000
0000
0000
,
0010
0010
1001
0000
,
0000
0000
0001
0001
,
1001
0000
0000
0000
,
0000
0000
1000
0000
,
0000
0010
0000
0000
,
0000
0000
0000
0000
,
0100
0000
0000
0000
,
0000
0000
0000
0000
,
0000
1001
0000
0000
,
0001
0000
0000
0000
,
0000
0000
0000
0000
,
1000
1001
0000
0000
,
0000
0000
0000
0000
,
0000
0000
0000
0000
,
0100
1001
0000
0000
,
0000
0000
0000
0000
,
0000
0000
0000
0000
,
1000
0001
0000
0001
,
0000
0001
0000
0001
,
0000
1000
0000
1000
,
0000
1000
0000
1000
,
0000
0010
0000
0010
,
0000
0010
0000
0010
,
0000
0100
0000
0100
,
0000
0100
0000
0100
,
0000
0001
0000
0100
,
0000
0010
0000
1000
,
0000
0001
0000
0100
,
0000
0010
0000
1000
,
0000
1000
0000
0100
,
0000
0010
0000
0001
,
0000
1000
0000
0100
,
0000
0010
0000
0001
,
0000
2002
0000
0000
,
0000
0000
0000
0000
,
0000
0000
0000
0000
,
0000
0000
0000
0000
,
3003
0000
0000
0000
,
0000
0000
0000
0000
,
0000
0001
0000
0000
,
0000
1000
0000
0000
,
0000
0001
0000
0000
,
0000
0100
0000
0000
,
0000
0000
0000
0010
,
0000
0000
0000
0000
,
0100
0010
0000
0000
,
1000
0000
0001
0001
,
0000
0100
0100
0000
,
0000
0010
0000
0000
,
1000
0000
0000
0001
,
0000
0000
1000
0000
,
0000
0110
0000
0000
,
0000
0100
0010
1001
,
0001
0000
0000
0001
,
1000
0110
0000
0000
,
0000
0000
0000
0100
,
0000
0000
0010
0000
,
0000
2002
0000
0000
,
0000
0000
0000
0000
,
0000
0000
0000
0000
,
3003
0000
0000
0000
;

//---------------dance-single - ----------------
#NOTES:
     dance-single:
     :
     Challenge:
     12:
     0.966915,1.000000,0.397147,0.836544,0.650646,655.000000,47.000000,99.000000,0.000000,0.000000,0.000000,0.966915,1.000000,0.397147,0.836544,0.650646,655.000000,47.000000,99.000000,0.000000,0.000000,0.000000:
// measure 0
0000
0000
0000
0000
,  // measure 1
0000
0000
0000
0000
,  // measure 2
0000
0000
0000
0000
,  // measure 3
0000
0000
0000
0000
,  // measure 4
0000
0000
0000
0000
,  // measure 5
0000
0000
0000
0000
0001
1000
0001
1000
0001
0000
1000
0001
1000
0001
1000
0000
,  // measure 6
0100
1000
1010
0000
0010
0100
0000
0100
,  // measure 7
0001
0010
1000
0010
0100
0000
1000
0000
,  // measure 8
0001
0100
0010
0000
1000
0001
0010
0001
,  // measure 9
1000
0100
0010
0001
0000
0001
0100
0010
,  // measure 10
1000
0001
0010
0100
0010
0001
1000
0010
,  // measure 11
0100
0000
0010
0000
1000
0000
0001
0000
0010
0100
0010
0000
0100
1000
0100
0000
,  // measure 12
2000
3010
0100
0001
0020
0032
0203
0310
,  // measure 13
1000
0001
0020
0031
0200
0310
1000
0200
,  // measure 14
0320
0230
2300
3010
0100
0001
0020
0031
,  // measure 15
2000
3100
0020
0130
2000
3020
0230
0301
,  // measure 16
0010
0002
0203
0320
2030
3100
2000
3010
,  // measure 17
0200
0302
0023
0130
0020
0031
0200
0310
,  // measure 18
2000
3100
0010
0100
2000
3020
0230
0301
,  // measure 19
0010
0100
0020
0031
0200
0310
1000
0002
,  // measure 20
0023
0230
2300
3010
0100
0001
0020
0031
,  // measure 21
0200
0310
2000
3100
2000
3010
0200
0301
,  // measure 22
0020
1030
0020
0230
0320
0031
0200
0310
,  // measure 23
2000
3100
0002
0103
2000
3100
0020
1030
,  // measure 24
0001
1001
0000
0101
0000
0011
0000
0011
,  // measure 25
0010
0100
1000
0010
1000
1010
0000
0101
,  // measure 26
0000
0011
0000
0110
0100
1000
0010
0100
,  // measure 27
0001
0101
0000
1010
0000
1100
0000
0110
,  // measure 28
0010
0001
1000
0001
0010
0000
0100
1000
,  // measure 29
0000
1000
0010
0100
0001
1000
0010
0000
,  // measure 30
0100
0001
0000
0101
0000
1010
0000
1000
,  // measure 31
0001
0100
0010
0000
0100
0001
0010
0000
0100
0000
1000
0000
0000
0000
1100
0000
,  // measure 32
0000
0000
1010
0000
0000
0000
0110
0000
0100
0010
1000
0000
0001
0010
0100
0000
,  // measure 33
1000
1100
0000
0011
0000
0101
0000
0001
,  // measure 34
1000
0001
0100
0000
0100
0010
1000
0000
0001
0000
0101
0000
0000
0000
1010
0000
,  // measure 35
0000
1000
1002
0000
0000
0000
0000
0000
,  // measure 36
0013
0000
1100
0100
0010
1001
0000
0000
,  // measure 37
0001
0001
0010
0000
0100
0000
0010
0010
,  // measure 38
0100
0000
1000
0000
0100
0010
0001
1000
,  // measure 39
0020
0030
1010
0010
0100
0101
0000
0000
,  // measure 40
0002
0000
0023
0000
0230
0000
0300
1000
0100
0010
0001
0100
0010
1000
0001
0010
,  // measure 41
0001
0100
0010
1000
0001
0100
0001
0100
0001
0100
0010
0100
0010
0100
0010
1000
,  // measure 42
0020
0030
1010
1000
0001
0011
0000
0000
,  // measure 43
0010
0100
1000
0000
1001
0000
0001
0100
,  // measure 44
0010
1000
0001
0100
,  // measure 45
0011
0000
1100
0100
0010
0012
0000
0000
,  // measure 46
0000
0000
0000
0000
,  // measure 47
0000
0000
0000
0000
0000
0000
0000
0000
0003
0000
0001
1000
0100
0000
0010
0000
,  // measure 48
0001
0000
0000
0100
0000
0000
0010
0000
1000
0000
0010
0000
0100
0000
0001
0000
0010
0000
0100
0000
0010
0000
0001
0000
,  // measure 49
0100
0010
1000
0100
0010
0001
0010
0001
0100
0010
1000
0001
,  // measure 50
0010
0100
1000
0001
0010
0001
0100
0001
0010
0001
1000
0100
,  // measure 51
0010
0100
1000
0010
0100
0001
0010
0001
0100
0010
1000
0001
,  // measure 52
0010
0100
1000
0010
0100
0001
0010
0001
0100
0010
1000
0001
,  // measure 53
0010
0100
0010
0001
0100
0010
1000
0001
0010
0100
1000
0001
,  // measure 54
0010
0100
0010
0001
0100
0010
1000
0100
0010
0001
0100
0010
,  // measure 55
1000
0001
0010
0001
0010
0100
1000
0001
0010
0100
1000
0100
,  // measure 56
0010
0000
0000
0000
0001
0000
0000
0000
1000
0000
0000
0000
0010
0000
0000
0000
1000
0000
0001
0000
0000
1000
0000
0000
0000
0000
0000
0000
0000
0000
1000
0000
0000
0000
0000
0000
0010
0000
0000
0000
0100
0000
0001
0000
0000
0100
0000
0000
,  // measure 57
0000
0000
0000
0000
0000
0000
0010
0000
0000
0000
0000
0000
1000
0000
0000
0000
0010
0000
1000
0000
0000
0010
0000
0000
0000
0000
0000
0000
0000
0000
1000
0000
0000
0000
0000
0000
0001
0000
0000
0000
1000
0000
0001
0000
0000
1000
0000
0000
,  // measure 58
0001
0000
0000
0000
1000
0000
0000
0000
0001
0000
0000
0000
1000
0000
0000
0000
0001
0000
1000
0000
0000
0001
0000
0000
0000
0000
0000
0000
0000
0000
0001
0000
0000
0000
0000
0000
0100
0000
0000
0000
0010
0000
1000
0000
0000
0010
0000
0000
,  // measure 59
0000
0000
0000
0000
0000
0000
0100
0000
0000
0000
0000
0000
0001
0000
0000
0000
0100
0000
0001
0000
0000
0100
0000
0000
0000
0000
0000
0000
0000
0000
0001
0000
0000
0000
0000
0000
1000
0000
0000
0000
0001
0000
1000
0000
0000
0001
0000
0000
,  // measure 60
1000
0000
0000
0000
0001
0000
0000
0000
1000
0000
0000
0000
0001
0000
0000
0000
0100
0000
0010
0000
0000
0100
0000
0000
0000
0000
0000
0000
0000
0000
0100
0000
0000
0000
0000
0000
0010
0000
0000
0000
0100
0000
0010
0000
0000
1000
0000
0000
,  // measure 61
0000
0000
0000
0000
0000
0000
1000
0000
0000
0000
0000
0000
0100
0000
0000
0000
1000
0000
0100
0000
0000
1000
0000
0000
0000
0000
0000
0000
0000
0000
0100
0000
0000
0000
0000
0000
0010
0000
0000
0000
0100
0000
0010
0000
0000
0100
0000
0000
,  // measure 62
0010
0100
0010
0001
0010
0100
1000
0100
0010
0100
1000
0100
,  // measure 63
0010
0000
0000
0001
0000
0000
0100
0000
0000
0010
0000
0000
1000
0000
0000
0000
0001
0000
0000
0000
0010
0000
0000
0000
0100
0000
0000
0000
1000
0000
0000
0000
0010
0000
0000
0000
0100
0000
0000
0010
0000
0000
1000
0000
0000
0001
0000
0000
,  // measure 64
0010
0100
0010
0001
2000
0000
0000
0000
0000
0000
0020
0000
0000
0000
3000
0000
,  // measure 65
0200
0000
0030
0002
0000
0300
0023
0000
,  // measure 66
0000
0200
0000
0000
0000
0000
0000
0000
,  // measure 67
0000
0000
0030
0000
0020
0000
0300
0032
,  // measure 68
0000
0000
2000
0000
0003
0020
0000
3000
,  // measure 69
0200
0000
0030
0302
0000
0000
0000
0003
,  // measure 70
1001
0000
1000
0100
1000
0100
1000
0000
,  // measure 71
0100
0010
0000
0100
0010
0001
1000
0100
,  // measure 72
0001
0100
0010
0001
1000
0000
0001
0100
,  // measure 73
0001
0100
0010
1000
0010
0100
0000
0010
,  // measure 74
1000
0010
1000
0001
1000
0100
0010
0001
,  // measure 75
1000
0001
1000
0001
1000
0001
1000
1001
,  // measure 76
1001
0201
0000
0000
0000
0300
0020
2030
,  // measure 77
3020
0130
0001
0010
0100
0010
0002
0103
,  // measure 78
0010
2000
3200
0320
0230
1300
0010
0100
,  // measure 79
0002
0013
0200
0310
0002
0103
0020
2030
,  // measure 80
3002
0013
0001
0200
0302
2003
3200
0310
,  // measure 81
0200
1300
0020
0130
0002
0013
0200
1300
,  // measure 82
0002
1003
0010
1010
0000
0101
0000
0101
,  // measure 83
0000
0000
0101
0000
0001
0100
0001
0000
0100
0010
0100
0000
0010
0000
1000
0000
,  // measure 84
0000
0000
1010
0000
0000
0000
0101
0000
0000
0000
1001
0000
1000
0001
1000
0000
,  // measure 85
0001
1000
0001
0000
1000
0000
0010
0000
0000
0000
0110
0000
0000
0000
1010
0000
,  // measure 86
0000
0000
1000
0000
0001
0010
0001
0000
0010
0100
0010
0000
0200
0000
0000
0000
,  // measure 87
0000
2300
0000
0000
3020
0000
0000
0230
,  // measure 88
0000
0320
0000
0000
,  // measure 89
0030
0000
0100
0001
0100
0000
0010
0000
1000
0000
0001
1000
0001
0000
1000
0001
,  // measure 90
1000
0000
0000
0000
0000
0000
0001
0000
0000
1000
0000
0000
0001
0000
0000
1000
0000
0000
0001
0000
0000
1000
0000
0000
0001
0000
0000
1000
0000
0000
0001
0000
0000
1000
0000
0000
0001
0000
1000
0000
0001
0000
1000
0000
0001
0000
2000
0000
,  // measure 91
3000
0000
0000
0000
;
