#TITLE:INSOMNIA;
#SUBTITLE:;
#ARTIST:ジャカルタファンクブラザーズ;
#TITLETRANSLIT:;
#SUBTITLETRANSLIT:;
#ARTISTTRANSLIT:JAKARTA FUNK BROTHERS;
#CREDIT:;
#BANNER:INSOMNIA.png;
#BACKGROUND:INSOMNIA-background.png;
#JACKET:INSOMNIA-jacket.png;
#LYRICSPATH:;
#CDTITLE:;
#MUSIC:33. INSOMNIA.mp3;
#OFFSET:3.101;
#SAMPLESTART:25.200;
#SAMPLELENGTH:12.000;
#SELECTABLE:YES;
#BPMS:0.000=195.001;
#STOPS:56.000=0.150
,56.500=0.150
,57.000=0.150
,57.500=0.150
,137.500=0.305
,183.000=0.310
,296.000=0.920
;
#BGCHANGES:0.000=INSOMNIA BGA.avi=1.000=0=0=1,
380.000=INSOMNIA-background.png=1.000=1=0=1,
99999=-nosongbg-=1.000=0=0=0 // don't automatically add -songbackground-
;

//---------------dance-single - ----------------
#NOTES:
     dance-single:
     :
     Hard:
     9:
     0.753,0.829,0.507,0.125,0.037:
0000
0000
0000
0000
,
0000
0000
0000
0000
,
0000
0000
0000
0000
,
0000
0000
0000
0000
,
0000
0000
0000
0000
,
0000
0000
0000
0000
,
0000
0000
0000
0000
,
0001
0000
0100
0000
0101
0000
0001
1000
,
0100
0000
1000
0000
1100
0000
1000
0001
,
0010
0000
0001
0000
0011
0000
0001
1000
,
0010
0000
1000
0000
1010
0000
1000
0001
,
1000
0100
0001
0000
0001
0100
0010
0000
,
0001
0010
1000
0000
1000
0010
0100
0000
,
0010
0001
0100
1000
0100
0010
1000
0001
,
1000
0100
0010
0001
1000
0001
0101
0000
,
0001
1000
1100
0000
0100
0100
0010
0100
,
1000
1000
0001
0100
0001
0000
0010
0200
,
0000
0310
0001
1000
0020
0000
1030
0020
,
0000
0130
0001
1000
0100
0010
0011
0000
,
0001
0100
1010
0000
1000
0001
0010
1000
,
0010
0100
0010
0001
1001
0000
0110
0000
,
1001
0110
0101
1010
,
1100
0000
0011
0000
0000
0010
0100
0100
,
0010
0001
1000
1000
0001
0100
1000
0100
,
0010
1000
0001
0010
0100
0100
0010
0001
,
1000
0010
0100
0001
0010
0010
0001
1000
,
0001
1000
0001
0100
0000
0100
0001
1000
,
0001
1000
0001
0010
0010
0001
0100
0010
,
1000
0001
0010
0100
0100
0010
0001
1000
,
0010
0100
1000
0100
0001
1000
1000
0001
,
0010
0100
0100
0010
0000
0100
1000
0010
,
0100
0001
0010
0100
0010
0001
0100
0010
,
1000
0001
0010
0100
0010
0001
1000
0001
,
1000
0100
0010
0100
1000
0010
0100
0001
,
0010
0100
0010
0001
0010
0100
0010
0001
,
0100
0010
1000
0100
0010
0100
1000
0001
,
1000
0001
0010
0100
0010
0001
1000
0010
,
0100
0001
0010
0100
0010
0001
0100
0010
,
1000
0100
1100
0000
0100
0010
0011
0000
,
0001
0100
1010
0000
0001
0100
0101
0000
,
0001
1000
1001
0000
0110
0000
1001
0000
,
0110
0000
0000
0000
0001
0000
0100
0000
0010
0000
1000
0000
0001
0100
0001
0100
,
0001
0000
1000
0001
1001
0000
0001
1000
,
1001
0000
1000
0001
1001
0000
0001
1000
,
1001
0000
1000
0001
1001
0000
0001
1000
,
1001
0000
1000
0001
1001
0000
0000
0000
,
0010
0100
0110
0000
0100
0010
0110
0000
,
0010
0100
0110
0000
0100
0010
0110
0000
,
0010
0100
0110
0000
0100
0010
0110
0000
,
0010
0100
1000
0100
0001
0010
0100
1000
,
0001
0100
0101
0000
1000
0100
1100
0000
,
0001
0100
0101
0000
1000
0100
1100
0000
,
0100
0001
0101
0000
1000
0100
1100
0000
,
0100
0001
0101
0000
0100
0010
1001
0000
,
0001
0100
1010
0000
1000
0100
0011
0000
,
0001
0100
1010
0000
1000
0100
0011
0000
,
0001
0100
1010
0000
1000
0100
0011
0000
,
0001
0010
0100
0010
0001
0100
1000
0100
,
0120
0000
0000
0000
,
2030
0000
0000
0000
,
3020
0000
0230
0000
,
0000
0000
0000
0000
0002
0003
0000
0000
,
0320
0000
0000
0000
,
2030
0000
0000
0000
,
3002
0000
0023
0000
,
0000
0000
0230
0000
,
0310
0000
0100
0000
1000
0000
1000
0100
,
1000
0000
0100
0000
0010
0001
0010
0001
,
0010
0000
0001
0000
0100
0000
0010
0100
,
0010
0000
0100
0000
0001
1000
0001
1000
,
0001
0100
0010
1000
0001
0100
0010
1000
,
0001
0010
0100
1000
0001
0010
0100
1000
,
0001
0001
0100
0100
0010
0010
1000
1000
,
0001
0000
1000
0000
0010
0000
0100
0000
0001
1000
0001
1000
0001
1000
0001
1000
,
0001
0000
0000
0000
1000
0000
0100
0010
0001
0000
0100
0000
2002
0000
0000
0000
,
3003
1000
0100
1000
0001
0100
0001
1000
,
0100
1000
0001
0100
0001
1000
0100
1000
,
0001
0010
0100
0000
0100
0010
0001
0000
,
0001
0010
0100
0000
0100
0010
0001
1000
,
0010
1000
0100
1000
0001
0010
0001
1000
,
0010
1000
0001
0010
0001
1000
0010
0100
,
0001
0010
0100
0000
0010
0100
1000
0010
,
0100
0001
1000
0100
0001
0100
1000
0100
,
0001
0100
1000
0001
1000
0001
0100
0001
,
1000
0001
0100
0001
1000
0100
1000
0010
,
0100
1000
0100
0000
0010
1000
0001
0000
,
0010
0100
1000
0000
0100
0010
0001
1000
,
0010
0100
0001
0010
0100
0010
0001
1000
,
0100
0010
0100
1000
0001
0010
0100
1000
,
0001
0100
0001
0000
1000
0100
0001
0100
,
0010
0001
1000
0010
0100
0001
0010
0100
,
0010
0001
1001
0000
0010
0100
1001
0000
,
0100
0010
1001
0000
0010
0100
1001
0000
,
0100
0010
0101
0000
1010
0000
1100
0000
,
0011
0000
0000
0000
0001
0000
0001
0000
1000
0000
1000
0000
0010
0100
0010
0100
,
0001
0000
0000
0000
;

//---------------dance-single - ----------------
#NOTES:
     dance-single:
     :
     Medium:
     8:
     0.580,0.713,0.449,0.091,0.000:
0000
0000
0000
0000
,
0000
0000
0000
0000
,
0000
0000
0000
0000
,
0000
0000
0000
0000
,
0000
0000
0000
0000
,
0000
0000
0000
0000
,
0000
0000
0000
0000
,
0001
0100
0101
0000
,
1000
0100
1100
0000
,
0100
0010
0110
0000
,
0100
1000
0001
0100
,
0010
0010
0100
0001
,
1000
1000
0100
1000
,
0010
0100
0001
1000
,
0001
0100
0010
1000
0010
0000
0110
0000
,
0100
0000
0110
0000
0001
0100
0010
0100
,
0010
1000
0100
0010
0001
0000
0000
0010
,
0000
0000
0100
0010
0100
0000
0000
1000
,
0000
0000
0100
0010
0001
0000
1001
0000
,
1000
0000
1001
0000
0001
0100
0001
0100
,
0001
1000
0001
1000
0001
0000
1001
0000
,
0001
0101
1100
1010
,
0011
1001
0000
0001
,
1000
0100
1000
0010
,
0100
0000
0001
0000
1000
0100
0010
0001
,
0010
0000
0100
0000
0010
0001
0010
0100
,
1000
0100
0010
0001
0000
0001
1000
0000
,
1000
0000
1000
0000
0001
0100
0001
0100
,
0001
0100
0110
0010
,
0110
0000
0100
0000
0100
1000
0100
0001
,
0010
0100
0010
0001
0000
0001
1000
0000
,
1000
0000
1000
0000
1000
0100
1000
0010
,
0100
0000
0010
0000
0100
0001
0100
0010
,
0100
0000
0010
0000
1000
0010
0100
0001
,
1000
0100
0010
0001
0010
0000
0010
0000
,
0010
0000
0010
0100
0010
0100
0010
0001
,
0010
0001
0011
0000
0100
0000
0110
0000
,
0100
1100
0101
1100
,
0001
0000
1001
0000
0001
1000
1001
0000
,
1000
0001
1001
0000
0001
1000
1001
0000
,
1000
0001
1001
0000
0110
0000
1001
0000
,
0110
0101
1010
0101
,
1010
0001
0101
0100
,
0110
0010
1010
1000
,
1100
0100
0110
0010
,
0011
0001
0011
0000
,
1000
1001
0001
1001
,
1000
1010
0010
1010
,
0010
0110
0100
0110
,
0100
0010
0100
0000
0010
0100
0010
0000
,
0100
0001
0100
0000
0100
0010
0100
0000
,
0010
1000
0010
0000
0010
0100
0010
0000
,
0100
0001
0100
0000
0100
0010
0100
0000
,
0010
1000
0010
0000
0010
1000
0100
0000
,
0100
0010
0100
0000
0100
1000
0100
0000
,
0100
0010
0100
0000
0100
1000
0100
0000
,
0010
0100
0010
0000
0010
0001
0010
0000
,
0001
0010
0100
1000
,
0002
0000
0000
0000
,
2003
0000
0000
0000
,
3020
0000
2030
0000
,
0000
0000
0100
0000
,
3020
0000
0000
0000
,
0230
0000
0000
0000
,
2300
0000
3200
0000
,
0000
0000
0310
0000
,
1001
0000
1000
0000
1000
0000
1000
0001
,
1000
0000
0001
0000
1000
0001
1000
0001
,
1000
0000
0001
0000
1000
0000
0001
1000
,
0001
0000
1000
0000
0001
1000
0001
1000
,
0001
0100
0010
1000
,
0001
0100
0010
1000
,
0001
0100
0010
1000
0001
0100
0010
1000
,
0001
0010
0100
1000
0100
0010
0001
0010
,
0100
0000
0020
0000
0031
0100
0020
0000
,
0030
0000
1000
0100
1000
0000
0100
0010
,
0100
0000
0010
0001
0010
0000
0001
0000
,
0100
0010
1000
0000
0010
1000
0010
0000
,
1000
0010
1000
0000
0010
1000
0010
0000
,
0100
0001
0100
0100
,
0001
0000
1000
0000
0100
0000
1000
0100
,
0010
0001
0010
0000
0100
0010
0001
0000
,
1000
0000
0001
0100
0001
1000
0001
0010
,
0001
0010
0100
0000
0100
0000
0010
0000
,
0010
0001
0001
1000
,
0001
0100
0001
0000
0100
0000
0010
0000
,
1000
0010
0100
0010
,
1000
0000
0001
1000
0001
1000
0001
1000
,
0001
1000
0010
1000
0010
1000
0010
0100
,
0010
0100
0010
0000
1000
0100
0010
0001
,
0010
0100
0010
0001
0010
0100
0010
0001
,
1000
0010
0110
0000
0000
0000
1001
0000
,
0000
0110
0000
1001
,
0000
0101
1010
1100
,
0011
0000
0001
0001
0010
0010
0100
1000
,
0020
0030
0000
0000
;

//---------------dance-single - ----------------
#NOTES:
     dance-single:
     :
     Easy:
     5:
     0.424,0.634,0.399,0.316,0.000:
0000
0000
0000
0000
,
0000
0000
0000
0000
,
0000
0000
0000
0000
,
0000
0000
0000
0000
,
0000
0000
0000
0000
,
0000
0000
0000
0000
,
0000
0000
0000
0000
,
0001
0000
0100
0000
,
0001
0000
1000
0000
,
0100
0000
1000
0000
,
0001
0000
0100
0000
,
0010
0100
0010
0100
,
0001
1000
0001
1000
,
0100
0010
0001
0010
,
0001
0100
0010
1000
0010
0000
0110
0000
,
0000
0110
0100
0100
,
0010
0000
0010
0000
1000
0000
0000
1000
,
0000
0000
0001
0000
0100
0000
0000
0001
,
0000
0100
0001
0101
,
0000
0101
0001
0100
,
0010
1000
0110
0010
,
0110
0100
0110
1001
,
0110
0000
0000
0100
,
0100
0100
0010
1000
,
0001
0010
0100
0100
,
0100
0100
1000
0100
,
0100
0100
0000
1000
,
1000
1000
1000
0001
,
0100
0001
1000
1000
,
0001
0001
1000
0100
,
0010
0001
0000
0010
,
0010
0010
0010
0100
,
0010
0001
1000
1000
,
1000
1000
0001
0001
,
0001
0100
0010
0010
,
0010
0010
0100
0010
,
1000
0001
0001
1000
,
1000
0010
0100
0001
,
1000
1001
0000
0110
,
0000
1001
0000
0110
,
0000
1001
1001
0110
,
0110
1001
0110
1001
,
0110
0002
0000
0000
,
0000
0203
0000
0000
,
0000
0320
0000
2000
,
0000
0000
0000
3030
,
0020
0000
0000
0000
,
0230
0000
0000
0000
,
0302
0000
0020
0000
,
0000
0000
0000
0033
,
0020
0100
0000
0100
,
0230
1000
0000
1000
,
2300
0001
3002
1000
,
2003
0001
3002
0103
,
0200
0010
0000
0010
,
0320
0100
0000
0100
,
0230
0000
0302
0000
,
0013
0100
1000
0001
,
2002
0000
0000
3003
,
0220
0000
0000
0330
,
2020
3030
0202
0000
,
0000
0000
0303
0000
,
2002
0000
0000
3003
,
2200
0000
0000
3300
,
2002
3003
0202
0000
,
0000
0000
0000
0303
2002
0000
0000
3003
,
1001
0001
1000
0001
,
1000
0001
1000
0001
,
0010
0100
0010
0100
,
0010
0100
0010
0010
,
0001
0010
0100
1000
,
0001
0010
0100
1000
,
0001
0001
1000
1000
,
0110
0110
0110
0110
,
1001
0000
0000
0000
,
0000
0001
0100
0001
,
1000
0100
1000
0010
,
0100
0010
0000
1000
,
0000
0010
0000
1000
,
0000
0001
0001
1000
,
1000
0001
0001
1000
,
0100
0010
0100
1000
,
0010
0001
0001
0010
,
0010
0100
0010
0100
,
0010
1000
0010
1000
,
0100
0010
0100
1000
,
0001
0100
0001
1000
,
0100
1000
1000
0001
,
0001
1000
1000
0001
,
1000
0010
1000
0001
,
0100
0001
0010
0100
,
1000
1001
0000
0110
,
0000
1001
0000
0110
,
0000
1001
1001
0110
,
0110
0101
1010
1100
,
0022
0033
0000
0000
;

//---------------dance-single - ----------------
#NOTES:
     dance-single:
     :
     Beginner:
     2:
     0.157,0.316,0.175,0.000,0.000: // measure 1
0000
0000
0000
0000
,  // measure 2
0000
0000
0000
0000
,  // measure 3
0000
0000
0000
0000
,  // measure 4
0000
0000
0000
0000
,  // measure 5
0000
0000
0000
0000
,  // measure 6
0000
0000
0000
0000
,  // measure 7
0000
0000
0000
0000
,  // measure 8
0001
0000
0000
0000
,  // measure 9
1000
0000
0000
0000
,  // measure 10
0100
0000
0000
0000
,  // measure 11
1000
0000
0000
0000
,  // measure 12
0010
0000
0100
0000
,  // measure 13
0010
0000
1000
0000
,  // measure 14
0001
0000
0010
0000
,  // measure 15
0100
0000
0000
0010
,  // measure 16
0000
0010
0001
0000
,  // measure 17
0000
0000
1000
0000
,  // measure 18
0000
0000
0001
0000
,  // measure 19
0000
0000
0100
0010
,  // measure 20
0000
0010
0100
0000
,  // measure 21
0100
0000
0010
0000
,  // measure 22
0000
0000
0000
0000
,  // measure 23
0000
0000
1000
0000
,  // measure 24
0000
0000
0001
0000
,  // measure 25
0001
0000
0001
0000
,  // measure 26
0000
0000
0100
0000
,  // measure 27
0100
0000
0000
0010
,  // measure 28
0000
0000
1000
0000
,  // measure 29
1000
0000
0001
0000
,  // measure 30
0000
0000
0100
0000
,  // measure 31
0000
0000
0010
0000
,  // measure 32
0000
0000
1000
0000
,  // measure 33
0000
0000
0001
0000
,  // measure 34
0000
0000
0100
0000
,  // measure 35
0000
0000
0010
0000
,  // measure 36
0000
0100
0000
0000
,  // measure 37
0000
0001
0000
0000
,  // measure 38
0000
1000
0000
0000
,  // measure 39
0000
0010
0000
0010
,  // measure 40
0000
0010
0000
0010
,  // measure 41
0000
0100
0000
0100
,  // measure 42
0000
1001
0000
0110
,  // measure 43
0000
1001
0000
0000
,  // measure 44
0000
0010
0000
0000
,  // measure 45
0000
1000
0000
1000
,  // measure 46
0000
0000
0000
0000
,  // measure 47
0001
0000
0000
0000
,  // measure 48
0010
0000
0000
0000
,  // measure 49
0001
0000
0001
0000
,  // measure 50
0000
0000
0000
0000
,  // measure 51
0100
0000
0000
0000
,  // measure 52
0010
0000
0000
0000
,  // measure 53
1000
0000
1000
0000
,  // measure 54
0000
0000
0000
0000
,  // measure 55
0100
0000
0000
0000
,  // measure 56
1000
0000
0000
0000
,  // measure 57
0010
0000
0100
0000
,  // measure 58
0000
0000
0000
0000
,  // measure 59
1001
0000
0000
0000
,  // measure 60
0110
0000
0000
0000
,  // measure 61
0110
0000
1001
0000
,  // measure 62
0000
0000
0010
0000
,  // measure 63
1001
0000
0000
0000
,  // measure 64
0110
0000
0000
0000
,  // measure 65
1001
0000
1001
0000
,  // measure 66
0000
0000
0110
0000
,  // measure 67
1001
0000
0000
0000
,  // measure 68
0001
0000
0000
0000
,  // measure 69
1000
0000
0000
0000
,  // measure 70
0001
0000
0000
0000
,  // measure 71
1000
0000
0001
0000
,  // measure 72
1000
0000
0001
0000
,  // measure 73
0010
0000
0100
0000
,  // measure 74
0010
0000
0100
0000
,  // measure 75
0000
0001
0000
0000
,  // measure 76
0000
0100
0000
0000
,  // measure 77
0000
0001
0000
0000
,  // measure 78
0000
1000
0000
0000
,  // measure 79
0000
0000
0000
0000
,  // measure 80
0000
1000
0000
0000
,  // measure 81
0000
0010
0000
0000
,  // measure 82
0000
0100
0000
0000
,  // measure 83
0000
0000
0000
0000
,  // measure 84
0000
0001
0000
0000
,  // measure 85
0000
1000
0000
0000
,  // measure 86
0000
0100
0000
0000
,  // measure 87
0000
0000
0000
0000
,  // measure 88
0000
0010
0000
0000
,  // measure 89
0000
0100
0000
0000
,  // measure 90
0000
1000
0000
0000
,  // measure 91
0000
0001
0000
0100
,  // measure 92
0000
0110
0000
0110
,  // measure 93
0000
0110
0000
0110
,  // measure 94
0000
1001
0000
0110
,  // measure 95
0000
1001
0000
0010
,  // measure 96
1001
0000
0000
0000
;
