#TITLE:Howling;
#SUBTITLE:;
#ARTIST:PON;
#TITLETRANSLIT:;
#SUBTITLETRANSLIT:;
#ARTISTTRANSLIT:;
#CREDIT:;
#BANNER:Howling.png;
#BACKGROUND:Howling-background.png;
#JACKET:Howling-jacket.png;
#LYRICSPATH:;
#CDTITLE:cdtitle.png;
#MUSIC:Howling.mp3;
#OFFSET:-0.245;
#SAMPLESTART:17.240;
#SAMPLELENGTH:12.000;
#SELECTABLE:YES;
#BPMS:0.000=155.000;
#STOPS:;
#BGCHANGES:;

//---------------dance-single - ----------------
#NOTES:
     dance-single:
     :
     Hard:
     8:
     0.487,0.582,0.228,0.193,0.109:
0000
0000
0000
0000
,
0000
0000
0000
0000
,
0000
0000
0000
0000
,
0000
0000
0000
0000
,
0001
0000
1000
0010
1000
0000
0000
0010
,
0100
0000
0001
1000
0100
0000
0000
0010
,
0001
0000
0000
0001
0100
0000
0000
0100
,
0010
0000
0000
0010
0000
0000
0010
0000
1000
0000
0000
1000
0000
0000
1000
0000
,
0001
0000
0000
0001
0000
0000
0001
0000
0010
0000
0000
0010
0000
0000
0010
0000
,
0100
0000
0000
0010
0000
0000
0001
0000
0100
0000
0000
1000
0000
0000
0100
0000
,
0010
0000
0000
1000
0000
0000
0001
0000
0101
0000
0101
0000
1100
0000
1100
0000
,
1001
0000
0001
2000
0100
3000
0000
0100
,
0010
0000
0100
2000
0010
3000
0000
0010
,
0100
0010
1000
0001
,
1000
0100
0010
0001
0011
0000
0000
0000
,
1001
0000
0001
0200
0010
0300
0000
0010
,
0100
0000
0100
0002
1000
0003
0000
1000
,
0100
0000
0100
0010
0001
0000
0000
0000
,
0100
1000
0010
0100
0001
0010
1000
0010
,
0001
0000
0000
1000
0000
0000
0001
0000
0100
0000
0000
0001
0000
0000
1000
0000
,
0001
0000
0000
0100
0000
0000
0001
0000
0100
0000
0000
0001
0000
0000
1000
0000
,
0001
0000
0000
0100
0000
0000
0001
0000
1000
0000
0000
0001
0000
0000
0100
0000
,
0101
1010
1001
0000
,
0001
0000
0000
0010
0000
0000
0100
0000
0010
0000
0000
0001
0000
0000
1000
0000
,
0010
0000
0000
0100
0000
0000
0010
0000
0100
0000
0000
0001
0000
0000
1000
0000
,
0001
0000
0000
0010
0000
0000
0001
0000
0010
0000
0000
0100
0000
0000
1000
0000
,
0100
0000
0000
1000
0000
0000
0001
0000
0101
0000
0001
0000
1001
0000
0000
0000
,
1010
1000
0010
0010
,
0100
0001
1000
1000
,
0100
1000
0010
0010
,
0100
0001
0100
0100
,
0001
1000
0100
0100
,
1000
0001
0010
0010
,
0001
0100
0010
0010
,
0100
0000
0002
0000
2003
0000
3001
0010
,
0001
0001
0000
0010
0001
0001
0000
0010
,
0001
0001
0000
0100
0001
0001
0000
0010
,
0100
0100
0000
0010
0001
0001
0000
0100
,
0010
0010
0000
0100
1000
0100
0001
1000
,
0100
0100
0000
1000
0010
0010
0000
1000
,
0001
0001
0000
1000
0100
0100
0000
1000
,
0001
0100
0001
0000
0100
0010
0100
0000
,
0010
1000
0010
0000
1000
0100
1000
0000
,
1000
0100
0010
0001
0010
0100
1000
0100
,
0010
0001
0010
0001
0010
0001
0010
0000
,
1100
0000
0000
0000
0101
0000
0000
0001
,
1000
0000
0001
0000
0001
0000
0010
0000
0000
0100
0000
0000
1000
0000
0100
0000
1000
0000
0100
0000
0000
0010
0000
0000
,
0200
0300
0110
0000
,
1001
1001
1001
1001
1001
0000
0000
0000
,
0102
0000
0103
0010
1000
0000
0100
0010
,
0001
0000
0001
0010
1000
0000
1000
0010
,
0100
0000
0100
1000
0010
0000
0100
0001
,
2000
0000
0000
0000
0000
0000
0000
0000
3001
0000
0000
0001
0000
0000
0001
0000
,
0101
0000
0001
0200
0010
0300
0000
0010
,
0100
0000
0100
0002
0010
0003
0000
0010
,
0100
0000
0100
1000
0010
0000
0100
0001
,
0010
1000
0010
0001
1001
0000
0000
0000
,
1100
0000
0100
0020
0001
0030
0000
0001
,
0100
0000
0010
2000
0001
3000
0000
0001
,
1000
0000
1000
0001
0100
0000
0010
0100
,
0001
0100
0001
0000
,
1002
0000
0000
0103
0002
0000
0000
0103
,
0020
0000
0000
0130
0020
0000
0000
0030
,
0000
1000
0100
0010
0000
0010
0000
0100
,
0000
0010
0000
0001
0010
0000
0100
0000
,
2000
0000
3100
1000
0020
0000
0130
0001
,
2000
0000
3001
0010
0200
0000
0000
0000
,
0010
0000
0010
0000
,
0310
0001
1000
0010
0100
0001
0010
1000
,
0020
0000
0000
0000
,
0030
0000
0000
0000
;

//---------------dance-single - ----------------
#NOTES:
     dance-single:
     :
     Medium:
     5:
     0.349,0.398,0.324,0.105,0.004:
0000
0000
0000
0000
,
0000
0000
0000
0000
,
0000
0000
0000
0000
,
0000
0000
0000
0000
,
0001
0000
0000
0100
0010
0000
0000
1000
,
0010
0000
0000
0100
0010
0000
0000
0010
,
1000
0000
0000
1000
0100
0000
0000
0100
,
0020
0000
0000
0000
,
0000
0000
0000
0000
,
0000
0000
0000
0000
,
0000
0000
0030
0000
0001
0010
0100
1000
,
0001
0000
0000
1000
0100
0000
0000
1000
,
0010
0000
0000
1000
0001
0000
0000
0001
,
0100
0000
0010
0000
,
0100
0001
0100
0001
0100
0000
0000
0000
,
0110
0000
0000
0010
1000
0000
0000
0010
,
0100
0000
0000
0010
1000
0000
0000
0010
,
0100
0000
0001
0000
,
1000
0100
1000
0100
1000
0000
0000
0000
,
0100
0010
0100
1000
,
0001
0100
1000
0100
,
0010
1000
0001
0010
,
0100
0100
0010
0010
,
0001
0010
0001
0100
,
1000
0100
0010
0001
,
0010
1000
0100
0010
,
0001
1000
0010
0100
,
0001
0101
0100
0010
,
1000
1010
0010
0100
,
0001
1001
1000
0100
,
0010
0000
0110
0000
0100
0000
1000
0010
,
0100
0101
0001
0100
,
0010
0110
0100
0001
,
1000
1001
1000
0100
,
0010
0100
1000
0010
,
0101
0000
1100
0000
,
0011
0000
1010
0000
,
0101
0000
1001
0000
,
0110
0000
1002
1003
,
1001
0000
1100
0000
,
0110
0000
0011
0000
,
0020
0030
0200
0300
,
2000
3000
0002
0003
,
2000
3002
2003
3002
,
1003
0001
1000
0001
1000
0001
1000
0000
,
1001
0000
0101
0000
,
0101
1010
1001
0000
,
1100
0000
0011
0000
,
0001
0010
0100
1000
0100
0000
0000
0000
,
1100
0100
0010
0000
,
0010
0001
0010
0000
,
0001
0100
0010
1000
,
0001
0000
0000
0000
0000
0000
0000
0000
1000
0000
0000
0001
0000
0000
0100
0000
,
1001
0000
0000
0001
0100
0000
0000
0001
,
1000
0000
0000
0001
0010
0000
0000
0001
,
1000
0100
0010
0100
,
1000
0100
0010
0001
1000
0000
0000
0000
,
1001
0000
0000
1000
0010
0000
0000
1000
,
0001
0000
0000
1000
0100
0000
0000
1000
,
0001
0000
0000
1000
0010
0000
0000
0010
,
0100
0010
1000
0000
,
1001
0101
1001
0000
,
1001
1100
1001
0000
,
0000
0001
0100
0001
0000
0100
0000
0010
,
0000
1000
0000
1000
0100
0000
0001
0000
,
0100
0000
0000
0010
0001
0000
0000
0001
,
0010
0000
0000
0010
0100
0000
0000
0100
,
1000
0000
0000
1000
0010
0000
0000
0010
,
0100
0001
1000
0100
,
0220
0000
0000
0000
,
0330
0000
0000
0000
;

//---------------dance-single - ----------------
#NOTES:
     dance-single:
     :
     Easy:
     4:
     0.289,0.429,0.245,0.140,0.000:
0000
0000
0000
0000
,
0000
0000
0000
0000
,
0000
0000
0000
0000
,
0000
0000
0000
0000
,
0010
0000
0100
0000
,
0001
1000
0001
0000
,
0100
0000
0001
0000
,
2002
0000
0000
0000
,
0000
0000
0000
0000
,
0000
0000
0000
0000
,
3003
0000
0000
0000
0001
0100
0001
0100
,
0002
0000
0103
0000
,
0200
0000
0310
0000
,
0010
0000
1000
0000
,
1001
1001
1001
0000
,
2000
0000
3100
0000
,
2000
0000
3001
0000
,
0100
0000
0001
0000
,
1000
0100
0010
0010
,
0100
1000
0010
0100
,
0001
1000
0001
0100
,
0001
1000
0100
1000
,
1010
1010
2020
3030
,
0010
0010
1000
0001
,
0010
0010
0001
0100
,
1000
0100
0010
1000
,
0001
0010
0100
0100
,
0010
0000
0001
1000
,
0100
0100
1000
0000
,
0100
1000
0010
0010
,
0000
0100
0001
1000
,
0100
1000
0010
0010
,
0000
0100
0001
0001
,
0000
1000
0100
0100
,
0000
1000
0100
0010
,
0001
0000
0010
0000
,
1000
0000
0010
0000
,
0001
0000
0100
0000
,
1000
0000
0100
0001
,
1000
0000
0010
0000
,
0001
0000
0010
0000
,
0100
0100
0001
0001
,
1000
1000
0100
0100
,
0010
0010
0010
0010
,
0100
0100
0100
0100
,
1001
0000
0101
0000
,
1001
0101
1001
1100
,
1001
0000
0011
0000
,
1100
0011
1100
0000
,
1001
0000
0101
0000
,
1001
0000
1100
0000
,
1001
0000
0110
0000
,
0202
0000
0303
0000
,
0002
0000
1003
0000
,
2000
0000
3100
0000
,
0010
0000
0100
0000
,
1000
0010
0100
0000
,
0020
0000
0130
0000
,
0200
0000
0301
0000
,
1000
0000
0001
0000
,
0100
0001
0010
0100
,
1000
0100
0010
0100
,
1000
0010
0100
0001
,
1000
0100
1000
0001
,
0100
0001
1001
1001
,
0001
1000
0100
1000
,
0010
0100
0010
0100
,
0001
0010
0100
1000
,
0100
0010
0001
1000
,
2002
0000
0000
0000
,
3003
0000
0000
0000
;

//---------------dance-single - ----------------
#NOTES:
     dance-single:
     :
     Beginner:
     1:
     0.136,0.242,0.114,0.018,0.000: // measure 1
0000
0000
0000
0000
,  // measure 2
0000
0000
0000
0000
,  // measure 3
0000
0000
0000
0000
,  // measure 4
0000
0000
0000
0000
,  // measure 5
0010
0000
0000
0000
,  // measure 6
0100
0000
0100
0000
,  // measure 7
0001
0000
0001
0000
,  // measure 8
2000
0000
0000
0000
,  // measure 9
0000
0000
0000
0000
,  // measure 10
3000
0000
0000
0000
,  // measure 11
0000
0000
0010
0000
,  // measure 12
0110
0000
0000
0000
,  // measure 13
0100
0000
0000
0000
,  // measure 14
0001
0000
0001
0000
,  // measure 15
1000
1000
1000
0000
,  // measure 16
0010
0000
0000
0000
,  // measure 17
0100
0000
0000
0000
,  // measure 18
0010
0000
0010
0000
,  // measure 19
0010
0000
0000
0000
,  // measure 20
0100
0000
0000
0000
,  // measure 21
0001
0000
0000
0000
,  // measure 22
1000
0000
0000
0000
,  // measure 23
0100
0100
0100
0000
,  // measure 24
1000
0000
0000
0000
,  // measure 25
0001
0000
0000
0000
,  // measure 26
0100
0000
0000
0000
,  // measure 27
0001
0000
0000
0000
,  // measure 28
1000
0000
0000
0000
,  // measure 29
0001
0000
0000
0000
,  // measure 30
1000
0000
0000
0000
,  // measure 31
0001
0000
0000
0000
,  // measure 32
0100
0000
0000
0000
,  // measure 33
0010
0000
0000
0000
,  // measure 34
0100
0000
0000
0000
,  // measure 35
0010
0000
0000
0000
,  // measure 36
1000
0000
0000
0000
,  // measure 37
1000
0000
0000
0000
,  // measure 38
1000
0000
0000
0000
,  // measure 39
1000
0000
0001
0000
,  // measure 40
0100
0000
0000
0000
,  // measure 41
0100
0000
0000
0000
,  // measure 42
0010
0000
0010
0000
,  // measure 43
0010
0000
0010
0000
,  // measure 44
0100
0000
0100
0000
,  // measure 45
0100
0100
0100
0000
,  // measure 46
1001
0000
0010
0000
,  // measure 47
1001
0000
0100
0000
,  // measure 48
1001
0000
0010
0000
,  // measure 49
0200
0000
0300
0000
,  // measure 50
0001
0000
0000
0000
,  // measure 51
1000
0000
0000
0000
,  // measure 52
0100
0000
0100
0000
,  // measure 53
0010
0000
0000
0000
,  // measure 54
1001
0000
0000
0000
,  // measure 55
1001
0000
0000
0000
,  // measure 56
0001
0000
0001
0000
,  // measure 57
1000
1000
1000
0000
,  // measure 58
0110
0000
0000
0000
,  // measure 59
0110
0000
0000
0000
,  // measure 60
0100
0000
0010
0000
,  // measure 61
1000
1000
1000
0000
,  // measure 62
1001
0000
0000
0000
,  // measure 63
0110
0000
0000
0000
,  // measure 64
0100
0000
0100
0000
,  // measure 65
0010
0000
0100
0100
,  // measure 66
1001
0000
0000
0000
,  // measure 67
1001
0000
0000
0000
,  // measure 68
1000
0000
0001
0000
,  // measure 69
0100
0100
0100
0000
,  // measure 70
1001
0000
0000
0000
;
