#TITLE:Hitch Hiker;
#SUBTITLE:;
#ARTIST:good-cool;
#TITLETRANSLIT:;
#SUBTITLETRANSLIT:;
#ARTISTTRANSLIT:;
#CREDIT:;
#BANNER:Hitch Hiker.png;
#BACKGROUND:Hitch Hiker-background.png;
#LYRICSPATH:;
#CDTITLE:;
#MUSIC:hitchhiker.mp3;
#OFFSET:-2.180;
#SAMPLESTART:72.220;
#SAMPLELENGTH:12.000;
#SELECTABLE:YES;
#BPMS:0.000=137.020;
#STOPS:;
#BGCHANGES:;

//---------------dance-single - ----------------
#NOTES:
     dance-single:
     :
     Hard:
     7:
     0.371,0.372,0.214,0.143,0.133:
0000
0000
0000
0000
,
0000
0000
0000
0000
,
0000
0000
0000
0000
,
0000
0000
0000
0000
,
0100
0000
0010
0000
0000
0000
0010
0000
0000
0000
1000
0000
0000
1000
0000
0000
,
0010
0000
0100
0100
,
0010
0000
1000
0000
0000
0000
0001
0000
0000
0000
0100
0000
0000
0010
0000
0000
,
0001
0000
0000
0000
0000
0010
1000
0100
,
0110
0100
1000
0010
,
0110
0001
0010
1000
,
0101
1000
0100
1000
,
0011
0000
0010
0000
0100
0000
0100
0010
,
0021
0001
0001
0031
,
2100
0100
0100
3100
,
1001
0000
0011
0000
,
1001
0000
1010
0000
1000
0010
0100
0010
,
0200
0000
0000
0000
0000
0000
0000
0300
,
0000
0000
0100
0000
1000
0000
0100
0000
0000
0010
0000
0000
0100
0000
0001
0000
,
2002
0000
0000
3003
,
1000
0000
0001
0000
1000
0000
0100
0000
0010
0000
0000
0100
0000
0000
0010
0000
,
1100
0000
0000
0202
0000
0000
0000
0303
,
0000
0000
0001
0000
0010
0000
0001
0000
0000
0100
0000
0000
0001
0000
0100
0000
,
0010
1000
0000
0020
0000
0000
0000
0000
,
0130
0000
0000
0000
0010
0000
0000
0000
1000
0010
1000
0010
2000
0000
0000
0000
,
3001
0000
0000
0100
0000
0000
0001
0000
0000
0000
0001
0000
0000
0001
0000
0000
,
0100
0000
0000
0010
0000
0000
1000
0000
0000
0000
1000
0000
0001
0000
0100
0000
,
0010
0000
0000
0010
0000
0000
0100
0000
0000
0000
0100
0000
0000
0010
0000
0000
,
1000
0000
0000
1000
0000
0000
0100
0000
0000
0000
0000
0000
0000
0000
0000
0000
,
0010
0001
1000
0000
0100
0000
0001
0000
,
0100
1000
0001
0000
0100
0000
1000
0000
,
0010
0100
0001
0000
0010
0000
0100
0000
,
1000
0000
0000
0000
0010
0000
0000
0100
0001
0000
0000
0000
0001
0000
0000
0000
,
0000
0010
0100
1000
,
0020
0100
0100
0130
,
0100
0000
0011
0000
0000
0100
1001
0000
,
0000
0000
0110
0000
0000
0001
1001
0000
,
0100
0000
0000
0001
0000
0000
0100
0000
0000
0010
0000
0000
0100
0000
0001
0000
,
1000
0000
0000
0100
0000
0000
0010
0000
0000
0001
0000
0000
0001
0000
1000
0000
,
1001
0000
0000
0010
0110
0000
0000
0001
,
1000
0100
0100
1000
1000
0001
0001
0010
,
0000
0000
0100
0000
0000
0000
0010
0000
0100
0000
0000
0010
0000
0000
0001
0000
,
0000
0000
0010
0000
0000
0000
0100
0000
1000
0000
0000
0100
0000
0000
1000
0000
,
0000
0000
0100
0000
0000
0000
0010
0000
0100
0000
0000
0010
0000
0000
0001
0000
,
0100
0000
0000
0000
0101
0000
0000
0000
0001
0000
0000
1000
0000
0000
0010
0000
,
0000
0000
0100
0000
0000
0000
0010
0000
1000
0000
0000
0010
0000
0000
0100
0000
,
0000
0000
0001
0000
0000
0000
1000
0000
0010
0000
0000
1000
0000
0000
0010
0000
,
0000
0000
0100
0000
0000
0000
0010
0000
1000
0000
0000
0001
0000
0000
1000
0000
,
0100
0000
0000
0000
1001
0000
0000
0000
0001
0000
0000
0100
0000
0000
0010
0000
,
1000
0000
1000
0000
0100
0010
0100
0000
,
0010
0001
0001
0100
,
0010
0000
1000
0000
0100
1000
0001
1000
,
0002
0203
0320
2030
,
3000
0000
0000
0000
;

//---------------dance-single - ----------------
#NOTES:
     dance-single:
     :
     Medium:
     4:
     0.282,0.324,0.204,0.071,0.000:
0000
0000
0000
0000
,
0000
0000
0000
0000
,
0000
0000
0000
0000
,
0000
0000
0000
0000
,
0001
1000
0001
0100
,
0001
0100
0010
0010
,
0100
0001
1000
0100
,
0010
0100
0010
0001
,
1001
0000
0000
0001
0000
0100
0000
0000
,
1010
0000
0000
0010
0000
0100
0000
0000
,
1001
0000
0000
1000
0000
0100
0000
0000
,
1001
0000
0000
0001
0000
0100
0000
0001
,
0200
0000
0000
0300
,
0020
0000
0000
0030
,
1001
0000
1001
0000
,
0110
0000
0110
0000
0100
0010
0100
0010
,
2000
0000
0000
0000
0000
0000
0000
3000
,
0000
0001
1000
0100
,
0020
0000
0000
0000
,
0130
0010
0001
1000
0001
0000
0100
0000
,
0010
0000
0000
2002
0000
0000
0000
0000
,
3003
0001
0000
0100
,
0010
0010
0000
0200
0000
0000
0000
0000
,
0301
0000
1010
0000
1000
0100
0001
0000
,
0100
0010
0000
0010
,
0001
0000
1000
0000
0000
0000
0001
0100
,
0001
0000
0100
0000
0010
0000
1000
0010
,
0100
0010
1000
0001
,
0100
0001
0100
0000
0010
0000
1000
0000
,
0001
0100
0001
0000
1000
0000
0100
0000
,
1000
0010
1000
0000
0010
0000
0100
0000
,
1001
0010
1001
0010
,
0000
0001
0100
0010
,
1000
0100
0100
0100
,
1000
0000
1001
0000
0000
0001
0101
0000
,
0000
0000
1001
0000
0000
1000
1100
0000
,
1000
0000
0100
0000
0010
0000
0001
0010
,
0001
0000
0100
0000
0010
0000
1000
0010
,
0100
0000
0100
0000
,
0010
0100
0010
0100
0010
0100
0010
0100
,
0000
0001
0000
1000
0100
0000
1000
0000
,
0010
0000
0000
0100
0001
0000
1000
0000
,
0001
0000
0000
1000
0001
0000
0100
0000
,
0001
1100
0001
1010
,
0010
0000
0000
0100
0010
0000
1000
0000
,
0100
0000
0000
1000
0100
0000
1000
0000
,
0010
0000
0000
0100
0010
0000
0100
0000
,
0001
0101
0001
1001
,
0000
0000
0000
0000
0001
0100
0010
0000
;

//---------------dance-single - ----------------
#NOTES:
     dance-single:
     :
     Easy:
     2:
     0.177,0.317,0.123,0.082,0.000:
0000
0000
0000
0000
,
0000
0000
0000
0000
,
0000
0000
0000
0000
,
0000
0000
0000
0000
,
0001
0000
1000
0000
,
0010
0000
0100
0010
,
0100
0000
0001
0000
,
1000
0000
0000
0001
,
1001
0000
0000
0000
,
0110
0000
0000
0000
,
0110
0000
0000
0000
,
1001
0000
0000
0000
0000
0000
0000
1000
,
0002
0000
0000
0000
,
0203
0000
0000
0000
,
0302
0000
0000
0000
,
2000
0000
0000
3003
,
0020
0000
0000
0000
,
0030
0100
0000
0010
,
2000
0000
0000
0000
,
3001
0001
0001
0000
,
1000
0000
0000
0020
0000
0000
0000
0000
,
0030
0100
0000
0010
,
1000
0000
0000
0001
0000
0000
0000
0000
,
1000
0001
0200
0300
,
0001
0000
0000
0000
,
0100
0000
0000
0000
,
0001
1000
0000
0000
,
0001
1000
0000
0000
,
0100
1000
0010
0100
,
0010
0100
0001
1000
,
0100
1000
0010
0100
,
0001
0000
0001
0000
,
0000
1000
0100
0010
,
0001
0000
0000
0000
,
0000
1000
0100
0010
,
0001
0000
0000
0000
,
1001
0000
0000
0000
,
1001
0000
0000
0000
,
1001
0000
1001
0000
,
1001
0110
1001
0110
,
0000
0001
0000
0100
,
0000
0010
0000
1000
,
0000
0001
0000
1000
,
0100
1000
0001
0100
,
0001
0000
1000
0000
,
0100
0000
1000
0000
,
0010
0000
0100
0000
,
0010
0010
0100
0100
,
0001
0000
1000
1000
,
0000
0000
0001
0000
,
1000
0000
0010
0010
,
0100
0010
1000
0001
;

//---------------dance-single - ----------------
#NOTES:
     dance-single:
     :
     Beginner:
     1:
     0.115,0.263,0.092,0.000,0.000: // measure 1
0000
0000
0000
0000
,  // measure 2
0000
0000
0000
0000
,  // measure 3
0000
0000
0000
0000
,  // measure 4
0000
0000
0000
0000
,  // measure 5
0010
0000
0000
0000
,  // measure 6
0100
0000
0001
0001
,  // measure 7
1000
0000
0000
0000
,  // measure 8
1000
0000
0000
0001
,  // measure 9
1001
0000
0000
0000
,  // measure 10
0100
0000
0000
0000
,  // measure 11
1000
0000
0000
0000
,  // measure 12
0010
0000
0000
0000
,  // measure 13
0110
0000
0000
0000
,  // measure 14
0100
0000
0000
0000
,  // measure 15
0001
0000
1000
0000
,  // measure 16
0001
0001
1000
1000
,  // measure 17
0010
0000
0000
0000
,  // measure 18
0100
0000
0000
0000
,  // measure 19
0010
0000
0000
0000
,  // measure 20
1000
0000
0000
0000
,  // measure 21
0010
0000
0000
0000
,  // measure 22
0100
0000
0000
0000
,  // measure 23
0010
0000
0000
0000
,  // measure 24
0100
0000
0001
0000
,  // measure 25
1000
0000
0000
0000
,  // measure 26
1000
0000
0000
0000
,  // measure 27
1001
0000
0000
0000
,  // measure 28
1001
0000
0000
0000
,  // measure 29
0001
0000
0000
0000
,  // measure 30
0100
0000
0000
0000
,  // measure 31
0001
0000
0000
0000
,  // measure 32
1000
0000
0001
0000
,  // measure 33
0100
0000
0000
0000
,  // measure 34
0000
0001
0001
0001
,  // measure 35
0000
0000
0000
0000
,  // measure 36
0000
1000
1000
1000
,  // measure 37
0110
0000
0000
0000
,  // measure 38
0110
0000
0000
0000
,  // measure 39
1001
0000
1001
0000
,  // measure 40
1001
0001
0001
0001
,  // measure 41
1000
0000
0000
0000
,  // measure 42
0001
0000
0100
0000
,  // measure 43
0001
0000
0000
0000
,  // measure 44
1000
1000
1000
0000
,  // measure 45
0100
0000
0000
0000
,  // measure 46
0010
0000
0001
0000
,  // measure 47
0100
0000
0000
0000
,  // measure 48
0001
0000
1000
0000
,  // measure 49
0010
0000
0000
0000
,  // measure 50
0100
0000
0000
0000
,  // measure 51
0001
0000
0000
0000
,  // measure 52
1000
0000
0010
0000
;
