#TITLE:Hercule;
#SUBTITLE:;
#ARTIST:naotyu-;
#TITLETRANSLIT:;
#SUBTITLETRANSLIT:;
#ARTISTTRANSLIT:;
#GENRE:;
#CREDIT:;
#BANNER:hercule.png;
#BACKGROUND:Hercule-bg.png;
#LYRICSPATH:;
#CDTITLE:;
#MUSIC:Hercule.mp3;
#OFFSET:-2.888000;
#SAMPLESTART:80.101265;
#SAMPLELENGTH:12.000000;
#SELECTABLE:YES;
#BPMS:0.000000=87.000000
,52.000000=174.000000
,236.000000=87.000000
,252.000000=174.000000
;
#STOPS:
;
#BGCHANGES:;
#KEYSOUNDS:;
#ATTACKS:;

//---------------dance-single - ----------------
#NOTES:
     dance-single:
     :
     Hard:
     8:
     0.426617,0.397126,0.133951,0.260023,0.165469,329.000000,17.000000,33.000000,0.000000,0.000000,0.000000,0.426617,0.397126,0.133951,0.260023,0.165469,329.000000,17.000000,33.000000,0.000000,0.000000,0.000000:
0000
0000
0000
0000
,
0000
0000
0000
0000
,
0000
0000
0000
0000
,
0000
0000
0000
0000
0000
0000
0000
1000
,
0001
0100
0020
0000
2030
0000
3001
1000
,
0200
0000
1300
0001
2000
0000
0000
3100
,
1000
0001
0200
0000
0320
0000
0130
0001
,
2000
0000
3100
0010
0002
0000
0023
0000
,
0130
1000
0000
0100
0000
1000
0000
0010
,
0100
0001
0000
0100
0000
0001
0000
1000
,
0001
0010
0000
0100
0000
0010
0000
0100
,
1000
0010
0000
0100
0000
0010
0000
0100
,
0001
1000
0000
0001
0000
1000
0000
0001
,
0100
0100
0010
0010
,
1000
1000
0001
0001
,
1000
0100
1000
0010
,
0100
0001
0100
0010
,
1000
0001
0100
0001
,
1000
0000
1000
0000
1000
0100
1000
0010
,
1000
0000
0001
0100
0000
0010
0100
0001
,
0010
0000
0110
0000
0100
1000
0010
0000
,
0100
0000
0001
0010
0000
0001
1000
0100
,
0010
0000
0110
0000
0100
1000
0010
0000
,
0100
0000
0001
0100
0000
0010
1000
0001
,
0010
0000
0110
0000
0100
0010
0001
0000
,
1000
0000
0001
0010
0000
0100
0010
0001
,
1000
0000
1010
0000
0010
0100
0001
0000
,
2000
0100
3100
0020
,
0001
0001
0001
0031
,
0010
0000
0100
1000
0000
1000
0010
0100
,
0020
1030
2000
3001
,
0002
0000
0013
0200
0000
0310
0002
0000
,
1000
0000
1000
0000
0000
1003
0000
0000
,
0001
0000
1000
0100
0000
0100
0010
0001
,
0100
1000
0100
0001
0100
1000
0100
0010
,
1000
0000
0010
1010
0000
0101
0000
1010
,
0000
1000
0100
0010
0001
1000
0100
0010
,
0001
0000
1000
1001
0000
0101
0000
1001
,
0000
0001
0010
0100
1000
0001
0010
0100
,
1000
0000
1000
1010
0000
0011
0000
1100
,
0000
0011
0000
1100
0000
0001
0100
0000
,
0010
0000
0100
0001
0000
0100
0010
1000
,
0000
0000
0001
0000
1000
0000
0010
0000
0000
0000
0010
0000
0100
0000
0000
0010
,
1000
0000
0000
1000
0001
0000
0000
0001
0020
0000
0000
0000
0130
0000
0000
1000
,
0002
0000
0000
0000
1003
0000
0000
0001
0100
0000
0000
0100
0010
0000
0000
0010
,
2000
0000
0000
0000
3001
0000
0000
1000
0100
0000
0000
0100
0010
0000
0000
0010
,
0002
0000
0000
0000
0103
0000
0000
0000
0010
0000
0000
1000
0010
0000
0000
0010
,
0100
0000
0000
0100
0001
0000
0000
0001
2000
0000
0000
0000
3100
0000
0000
0010
,
0002
0000
0000
0000
0013
0000
0000
0010
0100
0000
0000
0100
1000
0000
0000
1000
,
0002
0000
0000
0000
1003
0000
0000
0001
0100
0000
0000
0100
0010
0000
0000
0010
,
2000
0000
0000
0000
0010
0000
0000
0000
0000
0000
0000
0000
3010
0000
0000
0100
,
0010
0000
0000
0010
1000
0000
0000
1000
0020
0000
0000
0000
0130
0000
0000
0100
,
0002
0000
0000
0000
0103
0000
0000
0010
1000
0000
0000
1000
0100
0000
0000
0100
,
0020
0000
0000
0000
0130
0000
0000
0010
0001
0000
0000
0001
1000
0000
0000
1000
,
0020
0000
0000
0000
0100
0000
0000
0000
0130
0000
0000
0010
1000
0000
0000
1000
,
0001
0000
0000
0001
0010
0000
0000
0010
0200
0000
0000
0000
0310
0000
0000
0100
,
2000
0000
0000
0000
3001
0000
0000
1000
0001
0000
0000
0001
0100
0000
0000
0100
,
0020
0000
0000
0000
1030
0000
0000
0010
0100
0000
0000
0100
0001
0000
0000
0001
,
0020
0000
0130
0000
0200
0000
1300
0001
,
1001
0001
0000
0100
0000
0001
0000
1000
,
0100
0010
0000
0100
0000
1000
0000
0010
,
0001
0100
0000
1000
0000
0100
0000
0001
,
0100
0010
0000
1000
0000
0001
0000
0100
,
1001
0000
0000
0000
;

//---------------dance-single - ----------------
#NOTES:
     dance-single:
     :
     Medium:
     5:
     0.321933,0.372305,0.118192,0.425492,0.011819,217.000000,15.000000,54.000000,0.000000,0.000000,0.000000,0.321933,0.372305,0.118192,0.425492,0.011819,217.000000,15.000000,54.000000,0.000000,0.000000,0.000000:
0000
0000
0000
0000
,
0000
0000
0000
0000
,
0000
0000
0000
0000
,
0000
0000
0000
0000
0000
0000
0000
0001
,
1000
0100
0010
0000
0100
0000
1000
0010
,
0200
0000
0301
1000
0020
0000
0030
0100
,
0001
1000
0100
0000
0100
0000
1000
0100
,
0010
0000
0100
0010
0001
0000
1000
0000
,
0101
0000
0000
0100
0000
0000
0010
0000
0000
0000
0000
0000
0000
0000
0000
0000
,
0000
0000
0000
0000
,
1100
0000
0000
0100
0000
0000
0010
0000
0000
0000
0000
0000
0000
0000
0000
0000
,
0000
0000
0000
0000
,
1001
0000
0000
0001
0000
0000
1000
0000
0000
0000
0000
0000
0000
0000
0000
0000
,
0100
1000
0010
0100
,
0001
1000
0010
0100
,
0001
0001
1000
1000
,
0010
0010
0100
0100
,
0001
0100
0010
1000
,
0001
0000
0001
0000
0001
1000
0001
1000
,
0001
0100
0010
1000
,
0010
0000
0100
0000
0001
1000
0100
0000
,
0001
0100
1000
0100
,
0010
0000
1000
0000
0010
1000
0010
0000
,
0100
0001
1000
0100
,
0001
0000
0100
0000
0010
0001
0100
0000
,
0010
0000
1000
0000
0010
0000
0100
0010
,
1000
0000
0001
0000
1000
0001
0100
0000
,
0002
0000
0000
0203
,
0000
0000
0000
0300
,
0010
0000
0100
0000
0001
0000
1000
0001
,
0200
0000
0320
0000
,
2030
0000
0000
3002
0000
0000
0023
0000
,
0000
0000
0000
0030
,
0100
0000
0000
0010
0000
0001
0000
1000
,
0001
1000
0001
0010
0100
1000
0001
0010
,
0100
0000
0000
1001
0000
1001
0000
1001
,
0000
0001
0100
0000
0000
0100
0001
0100
,
0101
0000
0001
0101
0000
0101
0000
0101
,
0000
0000
0001
1000
0000
1000
0001
1000
,
1001
0000
0000
1010
0000
1010
0000
1010
,
0000
0010
0000
0100
0000
0001
1000
0000
,
0002
0000
0000
0103
0000
0000
0000
2000
,
0000
0000
0000
3100
0000
0000
1000
0000
,
0020
0230
0302
0000
,
2003
0000
3200
2300
,
3020
0000
0230
0302
,
2003
0000
0000
3200
,
2300
3020
0230
0000
,
0302
0000
2003
3200
,
0320
0000
0032
0023
,
0230
0000
0000
0320
,
0031
1000
0020
0000
0230
0000
0000
0000
,
0302
0000
2003
3200
,
0320
0000
0230
2300
,
3020
0000
0000
0230
,
0302
2003
3002
0000
,
0203
0000
0302
0023
,
0230
0000
0320
0032
,
2003
0000
3020
0000
,
0130
0001
0000
1000
0000
0100
0000
1000
,
0001
0010
0000
0100
0000
1000
0000
0100
,
1000
0010
0000
0100
0000
0001
0000
1000
,
0001
0100
0000
0010
0000
1000
0000
0001
,
1001
0000
0000
0000
;

//---------------dance-single - ----------------
#NOTES:
     dance-single:
     :
     Easy:
     4:
     0.205992,0.273024,0.039397,0.094554,0.000000,166.000000,5.000000,12.000000,0.000000,0.000000,0.000000,0.205992,0.273024,0.039397,0.094554,0.000000,166.000000,5.000000,12.000000,0.000000,0.000000,0.000000:
0000
0000
0000
0000
,
0000
0000
0000
0000
,
0000
0000
0000
0000
,
0000
0000
0000
0000
,
1000
0000
0010
0000
0100
0000
0001
0100
,
0001
0000
0100
0010
0100
0000
0000
0000
,
0010
0000
1000
0000
0001
0000
0010
0100
,
1000
0000
1000
0100
0010
0000
0001
0000
,
2002
0000
0000
0000
,
3003
0000
0000
0000
0000
0000
0000
0001
,
2002
0000
0000
3003
0000
0000
0000
0000
,
0000
0000
1000
0010
,
0100
0001
0010
0100
,
2000
0000
0000
0000
,
0000
0000
0000
0000
,
3010
0010
0100
0100
,
0001
0001
1000
1000
,
0001
0100
0010
1000
,
2002
0000
0000
3003
,
0001
0000
0000
1000
0000
0000
0001
0000
,
0001
0000
0100
0000
0000
0010
0000
0000
,
0100
0000
0000
0001
0000
0000
1000
0000
,
1000
0000
0100
0000
0000
0010
0000
0000
,
0100
0000
0000
0010
0000
0000
0001
0000
,
0001
0000
1000
0000
0000
0001
0000
0000
,
0100
0000
0000
0001
0000
0000
1000
0000
,
1000
0000
0100
0000
0000
1000
0000
0000
,
0020
0000
0000
2030
,
0000
0000
0000
3000
,
0001
0000
0000
0100
0000
0000
0010
0000
,
2000
0000
3020
0000
,
0130
0000
0000
0001
0000
0000
0020
0000
,
0000
0000
0000
0030
,
0100
0000
0000
0010
0000
0000
0010
0000
,
0000
0100
0010
0001
,
1000
0000
0000
0001
0000
0001
0000
0001
,
0000
0000
0000
0000
,
1000
0000
0000
0010
0000
0010
0000
0010
,
0000
0000
0000
0000
,
0100
0000
0000
0010
0000
0010
0000
0010
,
0000
0000
0000
0100
0000
0000
0001
0000
,
1000
0000
0000
0001
0000
0000
0000
0010
,
0000
0000
0000
0001
0000
0000
1000
0000
,
0100
1000
0010
0000
,
0100
0000
0001
1000
,
0100
0000
1000
0001
,
1000
0000
0000
1000
,
0010
0100
0001
0000
,
0100
0000
0100
0010
,
1000
0000
1000
0001
,
0010
0000
0000
0010
,
0001
1000
0100
0000
,
1000
0000
0010
0100
,
0001
0000
0100
0010
,
1000
0000
0000
0010
,
0100
0001
1000
0000
,
0100
0000
1000
0010
,
0100
0000
0100
0010
,
1000
0000
0001
0000
,
1000
0001
0000
0001
0000
0100
0000
0010
,
1000
0001
0000
0001
0000
0001
0000
1000
,
1001
0001
0000
1000
0000
0100
0000
1000
,
0010
0100
0000
0010
0000
1000
0000
0001
,
1001
0000
0000
0000
;

//---------------dance-single - ----------------
#NOTES:
     dance-single:
     :
     Beginner:
     2:
     0.112564,0.173742,0.086674,0.031518,0.000000,85.000000,11.000000,4.000000,0.000000,0.000000,0.000000,0.112564,0.173742,0.086674,0.031518,0.000000,85.000000,11.000000,4.000000,0.000000,0.000000,0.000000:
0000
0000
0000
0000
,
0000
0000
0000
0000
,
0000
0000
0000
0000
,
0000
0000
0000
0000
,
0001
0000
0000
0000
,
0100
0000
0000
0000
,
0010
0000
0000
0000
,
1000
0000
0000
0000
,
1001
0000
0000
0000
,
0000
0000
0000
0000
,
0110
0000
0000
0000
,
0000
0000
0000
0000
,
1001
0000
0000
0000
,
0010
0000
0000
0000
,
0100
0000
0000
0000
,
0001
0000
0000
0000
,
1000
0000
0001
0000
,
0100
0000
0000
0000
,
0000
0000
0000
0000
,
1001
0000
0000
0001
,
0001
0000
1000
0000
,
0010
0000
0000
0100
,
0100
0000
0010
0000
,
0100
0000
0000
0010
,
0010
0000
1000
0000
,
0001
0000
0000
1000
,
1000
0000
0010
0000
,
0200
0000
0000
0000
,
0000
0000
0000
0300
,
0010
0000
0000
1000
,
0002
0000
1003
0000
,
2000
0000
0000
0002
,
0000
0000
0000
3003
,
0001
0000
0000
0000
,
0100
0000
0010
0000
,
1001
0000
0000
0000
,
0000
0000
0000
0000
,
0110
0000
0000
0000
,
0000
0000
0000
0000
,
1001
0000
0000
0000
,
0001
0000
0000
0000
,
1000
0000
0000
0000
,
0010
0000
0000
0100
,
0100
0000
0010
0000
,
1000
0000
0001
0001
,
0001
0000
1000
1000
,
1000
0000
0000
0000
,
0010
0000
0010
0000
,
0010
0000
0100
0100
,
0100
0000
0010
0010
,
0010
0000
0000
0000
,
1001
0000
0000
0000
,
1000
0000
0010
0010
,
0010
0000
0100
0100
,
0100
0000
0000
0000
,
0010
0000
1000
0000
,
0001
0000
1000
1000
,
1000
0000
0001
0001
,
0001
0000
1000
0000
,
1001
0000
0000
0000
,
0000
0000
0000
0000
,
0110
0000
0000
0000
,
0000
0000
0000
0000
,
1001
0000
0000
0000
;

//---------------dance-single - ----------------
#NOTES:
     dance-single:
     :
     Challenge:
     9:
     0.496407,0.595688,0.181228,0.598840,0.189107,342.000000,23.000000,76.000000,0.000000,0.000000,0.000000,0.496407,0.595688,0.181228,0.598840,0.189107,342.000000,23.000000,76.000000,0.000000,0.000000,0.000000:
// measure 0
0000
0000
0000
0000
,  // measure 1
0000
0000
0000
0000
,  // measure 2
0000
0000
0000
0000
,  // measure 3
0000
0000
0000
0000
0000
0000
0000
2000
,  // measure 4
0002
3000
0203
0000
0020
0000
0000
0300
0200
0000
0000
0030
0302
0000
2000
0003
,  // measure 5
3002
2000
0000
0000
0000
0000
0003
0000
3200
0000
0000
0000
0020
0000
0300
0000
0032
0000
0000
0000
0000
0000
0000
0000
0000
0000
0000
0000
0020
0000
0003
0000
,  // measure 6
0230
0000
2000
0300
3020
0000
0000
0000
0200
0000
0030
0000
0020
0300
2030
0000
,  // measure 7
0002
0000
0000
3000
0023
0000
0002
0030
2003
0000
0000
0000
3020
0000
0000
0000
,  // measure 8
1030
0000
1000
1001
0000
0001
1001
0000
0000
0000
1000
0000
0000
0000
0010
0000
,  // measure 9
0100
0001
0000
0010
0000
0100
0000
0010
,  // measure 10
0011
0000
0010
0110
0000
0100
1100
0000
0000
0000
0100
0000
0000
0000
1000
0000
,  // measure 11
0010
0100
0000
0001
1000
0000
0010
0100
,  // measure 12
0101
0000
0000
0000
0000
0000
0000
0000
0010
0000
0000
0000
0000
0000
0000
0000
0100
0000
0000
0000
0000
0000
0000
0000
0000
0000
0000
0000
0000
0000
1000
0001
,  // measure 13
0010
0000
0100
0010
0100
0000
0010
0001
0010
0000
0001
0100
0001
0000
0100
0010
,  // measure 14
0100
0000
0010
1000
0010
0000
1000
0001
1000
0000
0001
0100
0001
0000
0100
0010
,  // measure 15
0100
0000
0010
1000
0010
0000
1000
0100
1000
0000
0100
0010
0100
0000
0010
0001
,  // measure 16
0010
0000
0001
0100
0001
0000
0100
0010
0100
0000
0010
1000
0010
0000
1000
0001
,  // measure 17
1000
0010
0100
0001
0010
1000
0010
0001
,  // measure 18
1000
0000
1000
0000
1000
0010
1000
0001
,  // measure 19
1000
0000
0100
1000
0000
1000
0010
0100
,  // measure 20
0001
0000
0011
0000
0010
0100
1001
0000
,  // measure 21
1000
0000
0010
1000
0000
0010
0100
0001
,  // measure 22
0010
0000
0110
0000
0100
1000
1001
0000
,  // measure 23
0001
0010
0100
0010
0001
0100
0010
1000
,  // measure 24
0001
0010
0100
0010
0001
0100
0010
1000
,  // measure 25
0001
0010
0100
0010
0001
0100
0010
1000
,  // measure 26
0010
0100
0010
1000
0001
0010
0100
1000
,  // measure 27
0002
0100
0100
0023
,  // measure 28
0100
0001
0100
0001
,  // measure 29
0100
0000
0000
0000
0100
0000
0000
0000
0001
0000
0000
0000
0031
0000
0010
0100
,  // measure 30
2000
0100
3020
0100
,  // measure 31
2030
0000
3010
0200
0000
0310
2000
0000
,  // measure 32
0001
0000
0001
0000
0000
0001
0000
0000
,  // measure 33
3001
0000
0100
0010
0000
0010
1000
0001
,  // measure 34
0000
0000
1000
0000
0001
0010
0100
1000
0010
0100
0001
0010
0001
0100
0010
1000
,  // measure 35
0001
0000
1000
1001
0000
1001
0000
1001
,  // measure 36
0000
0000
0001
0100
0010
1000
0001
0010
0100
0010
0001
0100
0010
1000
0001
0000
,  // measure 37
0101
0000
1000
1001
0000
1001
0000
1001
,  // measure 38
0000
0000
1000
0100
0010
0100
1000
0010
0100
0001
0010
0100
1000
0001
1000
0000
,  // measure 39
1010
0000
0010
0110
0000
0100
0000
0110
,  // measure 40
0000
0010
0000
1001
0000
0010
0100
0000
,  // measure 41
0001
0000
0100
0010
0000
1000
0100
0001
,  // measure 42
0000
0001
0100
1000
0000
0010
0200
0000
,  // measure 43
0302
0203
2300
0000
,  // measure 44
3020
0000
0032
0203
,  // measure 45
2300
0000
3020
0032
,  // measure 46
0203
0000
0000
2300
,  // measure 47
3020
0032
0203
0000
,  // measure 48
2300
0000
3020
0032
,  // measure 49
0203
0000
2300
3020
,  // measure 50
0032
0000
0000
0023
,  // measure 51
2030
3020
0032
0000
,  // measure 52
0203
0000
2300
3020
,  // measure 53
0032
0000
0203
2300
,  // measure 54
3020
0000
0000
0032
,  // measure 55
0203
2300
3020
0000
,  // measure 56
0032
0000
0203
2300
,  // measure 57
3020
0000
0032
0203
,  // measure 58
2300
0000
3002
0000
,  // measure 59
1003
0000
0001
0100
0000
0010
1000
0000
0000
0000
0010
0000
0000
0000
0100
0000
,  // measure 60
0010
0000
1000
0010
0000
0100
0001
0000
0000
0000
0010
0000
0000
0000
0100
0000
,  // measure 61
1100
0000
0100
0010
0000
0010
0001
0000
0000
0000
1000
0000
0000
0000
0001
0000
,  // measure 62
0100
0010
0000
0100
0000
0010
0000
1000
,  // measure 63
1001
0000
0000
0000
;
