#TITLE:Heart of Asia;
#SUBTITLE:(Astro Heavenly Remix);
#ARTIST:Watergate;
#TITLETRANSLIT:;
#SUBTITLETRANSLIT:;
#ARTISTTRANSLIT:;
#CREDIT:;
#BANNER:Heart of Asia (Astro Heavenly Remix).png;
#BACKGROUND:Heart of Asia (Astro Heavenly Remix)-background.png;
#JACKET:Heart of Asia (Astro Heavenly Remix)-jacket.png;
#LYRICSPATH:;
#CDTITLE:cdtitle.png;
#MUSIC:Heart of Asia (Astro Heavenly Remix).mp3;
#OFFSET:-9.031;
#SAMPLESTART:17.980;
#SAMPLELENGTH:12.000;
#SELECTABLE:YES;
#BPMS:0.000=106.660;
#STOPS:;
#BGCHANGES:;

//---------------dance-single - ----------------
#NOTES:
     dance-single:
     :
     Hard:
     5:
     0.255,0.304,0.016,0.096,0.000:
0000
0000
0000
0000
,
0000
0000
0000
0000
,
0000
0000
0000
0000
,
0000
0000
0000
0000
,
0001
1000
0010
0100
0001
0000
0000
0000
,
0000
0000
0001
0010
0100
0010
0001
0000
,
0001
1000
0100
1000
0001
0000
0000
0000
,
0000
0000
0010
0000
0100
1000
0100
0000
,
1000
0010
0100
0010
1000
0000
0000
0000
,
0000
0000
1000
0100
0010
0100
1000
0000
,
1000
0001
0100
0001
0010
0000
0000
0000
,
0000
0000
0010
0000
0001
0001
0010
0000
,
0100
1000
0010
0100
0001
0000
0000
0000
,
0000
0000
0100
1000
0100
0001
0100
0000
,
0010
1000
0010
0100
0010
0000
0000
0000
,
0000
0000
0100
0000
0001
1000
0100
0000
,
0010
0001
0010
1000
0010
0000
0000
0000
,
0000
0000
0100
1000
0010
1000
0010
0000
,
1000
0100
0010
0001
0100
0000
0000
0000
,
0000
0000
0010
0000
0100
0001
1000
0000
,
0100
0000
0110
0000
1000
1000
0001
0000
,
0100
0001
0001
0100
0020
0000
0000
0000
,
0130
0001
1000
0000
0001
1000
0010
0000
,
0100
0001
0010
0001
1000
0010
1000
0001
,
0100
0001
2000
0000
0000
0000
0000
0000
,
3000
0100
0100
0010
0001
1000
0001
0100
,
1000
0100
0020
0000
0000
0000
0000
0130
,
0001
0100
0001
0000
0000
0001
0200
0000
,
0000
0310
2000
0000
0000
0100
0000
3100
,
0010
0010
0002
0000
0000
0000
1000
0000
,
0103
0001
0100
0000
0000
0000
0010
0100
,
0001
0010
1000
0010
,
0100
0010
0020
0000
0000
0000
0000
0000
,
0030
0100
0001
0001
1000
0100
0010
0100
,
1000
0001
0200
0000
0000
0000
0000
0000
,
0301
0000
1000
0000
0202
0000
0000
0303
,
0001
0010
0100
1000
0001
0010
0100
1000
,
0200
0000
0000
0000
,
0000
0300
0000
0000
,
0000
0000
0000
0000
,
0100
1000
0010
0100
0001
0100
0010
1000
,
0001
0100
0010
1000
0200
0000
0000
0000
,
0000
0300
0000
0000
,
0000
0000
0000
0000
,
0001
0100
0001
0100
0100
0000
0000
0000
,
0000
0000
0100
0001
0010
0100
0100
0000
,
0100
1000
0100
1000
0001
0000
0000
0000
,
0000
0000
0010
0000
0100
0010
0001
0000
,
0001
0100
0001
1000
0100
0000
0000
0000
,
0000
0000
0100
0001
0100
1000
0010
0000
,
0100
0001
1000
0100
1000
0000
0000
0000
;

//---------------dance-single - ----------------
#NOTES:
     dance-single:
     :
     Medium:
     4:
     0.200,0.243,0.008,0.040,0.000:
0000
0000
0000
0000
,
0000
0000
0000
0000
,
0000
0000
0000
0000
,
0000
0000
0000
0000
,
1000
0001
0100
0000
,
0000
0000
0001
0010
0001
0000
0100
0000
,
0010
1000
0100
0000
,
0000
0000
0010
0000
0010
0100
1000
0000
,
0001
1000
0010
0000
,
0000
0000
0100
0001
0100
0000
0010
0000
,
0100
0001
1000
0000
,
0000
0000
0100
0000
0010
0001
0010
0000
,
0100
1000
0010
0000
,
0000
0000
0100
0001
1000
0000
0100
0000
,
1000
0000
0010
0100
0001
0000
0000
0000
,
0000
0000
0010
0000
0010
0100
1000
0000
,
0100
1000
0001
0000
,
0000
0000
1000
0010
0100
0000
0001
0000
,
1000
0100
0010
0000
,
0000
0000
0010
0000
0010
0100
1000
0000
,
1001
0000
0000
0000
0001
0100
0001
0000
,
0100
0001
0100
0000
0010
0000
0010
0000
,
0100
0001
1000
0000
1000
0000
0001
0000
,
0100
0001
0100
0000
0010
0000
1000
0100
,
0010
0001
0020
0000
0000
0000
0000
0000
,
0130
1000
0001
0100
,
0001
1000
0020
0000
0000
0000
0000
0000
,
0030
0000
0000
0000
0000
0100
0001
0000
,
0000
1000
0001
0000
0000
1000
0000
0000
,
0100
1000
0100
0000
1000
0000
1000
0000
,
0100
0010
0001
0000
0010
0000
0100
0000
,
1000
0001
0100
0000
0001
0000
1000
0000
,
0010
0100
0100
0000
0010
0000
1000
0000
,
0001
0001
0010
0000
0010
0000
0100
0000
,
1000
0100
0100
0000
1000
0000
0010
0000
,
0100
0001
0001
0000
2000
0000
0000
0000
,
3100
0010
0001
0010
,
0100
1000
0100
0010
,
0002
0000
0003
0000
,
0000
0000
0000
0000
,
0001
0100
0010
1000
,
0001
0100
0010
1000
,
0002
0000
0003
0000
,
0000
0000
0000
0000
,
1000
0100
0010
0000
,
0000
0010
0100
1000
,
0001
0100
0001
0000
,
0000
0000
0010
0000
0010
0100
1000
0000
,
0100
1000
0010
0000
,
0000
0100
0001
1000
,
1000
0100
0010
0001
0010
0000
0000
0000
;

//---------------dance-single - ----------------
#NOTES:
     dance-single:
     :
     Easy:
     1:
     0.141,0.182,0.000,0.016,0.000: // measure 1
1000
0000
0000
0000
,  // measure 2
0000
0000
0001
0000
,  // measure 3
0100
0000
0000
0000
,  // measure 4
0000
0000
0000
0000
,  // measure 5
0001
0010
0100
0000
,  // measure 6
0000
0100
1000
0010
,  // measure 7
0100
0001
0100
0000
,  // measure 8
0000
0010
0010
0010
,  // measure 9
0100
0001
1000
0000
,  // measure 10
0000
0100
1000
0100
,  // measure 11
1000
0010
0100
0000
,  // measure 12
0000
0001
0010
0100
,  // measure 13
0010
0001
1000
0000
,  // measure 14
0000
1000
0010
1000
,  // measure 15
0010
0100
0100
0000
,  // measure 16
0000
0010
1000
0001
,  // measure 17
0010
0100
1000
0000
,  // measure 18
0000
0100
0010
0001
,  // measure 19
0010
0001
0100
0000
,  // measure 20
0000
0001
1000
0010
,  // measure 21
0100
0000
0010
1000
,  // measure 22
1000
0001
1000
0000
,  // measure 23
0100
0010
0100
0010
,  // measure 24
0100
0010
0100
1000
,  // measure 25
0001
0001
0000
0000
,  // measure 26
1000
0001
0100
0000
,  // measure 27
0001
1000
0010
0000
,  // measure 28
0010
0100
0001
0000
,  // measure 29
1000
0001
0100
0000
,  // measure 30
0001
0010
0100
0000
,  // measure 31
0100
0010
0100
1000
,  // measure 32
1000
1000
1000
1000
,  // measure 33
0001
0100
0000
0000
,  // measure 34
0001
1000
0100
1000
,  // measure 35
0010
0100
0000
0000
,  // measure 36
0000
0000
0000
0000
,  // measure 37
0020
0000
0000
0000
,  // measure 38
0000
0000
0000
0000
,  // measure 39
0000
0030
0000
0000
,  // measure 40
0000
0000
0000
0000
,  // measure 41
0200
0000
0000
0000
,  // measure 42
0000
0000
0000
0000
,  // measure 43
0000
0300
0000
0000
,  // measure 44
0000
0000
0000
0000
,  // measure 45
0001
0010
0100
0000
,  // measure 46
0000
0100
1000
0001
,  // measure 47
0100
0001
0001
0000
,  // measure 48
0000
0010
0100
0010
,  // measure 49
0100
1000
1000
0000
,  // measure 50
0000
1000
0001
1000
,  // measure 51
0100
1000
0100
0000
;

//---------------dance-single - ----------------
#NOTES:
     dance-single:
     :
     Beginner:
     1:
     0.056,0.081,0.024,0.000,0.000:
0001
0000
0000
0000
,
0000
0000
0000
0000
,
1000
0000
0000
0000
,
0000
0000
0000
0000
,
0010
0000
0000
0000
,
0000
0000
0100
0000
,
0001
0000
0000
0000
,
0000
1000
0000
0000
,
0100
0000
0000
0000
,
0000
1000
0000
0000
,
0001
0000
0000
0000
,
0000
0010
0000
0000
,
0100
0000
0000
0000
,
0000
0010
0000
0000
,
0001
0000
0000
0000
,
0000
1000
0000
0000
,
0100
0000
0000
0000
,
0000
1000
0000
0000
,
0010
0000
0000
0000
,
0000
0100
0000
0000
,
1001
0000
0001
0000
,
0000
0000
0000
0000
,
1000
0000
0000
0000
,
0100
0000
0000
0000
,
1000
0000
0000
0000
,
0000
0010
0000
0000
,
0100
0000
0000
0000
,
0000
0000
0000
0001
,
0000
0001
0000
0001
,
1000
0000
0000
0000
,
0010
0000
0000
0000
,
1000
0000
0000
0000
,
0100
0000
0000
0000
,
1000
0000
0000
0000
,
0001
0000
0000
0000
,
0000
0000
0000
0000
,
1001
0000
0000
0000
,
0000
0000
0000
0000
,
0010
0000
0000
0000
,
0000
0000
0000
0000
,
1001
0000
0000
0000
,
0000
0000
0000
0000
,
0100
0000
0000
0000
,
0000
0000
0000
0000
,
0010
0000
0000
0000
,
0000
0000
1000
0000
,
0100
0000
0000
0000
,
0000
1000
0000
0000
,
0001
0000
0000
0000
,
0000
0100
0000
0000
,
0001
0000
1000
0000
;
