#VERSION:0.81;
#TITLE:Halloween Party;
#SUBTITLE:;
#ARTIST:SHK;
#TITLETRANSLIT:;
#SUBTITLETRANSLIT:;
#ARTISTTRANSLIT:;
#GENRE:;
#ORIGIN:;
#CREDIT:;
#BANNER:Halloween Party.png;
#BACKGROUND:Halloween Party-bg.png;
#PREVIEWVID:;
#JACKET:Halloween Party-jacket.png;
#CDIMAGE:;
#DISCIMAGE:;
#LYRICSPATH:;
#CDTITLE:;
#MUSIC:Halloween Party.mp3;
#OFFSET:-6.685999;
#SAMPLESTART:22.168175;
#SAMPLELENGTH:12.000000;
#SELECTABLE:YES;
#BPMS:0.000=155.000;
#STOPS:256.000=1.161;
#DELAYS:;
#WARPS:;
#TIMESIGNATURES:0.000=4=4;
#TICKCOUNTS:0.000=4;
#COMBOS:0.000=1;
#SPEEDS:0.000=1.000=0.000=0;
#SCROLLS:0.000=1.000;
#FAKES:;
#LABELS:0.000=Song Start;
#BGCHANGES:;
#KEYSOUNDS:;
#ATTACKS:
;

//---------------dance-single - ----------------
#NOTEDATA:;
#CHARTNAME:;
#STEPSTYPE:dance-single;
#DESCRIPTION:;
#CHARTSTYLE:;
#DIFFICULTY:Hard;
#METER:8;
#RADARVALUES:0.476539,0.485390,0.060337,0.249968,0.064647,351.000000,7.000000,29.000000,0.000000,0.000000,0.000000,0.000000,0.000000,0.476539,0.485390,0.060337,0.249968,0.064647,351.000000,7.000000,29.000000,0.000000,0.000000,0.000000,0.000000,0.000000;
#CREDIT:;
#NOTES:
0000
0000
0000
0000
,
0000
0000
0000
0000
,
0000
0000
0000
0000
,
0000
0000
0000
0000
,
0001
1000
0010
0010
,
1000
0001
0100
0100
,
0001
1000
0100
0010
,
0001
0010
0001
0010
1000
0010
1000
0001
,
1001
0000
0000
0000
0000
0000
0000
0101
0000
0000
0000
0000
0000
0000
0000
0000
,
0000
0000
0000
0000
,
0001
0100
0001
1000
0100
1000
0001
0100
,
0001
1000
0000
0001
0000
0000
1001
0000
,
1000
0001
0010
0001
1000
0010
1000
0001
,
0010
0100
0000
0110
0000
0000
1001
0000
,
0001
0100
0010
1000
0001
0100
0010
1000
,
0001
0100
0000
0001
0000
0000
1100
0000
,
0100
1000
0010
0100
0001
1000
0100
0010
,
0100
1000
0000
0010
0000
0100
0010
1000
,
0020
1000
0000
1030
,
0200
1000
0320
0000
,
0032
1000
0000
1003
,
0200
1300
0200
0310
,
0020
0001
0000
0100
,
0032
0000
2003
0000
,
3200
1000
0000
0000
,
2300
0000
3020
0030
,
0100
0100
0001
0001
1000
1000
0001
0001
,
1000
0100
0010
0001
1000
0000
0000
0000
,
0001
0001
0010
0010
0100
0100
1000
1000
,
0100
0001
0100
1000
0010
0000
0000
0000
,
1000
0100
0001
0100
1000
0010
0100
0001
,
1000
0010
0001
0010
1000
0010
0100
0001
,
1000
0100
0001
0100
1000
0010
0100
0001
,
1000
0100
0010
0001
0001
0010
0100
1000
,
1000
0010
0001
0010
0100
0010
1000
0001
,
0010
1000
0010
0001
0100
0001
0100
0010
,
1000
0010
0001
0010
0100
0010
1000
0001
,
1000
0100
0010
0001
0020
0000
0000
0000
,
0230
0000
0000
2300
,
3020
0000
0000
0000
0000
0000
0130
0001
0200
0000
0000
0000
0000
0000
0000
0000
,
0320
0000
0000
0000
0000
0000
0000
0000
0000
0000
0000
0000
0000
0000
1030
0001
,
0200
0000
0302
0000
,
2003
0000
0000
3200
,
2300
0000
0000
0000
0000
0000
3010
0100
0002
0000
0000
0000
0000
0000
0000
1003
,
0020
0000
0000
0000
0000
0000
0000
0000
0000
0000
0000
0000
0000
0000
0000
0130
,
0002
0000
0000
0000
0000
0000
0000
1003
0020
0000
0000
0000
0000
0000
0000
0000
,
0130
0000
0000
0000
,
0001
0100
0001
0100
0001
0100
0001
0100
0001
0100
0001
0100
0001
0100
0001
0100
,
0001
0010
1000
0010
0001
0100
0010
1000
,
0001
0100
1000
0100
0001
0100
0010
1000
,
0001
0010
1000
0010
0001
0100
0010
1000
,
0001
0010
0100
1000
1000
0100
0010
0001
,
0001
0100
1000
0100
0010
0100
0001
1000
,
0100
0001
0100
1000
0010
1000
0010
0100
,
0001
0100
1000
0100
0010
0100
0001
0001
,
1000
0100
0010
0001
0001
0010
0100
1000
,
0001
0100
0100
0001
1000
0100
0001
0100
,
1000
0010
0010
0100
1000
0010
0001
0010
,
0100
0001
0001
0100
0010
1000
0010
0001
,
0010
0100
0001
1000
0010
0100
0001
1000
,
0001
0010
1000
0010
0100
0100
0010
0010
,
0100
1000
0100
0001
0100
0100
0010
0010
,
0100
1000
0010
0100
0001
0001
1000
1000
,
0001
0010
0100
1000
1000
0100
0010
0001
,
1000
0220
0000
0000
,
0000
0000
0000
0000
,
0000
0330
0000
0000
;

//---------------dance-single - ----------------
#NOTEDATA:;
#CHARTNAME:;
#STEPSTYPE:dance-single;
#DESCRIPTION:;
#CHARTSTYLE:;
#DIFFICULTY:Medium;
#METER:5;
#RADARVALUES:0.344783,0.399733,0.327544,0.327544,0.000000,204.000000,38.000000,38.000000,0.000000,0.000000,0.000000,0.000000,0.000000,0.344783,0.399733,0.327544,0.327544,0.000000,204.000000,38.000000,38.000000,0.000000,0.000000,0.000000,0.000000,0.000000;
#CREDIT:;
#NOTES:
0000
0000
0000
0000
,
0000
0000
0000
0000
,
0000
0000
0000
0000
,
0000
0000
0000
0000
,
1000
0001
1000
0001
,
0100
0010
0100
0010
,
1000
0010
0100
0001
,
1000
0001
1000
0001
1000
0001
1000
0001
,
2000
0000
0000
0000
,
3000
0000
0000
0000
,
0100
1000
0010
0100
,
0001
0010
0000
0100
0000
0000
1001
0000
,
0001
1000
0010
0100
,
0010
1000
0000
0001
0000
0000
1000
0000
,
0100
1000
0010
0100
,
0001
0100
0000
0010
0000
0000
1001
0000
,
1000
0100
1000
0001
,
0100
0001
0000
0100
0000
0000
0010
0100
,
0002
0000
0000
1003
,
0200
0000
2300
0000
,
3020
0000
0000
0000
,
0230
0000
0302
0000
,
2003
0000
0000
0100
,
3200
0000
0320
0000
,
0032
0000
0000
0000
,
2003
0000
0002
3003
,
0001
0100
0010
1000
,
0001
0100
0010
1000
0010
0000
0000
0000
,
1000
0100
0010
0001
,
1000
0100
0010
0100
1000
0000
0000
0000
,
1001
0001
0100
0001
,
1001
1000
0100
1000
,
1001
0001
0100
0001
,
1001
1001
0110
0110
,
0101
0001
0100
0010
,
1010
1000
0010
0100
,
0101
0001
0100
0010
,
1010
0101
1010
0000
,
1020
0000
0000
0230
,
0302
0000
0023
0000
,
0230
0000
0000
0000
,
0320
0000
0032
0000
,
2003
0000
0000
0010
,
3020
0000
0230
0000
,
0302
0000
0000
0000
,
2003
0000
3020
0000
,
0130
0000
0000
0000
,
2002
0000
0000
3003
,
0101
0001
0100
0010
,
1010
0010
0100
0001
,
1001
1000
0100
0010
,
0012
0103
2001
3100
,
1001
0001
0100
0001
,
0101
0001
0100
0010
,
1010
0010
1000
0010
,
1020
0130
0210
0301
,
1001
0000
0001
0100
0001
0000
0100
0000
,
0110
0000
0010
1000
0010
0000
0100
0000
,
0101
0000
0001
1000
0001
0000
1000
0000
,
1200
0310
0021
0130
,
1001
0000
0001
0100
0001
0000
0100
0000
,
1010
0000
0010
0100
0001
0000
1000
0000
,
1100
0000
0100
1000
0010
0000
0100
0000
,
0102
0013
2100
3010
,
0000
2002
0000
0000
,
0000
0000
0000
0000
,
0000
3003
0000
0000
;

//---------------dance-single - ----------------
#NOTEDATA:;
#CHARTNAME:;
#STEPSTYPE:dance-single;
#DESCRIPTION:;
#CHARTSTYLE:;
#DIFFICULTY:Easy;
#METER:3;
#RADARVALUES:0.262281,0.256971,0.060337,0.232729,0.000000,179.000000,7.000000,27.000000,0.000000,0.000000,0.000000,0.000000,0.000000,0.262281,0.256971,0.060337,0.232729,0.000000,179.000000,7.000000,27.000000,0.000000,0.000000,0.000000,0.000000,0.000000;
#CREDIT:;
#NOTES:
0000
0000
0000
0000
,
0000
0000
0000
0000
,
0000
0000
0000
0000
,
0000
0000
0000
0000
,
0001
0000
1000
0000
,
0001
0000
1000
0000
,
0100
0000
1000
0000
,
0010
0100
0010
0100
,
2002
0000
3003
0000
,
0000
0000
0000
0000
,
0001
0100
0001
1000
,
0100
1000
0010
1001
,
0001
1000
0100
1000
,
0001
0000
1000
0000
,
0001
0100
0001
0010
,
0100
0010
0001
1001
,
1000
0000
0001
0000
,
0100
0000
0001
0100
,
0020
0000
0000
0130
,
0002
0000
2003
0000
,
3200
0000
0000
0000
,
2300
0000
3020
0000
,
0230
0000
0000
0001
,
0302
0000
0023
0000
,
0032
0000
0000
0000
,
2003
0000
0200
3300
,
1100
0100
0100
0100
,
0100
0100
0100
0000
,
0101
0100
0100
0100
,
0100
0100
0100
0000
,
0001
1000
0010
0010
,
1000
0001
0010
0010
,
0001
1000
0010
0010
,
1000
0100
0010
0001
,
1000
0001
0100
0100
,
0001
1000
0100
0100
,
1000
0001
0100
0100
,
0001
1000
0100
0000
,
2000
0000
0000
0010
,
3020
0000
0100
0000
,
0230
0000
0000
0000
,
0301
0100
0010
1000
,
0200
0000
0000
0010
,
0320
0000
0032
0000
,
2000
0000
0000
0003
,
0020
3000
0000
0000
0200
0000
0000
0000
,
0330
0000
0000
0000
,
2002
0000
0000
3003
,
0001
1000
0100
0100
,
1000
0001
0100
0100
,
0001
1000
0100
0100
,
1000
0100
0010
0001
,
1000
0001
0010
0010
,
0001
1000
0010
0010
,
1000
0001
0010
0010
,
0001
0010
0100
1000
,
0100
0010
0001
0001
,
0010
0100
1000
1000
,
0100
0010
0001
0001
,
0010
0100
1000
0001
,
0100
0010
1000
1000
,
0010
0100
0001
0001
,
0100
0010
1000
1000
,
0010
0100
0001
1000
,
0000
2002
0000
0000
,
0000
0000
0000
0000
,
0000
3003
0000
0000
;

//---------------dance-single - ----------------
#NOTEDATA:;
#CHARTNAME:;
#STEPSTYPE:dance-single;
#DESCRIPTION:;
#CHARTSTYLE:;
#DIFFICULTY:Beginner;
#METER:1;
#RADARVALUES:0.109592,0.138452,0.034478,0.000000,0.000000,85.000000,4.000000,0.000000,0.000000,0.000000,0.000000,0.000000,0.000000,0.109592,0.138452,0.034478,0.000000,0.000000,85.000000,4.000000,0.000000,0.000000,0.000000,0.000000,0.000000,0.000000;
#CREDIT:;
#NOTES:
0000
0000
0000
0000
,
0000
0000
0000
0000
,
0000
0000
0000
0000
,
0000
0000
0000
0000
,
0010
0000
0000
0000
,
0100
0000
0000
0000
,
0001
0000
0000
0000
,
1000
1000
1000
1000
,
1001
0000
0000
0000
,
0000
0000
0000
0000
,
0100
0000
0000
0000
,
0010
0000
0000
1001
,
0001
0000
0000
0000
,
1000
0000
0000
0000
,
0010
0000
0000
0000
,
1000
0000
0000
1001
,
0001
0000
0000
0000
,
0100
0000
0000
0010
,
0010
0000
0000
0000
,
0100
0000
0001
0000
,
1000
0000
0000
0000
,
0100
0000
1000
0000
,
0001
0000
0000
0000
,
0100
0000
0010
0000
,
1000
0000
0000
0000
,
0001
0000
0010
0000
,
0100
0000
0000
0000
,
0000
0000
0000
0000
,
0010
0000
0000
0000
,
0000
0000
0000
0000
,
0001
0000
0000
0000
,
1000
0000
0000
0000
,
0010
0000
0000
0000
,
0100
0100
0010
0010
,
0100
0000
0000
0000
,
0001
0000
0000
0000
,
0010
0000
0000
0000
,
0100
0100
0100
0000
,
1000
0000
0000
0000
,
0010
0000
1000
0000
,
0001
0000
0000
0000
,
0100
0000
0001
0000
,
1000
0000
0000
0000
,
0100
0000
0010
0000
,
0001
0000
0000
0000
,
1000
0000
0010
0000
,
0000
0000
0000
0000
,
0000
0000
0000
0000
,
0001
0000
0000
0000
,
0100
0000
0000
0000
,
0001
0000
0000
0000
,
1000
0000
1000
1000
,
0010
0000
0000
0000
,
0100
0000
0000
0000
,
0010
0000
0000
0000
,
1000
1000
0001
0001
,
0100
0000
0000
0000
,
0001
0000
0000
0000
,
0010
0000
0000
0000
,
0010
0000
0001
0001
,
1000
0000
0000
0000
,
0100
0000
0000
0000
,
1000
0000
0000
0000
,
0010
0100
0001
1000
,
0000
0110
0000
0000
;

//---------------dance-single - ----------------
#NOTEDATA:;
#CHARTNAME:;
#STEPSTYPE:dance-single;
#DESCRIPTION:;
#CHARTSTYLE:;
#DIFFICULTY:Challenge;
#METER:10;
#RADARVALUES:0.694491,0.742361,0.568892,0.086196,0.400810,488.000000,66.000000,10.000000,0.000000,0.000000,0.000000,0.000000,0.000000,0.694491,0.742361,0.568892,0.086196,0.400810,488.000000,66.000000,10.000000,0.000000,0.000000,0.000000,0.000000,0.000000;
#CREDIT:;
#NOTES:
// measure 0
0000
0000
0000
0000
,  // measure 1
0000
0000
0000
0000
,  // measure 2
0000
0000
0000
0000
,  // measure 3
0000
0000
0000
0000
,  // measure 4
1000
0010
0100
0010
0001
0010
0100
0001
,  // measure 5
1000
0100
0010
0100
0001
0100
0010
0001
,  // measure 6
1000
0001
0100
0001
0010
0001
1000
0001
,  // measure 7
1001
1001
1001
1001
1001
1001
1001
1001
,  // measure 8
0220
0000
0330
0000
,  // measure 9
0000
0000
0000
0000
,  // measure 10
1000
0010
0100
0001
0010
0001
0100
0001
,  // measure 11
0010
0000
0000
0000
0000
0000
0000
0000
0100
0000
0000
0000
0000
0000
0000
0000
0000
0000
0000
0000
0000
0000
0000
0000
1100
0000
0000
0000
0000
0000
0000
0000
0000
0000
0000
0000
0000
0000
0000
0000
0000
0000
0000
0000
0000
0000
0000
0000
2002
0000
0000
3003
0000
0000
0000
0000
0000
0000
0000
0000
0000
0000
0000
0000
,  // measure 12
0001
0100
0010
0100
0001
0010
1000
0010
,  // measure 13
0100
1000
0000
1100
0000
0000
0011
0000
,  // measure 14
0001
0010
0001
0100
0001
1000
0100
1000
,  // measure 15
0010
0000
0000
0100
0000
0000
0000
0000
0000
0101
0000
0000
0000
0000
0000
0000
0000
0000
0022
0033
0000
0000
0000
0000
,  // measure 16
0001
0010
0001
0100
0001
1000
0100
1000
,  // measure 17
0010
0000
0100
0000
0000
0000
0010
0000
0000
0000
0000
0000
1000
0100
0010
0001
,  // measure 18
1000
0000
0000
0001
0000
0000
0100
0000
0000
0000
0001
0000
0010
0000
0100
0000
,  // measure 19
0010
0000
0000
0100
0000
0000
1000
0000
0000
0000
0100
0000
1000
0000
0010
0000
,  // measure 20
0100
0000
0000
0100
0000
0000
0010
0000
0000
0000
0100
0000
0001
0000
1000
0000
,  // measure 21
0010
0001
0010
0100
1000
0100
0010
0100
,  // measure 22
0001
0000
0000
0010
0000
0000
0100
0000
0000
0000
1000
0000
0100
0000
0010
0000
,  // measure 23
0001
0000
0000
0001
0000
0000
0100
0010
2000
0000
0000
0000
0000
0000
0000
0000
,  // measure 24
3100
0000
0000
1000
0000
0000
0010
0000
0000
0000
0100
0000
0010
0000
1000
0000
,  // measure 25
0001
0000
0000
0010
0000
0000
0100
1000
0020
0000
0000
0000
0030
0000
0000
0000
,  // measure 26
0110
0110
0101
0101
1010
1010
0101
0101
,  // measure 27
0011
1100
0011
0110
1001
0000
0000
0000
,  // measure 28
0101
0101
1100
1100
1010
1010
0011
0011
,  // measure 29
1001
0110
1001
0101
1100
0000
0000
0000
,  // measure 30
0100
0000
1000
0010
0100
0000
0001
0000
0010
0000
0001
0000
1000
0000
0100
0000
,  // measure 31
1000
0000
0001
0100
0010
0000
0100
0000
0001
0000
0010
0000
0100
0000
1000
0000
,  // measure 32
0010
0000
0100
0010
1000
0000
0001
0000
0010
0000
0001
0000
1000
0000
0100
0000
,  // measure 33
1000
0100
0010
0001
1000
0100
0010
0001
0010
0100
1000
0100
0010
0001
0010
0100
,  // measure 34
1000
0000
0010
1000
0010
0000
0100
0000
0001
0000
0010
0000
0001
0000
1000
0000
,  // measure 35
0100
0000
0010
0001
0010
0000
0001
0000
0100
0000
0010
0000
1000
0000
0100
0000
,  // measure 36
1000
0000
0010
0100
0010
0000
0100
0000
0001
0000
0010
0000
0001
0000
0100
0000
,  // measure 37
0010
0100
0001
1000
0010
0100
0001
1000
0001
0010
0100
1000
0001
0010
0100
1000
,  // measure 38
1001
0000
0000
1001
0000
0000
1001
0000
0000
0000
0001
0000
0100
0000
0010
0000
,  // measure 39
1010
0000
0000
1010
0000
0000
1010
0000
0000
0000
1000
0000
0100
0000
0010
0000
,  // measure 40
0011
0000
0000
0011
0000
0000
0011
0000
0000
0000
0001
0000
0010
0000
0100
0000
,  // measure 41
1100
0000
0000
1100
0000
0000
1100
0000
0000
0000
1000
0000
0001
0000
0100
0000
,  // measure 42
0101
0000
0000
0101
0000
0000
0101
0000
0000
0000
0001
0000
0100
0000
0010
0000
,  // measure 43
1010
0000
0000
1010
0000
0000
1010
0000
0000
0000
0010
0000
0100
0000
0001
0000
,  // measure 44
1001
0000
0000
1001
0000
0000
1001
0000
0000
0000
0001
0000
0100
0000
0010
0000
,  // measure 45
1010
0000
0000
0101
0000
0000
1010
0000
0000
0000
1000
0000
0100
0000
0010
0000
,  // measure 46
0002
0003
0000
0000
0000
0000
0000
0000
,  // measure 47
1000
0100
0010
0100
1000
0001
0010
0100
1000
0010
0100
0001
0010
0001
1000
0001
,  // measure 48
0010
0000
0001
0100
0010
0000
1000
0000
0100
0000
1000
0000
0001
0000
0010
0000
,  // measure 49
0001
0000
1000
0010
0100
0000
0010
0000
1000
0000
0100
0000
0010
0000
0001
0000
,  // measure 50
0100
0000
0010
0100
0001
0000
1000
0000
0100
0000
1000
0000
0001
0000
0010
0000
,  // measure 51
0001
0010
0100
1000
0001
0010
0100
1000
0100
0010
0001
0010
0100
1000
0100
0010
,  // measure 52
0001
0000
0100
0001
0100
0000
0010
0000
1000
0000
0100
0000
1000
0000
0001
0000
,  // measure 53
0010
0000
0100
1000
0100
0000
1000
0000
0010
0000
0100
0000
0001
0000
0010
0000
,  // measure 54
0001
0000
0100
0010
0100
0000
0010
0000
1000
0000
0100
0000
1000
0000
0010
0000
,  // measure 55
0100
0010
1000
0001
0100
0010
1000
0001
1000
0100
0010
0001
1000
0100
0010
0001
,  // measure 56
1000
0000
0010
0001
0010
0000
0100
0000
0010
0000
1000
0000
0100
0000
0001
0000
,  // measure 57
0100
0000
0010
0001
0100
0000
1000
0000
0100
0000
0010
0000
1000
0000
0001
0000
,  // measure 58
0010
0000
0100
1000
0010
0000
0001
0000
0010
0000
0100
0000
0010
0000
1000
0000
,  // measure 59
0001
0010
0100
0010
0001
0100
0010
1000
0001
0010
0001
0100
0010
1000
0001
0010
,  // measure 60
0001
0000
0100
1000
0010
0000
0100
0000
0010
0000
1000
0000
0010
0000
0001
0000
,  // measure 61
0010
0000
0100
0001
0010
0000
0100
0000
1000
0000
0100
0000
0001
0000
0100
0000
,  // measure 62
1000
0000
0010
0100
0001
0000
0010
0000
0100
0000
0010
0000
0001
0000
0100
0000
,  // measure 63
0010
1000
0001
0010
0100
0010
0001
1000
0010
0100
0001
0010
1000
0010
0001
0100
,  // measure 64
1000
2001
0000
0000
,  // measure 65
0000
0000
0000
0000
0000
0000
0100
0100
,  // measure 66
0100
3100
0001
0000
0000
0000
0000
0000
;
