#TITLE:HIMIKO;
#SUBTITLE:;
#ARTIST:Suzaku VS Genbu;
#TITLETRANSLIT:;
#SUBTITLETRANSLIT:;
#ARTISTTRANSLIT:;
#CREDIT:;
#BANNER:HIMIKO.pmg;
#BACKGROUND:HIMIKO-background.png;
#JACKET:HIMIKO-jacket.png;
#LYRICSPATH:;
#CDTITLE:;
#MUSIC:HIMIKO.mp3;
#OFFSET:-0.750;
#SAMPLESTART:91.840;
#SAMPLELENGTH:12.000;
#SELECTABLE:YES;
#BPMS:0.000=92.500,11.000=185.000,75.000=92.500,83.000=185.000,120.000=46.250,128.000=92.500,140.000=46.250,141.500=185.001,278.000=88.001,286.000=85.001,297.750=85.001;
#STOPS:141.500=0.081
,141.750=0.081
,217.750=0.973
,266.500=0.324
,269.500=0.324
,272.000=0.324
,273.000=0.324
;
#BGCHANGES:;

//---------------dance-single - ----------------
#NOTES:
     dance-single:
     :
     Hard:
     12:
     0.885,1.000,0.436,0.084,0.997:
0000
0000
0000
0000
,
0000
0000
0000
0000
,
0000
0000
0000
0000
0100
0010
0001
0100
,
0010
0000
1000
0010
0100
0000
0000
0000
0110
0000
0000
0000
0100
0000
0010
0000
,
1000
0000
0001
0010
0100
0000
0000
0000
0011
0000
0000
0000
0010
0000
0001
0000
,
0100
0000
0010
1000
0100
0000
0000
0000
0011
0000
0000
0000
0010
0000
0100
0000
,
1000
0000
0010
1000
0100
0000
0000
0000
1010
0000
0000
0000
0010
0000
0100
0000
,
0001
0000
0010
0100
1000
0000
0000
0000
0011
0000
0000
0000
1000
0000
0001
0000
,
0100
0000
0010
0100
0001
0000
0000
0000
1010
0000
0000
0000
0100
0000
0001
0000
,
0010
0000
0100
1000
0010
0000
0000
0000
0101
0000
0000
0000
1001
0000
0101
0000
,
0010
1000
0010
0000
0100
0001
0100
0000
0001
0010
0100
0000
1001
0000
0101
0000
,
0001
0100
0010
1000
0001
0000
0000
0000
1001
0000
0000
0000
1100
0000
0110
0000
,
0010
0100
1000
0010
0100
0000
0000
0000
1001
0000
0000
0000
0101
0000
1010
0000
,
1000
0010
0100
0001
0010
0000
0000
0000
1100
0000
0000
0000
1100
0000
0011
0000
,
0010
0100
0010
0001
0100
0000
0000
0000
0101
0000
0000
0001
0100
0000
0000
0100
,
0010
0000
0000
0010
1000
0000
0000
1000
0001
0000
0000
0001
0100
0000
0000
0100
,
0001
0000
0000
0001
0010
0000
0000
0010
0100
0000
0000
0100
1000
0100
0010
0001
,
0010
0100
1000
0001
0100
0000
0000
0000
0110
0000
0000
0000
0100
0010
1000
0001
,
0010
0000
0100
0000
0010
0000
0001
0000
0100
0000
0010
0000
1000
0000
0001
0000
0010
0000
0100
0000
1000
0000
0001
0000
0100
0000
0001
1000
0000
0001
1000
0000
,
0010
0100
0001
0000
0100
0000
0010
0100
0000
0010
0100
0000
0100
0010
0000
0100
0010
0001
1000
0000
1000
0000
0100
0010
0000
0100
0001
0000
0001
1000
0000
1000
,
0100
0000
0010
0001
0000
1000
0001
0100
0001
0010
0100
0000
1000
0000
0100
0010
0000
0010
0001
0000
0001
0010
0100
1000
0001
0000
0100
0000
0001
0000
0000
0000
,
0100
0000
0010
1000
0000
1000
0100
0000
0010
0001
0100
0000
0010
0000
0100
0001
,
0000
0010
0100
0000
1000
0000
1000
0001
0100
0001
0010
0100
0010
0001
1000
0000
,
0001
0100
0010
0000
0100
0000
0010
1000
0000
0100
0001
0000
0001
0010
0100
0000
,
0010
0000
0100
1000
0000
0010
0100
0000
0001
1000
0100
0010
0100
1000
0001
0010
,
0200
0000
0300
0000
0100
1000
0100
0000
1000
0000
0001
0010
0000
0010
1000
0000
,
0001
0100
1000
0000
0001
0000
1000
0100
0000
0001
1000
0000
0010
0000
0010
0100
,
1000
0100
0001
1000
0001
0100
0010
0000
0100
1000
0001
0000
1000
0000
0001
0010
,
0000
1000
0100
0000
0100
0001
1000
0000
0001
0000
1000
0010
0000
0001
1000
0000
,
0100
0010
1000
0001
1000
0010
0100
0001
1000
0100
0010
0001
1000
0001
0100
0010
,
1000
0000
0010
0000
0001
0000
0010
0000
0100
0000
1000
0100
0001
0000
0010
0000
,
0100
0000
0010
0000
0001
0000
1000
0100
0001
0000
0001
0100
0010
1000
0100
0000
,
2002
0000
0000
0000
0000
3003
0101
0101
0000
0000
1010
0000
0101
0101
0000
0000
,
0110
0110
0000
0000
1001
0000
1010
1010
0000
0000
1001
0000
0011
0011
0000
0000
,
0110
0110
0000
0000
1001
0000
1010
1010
0000
0000
0101
0000
1000
0000
0100
0000
,
0010
0000
0001
0100
0010
0000
1010
0101
1001
0000
0000
0000
1000
0000
0100
0010
,
0001
0000
0001
0000
0010
0100
1000
0000
1000
0000
0100
0010
0001
0010
0100
1000
,
0001
0000
0010
0100
1000
0000
1000
0000
0100
0010
0001
0000
0001
0000
0010
0100
,
1000
0000
0100
0000
0010
0001
0010
0100
1000
0000
0100
0010
0001
0000
0001
0000
,
0010
0100
1000
0000
1000
0000
0100
0010
0001
0000
0100
0010
0001
0010
0100
1000
,
0001
0010
0100
0000
0100
0000
0010
0001
0010
0000
0010
0000
0100
1000
0100
0000
,
0010
0000
0001
1000
0010
0100
0001
0010
0100
0000
0010
0100
0010
0000
0100
0000
,
0100
0010
0100
0000
0010
0000
1000
0001
1000
0000
1000
0001
0010
0100
1000
0001
,
0100
0000
0010
1000
0010
0000
0100
0000
0001
0010
0001
0000
0010
0000
0100
1000
,
0100
0000
1000
0100
0010
0001
0010
0100
1000
0001
0100
0001
0100
0000
0010
0000
,
1000
0010
0100
0000
0010
0000
1000
0001
0010
0000
0100
0010
0001
1000
0001
0100
,
0001
0000
1000
0010
0100
0000
0010
1000
0001
0010
0100
1000
0102
0000
0000
0000
,
0100
0010
1003
2001
,
0001
0010
3100
0120
,
1000
0100
0031
0120
,
1000
0000
0000
0000
0100
0000
0000
0000
0031
0000
0000
0000
0100
0000
0010
1000
,
0010
0000
0100
0001
0100
0000
0001
0010
0001
0000
0010
0100
1000
0000
0100
0010
,
0001
0000
0100
0010
1000
0000
0001
0100
0010
0000
1000
0010
1000
0000
0010
0100
,
0010
0000
0100
0001
0100
0000
0001
0010
0001
0000
0001
1000
0010
0100
0010
0100
,
0010
0000
0000
0000
0100
0000
0000
0000
0010
0000
0000
0000
0100
0000
0000
0000
0010
0000
0000
0000
0100
0000
0000
0000
0001
0000
0000
0000
2002
3003
0000
0000
1000
0000
0000
0000
0000
0000
0000
0000
0010
0000
0000
0000
0000
0000
0000
0000
0100
0000
0000
0000
0000
0000
0000
0000
0001
0000
0000
0000
0000
0000
0000
0000
,
0100
0010
1000
0100
1000
0001
0010
0001
,
1000
0100
0001
0100
0010
1000
0100
0010
,
0100
0000
1000
0000
0010
0000
0001
0000
0010
0100
0001
0000
0100
0010
1000
0000
,
1000
0100
0010
0000
0010
0001
0100
0000
0010
0000
1000
0000
0100
0000
0010
0000
,
0100
1000
0010
0100
0001
0010
0100
0010
,
0001
0100
0010
1000
0001
0010
1000
0010
,
0100
0000
1000
0000
0001
0000
0100
0000
0001
0100
0010
0000
0100
0001
1000
0000
,
0100
0010
0001
0000
0010
0100
1000
0000
0001
1000
0010
0000
0100
0001
1000
0000
,
0010
0100
0001
0010
0100
0010
0001
0100
0010
1000
0100
0000
0010
0001
0100
0000
,
0010
1000
0100
0010
0100
1000
0001
0100
0001
0100
0010
0000
0100
0010
1000
0000
,
0001
0010
0100
1000
0001
1000
0100
0010
0001
0010
0001
0100
0010
0100
0001
1000
,
0100
0010
0001
1000
0010
0100
0001
1000
1001
0000
1001
0000
1000
0000
0001
0010
,
0100
0000
0100
1000
1010
0000
1010
0000
1000
0000
0010
0100
0001
0000
1000
0000
,
1001
0000
0000
0000
1010
0000
0000
0000
1000
0001
1000
0001
1000
0010
1000
0100
,
0010
0000
0100
0000
0010
0000
0100
0000
0010
0000
0100
0000
0010
0000
0000
0001
0000
0000
1000
0000
0000
0001
0000
0000
1000
0000
0000
0100
0000
0000
0000
0000
0000
0010
0000
0000
0001
0000
0000
0000
0000
0000
0000
0000
0000
0000
0000
0000
,
0001
0100
0000
0010
1000
0000
0000
0000
0010
0100
0000
0100
0001
0000
0000
0000
,
0001
0010
0000
0100
1000
0000
0000
0000
0010
0010
0000
0100
0100
0000
0010
1000
,
0001
0001
0000
1000
1000
0000
0001
0010
0100
0100
0000
0010
0010
0000
0100
1000
,
0001
0000
0000
0000
0000
1000
0010
0000
0001
0000
0010
0000
0100
0000
0000
0000
0000
2002
0000
0000
0000
0000
0000
0000
0000
0000
0000
0000
0000
0000
0000
0000
,
0000
0000
3003
0000
;

//---------------dance-single - ----------------
#NOTES:
     dance-single:
     :
     Medium:
     9:
     0.522,0.626,0.313,0.145,0.080: // measure 1
0000
0000
0000
0000
,  // measure 2
0000
0000
0000
0000
,  // measure 3
0000
0000
0000
0000
0000
0000
0001
0100
,  // measure 4
0010
1000
0100
0000
0000
0000
0010
0001
,  // measure 5
0010
0100
0010
0000
0000
0000
0100
0010
,  // measure 6
0001
1000
0010
0000
0000
0000
0100
0001
,  // measure 7
1000
0010
0100
0000
0000
0000
1000
0100
,  // measure 8
0010
0100
1000
0000
0000
0000
1000
0100
,  // measure 9
0010
0001
0010
0000
0000
0000
0001
0010
,  // measure 10
0100
0010
0001
0000
0000
0000
1001
1001
,  // measure 11
0000
0000
0010
0000
0100
0000
0101
0101
,  // measure 12
0000
0000
0001
0000
0100
0000
0110
0110
,  // measure 13
0010
0000
1000
0000
0010
0000
0110
0110
,  // measure 14
0010
0000
0100
0000
0001
0000
1001
1001
,  // measure 15
1000
0100
1100
0110
,  // measure 16
0011
0110
1100
0110
,  // measure 17
0011
0000
1001
0000
0001
0000
0001
0100
,  // measure 18
1000
0100
0010
0000
0100
0000
0010
0001
,  // measure 19
0010
1000
0100
0001
0100
1000
0020
0000
,  // measure 20
0000
0230
0000
0302
,  // measure 21
0000
0000
2003
0000
3200
0000
0310
0001
,  // measure 22
0010
0000
0001
0000
0010
0100
0010
0000
,  // measure 23
1000
0000
0100
0000
0010
0001
0010
0000
,  // measure 24
0100
0000
0010
0000
0100
0000
0001
0100
,  // measure 25
1000
0100
0010
1000
0010
0100
0010
1000
,  // measure 26
0002
0000
0103
1000
0100
0000
0010
0000
,  // measure 27
0001
0010
0001
0000
0100
0000
0010
0100
,  // measure 28
0010
0000
1000
0000
0010
0100
0010
0000
,  // measure 29
0100
0000
0001
0100
0010
1000
0010
0100
,  // measure 30
0010
1000
0100
0001
0100
1000
0010
0100
,  // measure 31
0001
0000
1000
0000
0100
0000
1000
0000
0100
0000
0010
0001
0100
0000
0001
0000
,  // measure 32
0010
0000
0100
0000
1000
0000
0100
1000
0010
0000
0100
0001
1000
0100
0010
0000
,  // measure 33
0200
1000
0010
1300
,  // measure 34
0100
0000
0010
0001
0100
0000
1000
0000
,  // measure 35
0100
0000
0001
0000
0010
0000
0100
1000
,  // measure 36
0010
0000
0100
0001
1000
0000
0001
0100
0010
0000
0000
0000
1000
0000
0010
0000
,  // measure 37
0100
0010
1000
0010
0100
0001
0010
0100
,  // measure 38
0010
0001
0100
0001
0010
0100
0010
0001
,  // measure 39
1000
0001
0100
1000
0100
0010
1000
0010
,  // measure 40
0100
0001
0010
0100
0010
0001
1000
0010
,  // measure 41
0001
0010
0100
0010
1000
0100
0010
0001
,  // measure 42
1000
0010
0001
0010
1000
0100
1000
0001
,  // measure 43
0100
0001
0010
0001
1000
0010
0001
0010
,  // measure 44
1000
0100
0010
0100
1000
0010
0100
0001
,  // measure 45
0010
0100
1000
0100
0001
0100
0010
0001
,  // measure 46
0010
0100
1000
0100
1000
0010
0100
0001
,  // measure 47
0010
0000
0100
0000
1000
0000
0001
1000
0001
0000
1000
0000
0102
0000
0000
0000
,  // measure 48
0100
0100
0103
2100
,  // measure 49
0100
0100
3100
1020
,  // measure 50
1000
1000
1030
0021
,  // measure 51
0001
0001
0031
0102
,  // measure 52
0100
0100
0103
2100
,  // measure 53
0100
0100
3100
1020
,  // measure 54
1000
0000
0000
0000
1000
0000
0000
0000
1030
0000
0000
0000
0001
0100
0001
0100
,  // measure 55
0001
0100
0001
0100
0001
0100
0001
0010
0100
0000
0000
0000
0010
0000
0000
0000
,  // measure 56
0001
0010
1000
0010
,  // measure 57
0001
0100
1000
0100
,  // measure 58
0010
0000
0100
0000
0010
1000
0001
0010
,  // measure 59
1000
0100
0001
0100
0010
0000
0001
0000
,  // measure 60
0010
0001
0010
0000
0001
0000
0100
0000
,  // measure 61
0010
1000
0010
0000
0100
0000
0010
0000
,  // measure 62
1000
0010
1000
0000
1010
0101
0000
0000
,  // measure 63
1001
1100
1100
0110
,  // measure 64
0001
0010
0001
0000
0011
0000
1100
0000
,  // measure 65
0001
0100
0010
0000
0110
0000
1001
0000
,  // measure 66
0010
0100
0001
0000
0001
0100
0010
1000
,  // measure 67
0010
0100
0010
1000
1001
1001
0001
0100
,  // measure 68
0010
1000
1010
1010
1000
0100
0010
0001
,  // measure 69
0011
0000
1100
0000
1000
0001
1000
0001
,  // measure 70
0100
1000
0100
0010
2000
0000
0000
0000
,  // measure 71
3020
0000
0230
0000
,  // measure 72
0302
0000
0000
0000
0000
0000
0000
0000
1003
0100
0000
0010
0001
0000
0000
0000
,  // measure 73
0001
0100
0000
0010
1000
0000
0000
0000
1000
0100
0000
0100
0010
0000
0010
0001
,  // measure 74
0100
0000
0000
0000
0010
0100
0001
0000
2000
0000
0000
0000
0000
0000
0000
0000
,  // measure 75
0000
0000
0000
0000
0000
0000
0000
3000
0000
0000
0000
0000
0000
0000
0000
0000
;

//---------------dance-single - ----------------
#NOTES:
     dance-single:
     :
     Easy:
     5:
     0.351,0.540,0.245,0.351,0.000:
0000
0000
0000
0000
,
0000
0000
0000
0000
,
0000
0000
0000
0001
,
0100
1010
0000
1000
,
0100
0011
0000
0001
,
0100
1010
0000
1000
,
0100
0011
0000
0001
,
0100
1001
0000
0100
,
0010
1001
0000
0001
,
0100
0000
1010
0000
0000
0000
0001
1000
,
0000
0000
0000
0000
0000
0000
1000
0100
,
0010
0000
0100
0000
1000
0000
0010
0100
,
0010
0000
0100
0000
0001
0000
0010
0001
,
0010
0000
0001
0000
0100
0000
0010
1000
,
0010
0100
0010
1000
,
0100
0001
0100
0010
,
0001
0000
0100
0000
0010
0000
1000
0010
,
1000
0010
1000
0000
1010
0000
0001
0100
,
0001
0100
0001
0000
0100
0000
1002
0000
,
0000
0203
0000
0302
,
0000
0023
0230
1300
,
0100
0010
0010
0100
,
1000
0100
0010
0010
,
0001
0100
0010
1000
,
0001
0100
0010
1000
,
0010
1001
0001
0100
,
0001
0010
0001
0010
,
0100
0010
0100
1000
,
0100
1000
0100
0001
,
0100
0010
0001
0100
,
0110
0010
0100
0001
1000
0100
1000
0001
,
0100
0001
0010
0100
0010
0001
1000
0010
,
1001
0001
0010
0001
,
0100
0000
0010
1000
0100
0000
1000
0000
,
0001
0000
0100
0000
0001
0000
1000
0100
,
0010
0100
1000
1001
0000
0000
0202
0000
,
0000
0000
0000
0303
,
0000
0000
0000
0000
0000
0000
0000
0020
,
0000
0000
0000
0000
,
0030
0100
0010
1000
,
0010
0100
0001
0010
,
0100
0010
0001
1000
,
0010
0100
0010
1000
,
0001
0010
1000
0010
,
0100
0010
0001
1000
,
0010
0100
0010
1000
,
0001
0000
0100
1000
0001
0100
0202
0000
,
0000
0000
0303
2020
,
0000
0000
3030
0220
,
0000
0000
0330
2002
,
0000
0000
3003
2200
,
0000
0000
3300
0022
,
0000
0000
0033
0202
,
0000
0000
0303
0220
,
0000
0000
0000
0330
2002
0000
0000
0000
,
0000
0000
0000
3003
,
0202
0303
0022
0000
,
0000
0033
2200
3300
,
0220
0330
0022
0000
,
0000
0000
0000
0000
0000
0000
0000
0033
,
2200
0000
0000
0000
,
0000
0000
0000
3300
0022
0000
0000
0033
,
0202
0000
0000
0303
0001
1000
0010
0000
,
0100
0000
0010
0000
1000
0010
0001
0000
,
0010
0000
0100
0000
0010
1000
0001
0000
,
0010
0000
0100
0000
0001
0100
0010
1000
,
0001
0100
0010
1000
0001
1000
0100
0000
,
0010
0000
0001
0010
0100
0000
1000
0000
,
0010
0000
0100
0000
0001
0100
0010
1000
,
0001
0010
0100
1000
0002
0000
0000
0000
,
0000
0000
2003
0000
,
0000
0000
0000
0000
3010
0000
0100
0001
,
1000
0000
0100
0010
0001
0000
0010
0000
,
0100
1000
2002
0000
,
0000
0000
0000
0000
0000
0000
0000
3003
0000
0000
0000
0000
0000
0000
0000
0000
;

//---------------dance-single - ----------------
#NOTES:
     dance-single:
     :
     Beginner:
     3:
     0.167,0.393,0.199,0.000,0.000:
0000
0000
0000
0000
,
0000
0000
0000
0000
,
0000
0000
0000
0001
,
0000
0000
0000
0100
,
0000
0000
0000
0010
,
0000
0000
0000
1000
,
0000
0000
0001
0001
,
0000
0000
0000
0100
,
0000
0000
0010
1000
,
0000
0000
0000
0110
,
0000
1001
0000
0001
,
0000
0000
0000
1000
,
0000
0100
0000
1000
,
0000
0010
0000
0000
,
0000
0000
0100
0010
,
0000
0100
0001
1000
,
0100
0010
0000
0100
,
0000
0000
0000
0110
,
0000
1001
0000
0110
,
0000
0100
0000
0001
,
0000
1000
0001
0100
,
0000
0000
0010
0000
,
0000
0000
1000
1000
,
0000
0001
0000
0100
,
0000
0000
0000
0000
,
0001
1001
0000
0000
,
0001
0000
0000
0000
,
0100
0001
0000
1000
,
0000
0100
0000
0000
,
1000
0000
0000
0010
,
0110
0000
0000
0000
,
0100
0000
0001
1000
,
0110
0000
0100
0000
,
0010
0001
0100
0001
,
1000
0000
0100
0010
,
0001
1000
1000
0001
0000
0000
1001
0000
,
0000
0000
0000
0000
,
0010
0000
0000
0000
,
0000
0100
0010
0000
,
0000
0000
0000
1000
,
0001
0000
0000
0000
,
0000
0010
0100
0000
,
0000
0000
0000
0100
,
0010
0000
0000
0000
,
0000
0001
0100
0000
,
0000
0000
0010
1000
,
0010
0000
0100
1001
,
0000
0000
0000
0110
,
0000
0000
0000
0110
,
0000
0000
0000
1001
,
0000
0000
0000
0110
,
0000
0000
0000
0110
,
0000
0000
0000
1001
,
0000
0000
0000
0110
,
0000
0000
1001
0000
,
0000
0000
0000
0000
,
0001
0000
0010
0000
,
0000
0000
0001
0000
,
0100
0000
1000
0000
,
0000
0000
0000
0000
,
0100
0000
0010
0000
,
0000
0000
1000
0000
,
0001
0000
1000
1000
,
1000
0000
0001
0001
,
0001
0000
0100
0100
,
0100
0000
0010
0010
,
0010
0000
1001
0000
,
0000
0110
0000
0000
,
1001
0010
1001
0110
,
1001
1001
0110
0000
,
0100
0000
0001
0000
,
1000
0000
0100
0000
,
0010
0000
0001
0000
,
0100
0010
1000
0000
;
