#TITLE:Genie;
#SUBTITLE:(Sonic Elysium Remix);
#ARTIST:Airbase;
#TITLETRANSLIT:;
#SUBTITLETRANSLIT:;
#ARTISTTRANSLIT:;
#CREDIT:;
#BANNER:Genie (Sonic Elysium Remix).png;
#BACKGROUND:Genie (Sonic Elysium Remix)-background.png;
#JACKET:Genie (Sonic Elysium Remix)-jacket.png;
#LYRICSPATH:;
#CDTITLE:;
#MUSIC:Genie (Sonic Elysium Remix).mp3;
#OFFSET:-13.268;
#SAMPLESTART:66.220;
#SAMPLELENGTH:12.000;
#SELECTABLE:YES;
#BPMS:0.000=145.000;
#STOPS:;
#BGCHANGES:;

//---------------dance-single - ----------------
#NOTES:
     dance-single:
     :
     Hard:
     9:
     0.618,0.875,0.295,0.184,0.637:
0101
0000
0000
0000
1010
0000
0000
0000
0000
0000
1100
0000
0000
1001
0000
0000
,
0101
0000
0000
0000
0001
0000
0000
0000
0000
0000
0101
0000
0000
1010
0000
0000
,
1001
0000
0000
0000
0001
0000
0000
0000
0000
0000
0110
0000
0000
1010
0000
0000
,
1100
0000
0000
0000
0100
0000
0000
0000
0000
0000
0000
0100
0010
0000
0001
0000
,
1001
0000
0000
0000
0101
0000
0000
0000
0000
0000
0101
0000
0000
1010
0000
0000
,
1001
0000
0000
0000
0001
0000
0000
0000
0000
0000
0101
0000
0000
1010
0000
0000
,
1001
0000
0000
0000
,
0102
0100
0200
0303
,
0002
0000
0000
0103
0000
0000
1000
0000
0200
0000
0000
1300
0000
0000
0100
0000
,
0002
0000
0000
0103
0000
0000
1000
0000
0010
0000
0100
0000
0001
0000
0000
0000
,
2002
0000
0000
3003
,
0000
0000
0000
0000
0000
0000
0000
0000
0000
0000
0000
1000
0001
0000
1000
0000
,
0002
0000
0000
0013
0000
0000
0100
0000
2000
0000
0000
3100
0000
0000
0010
0000
,
0200
0000
0000
1300
0000
0000
0100
0000
1000
0000
0100
0000
0020
0000
0000
0000
,
0200
0000
0000
0330
,
0020
0000
0032
0000
0200
0000
0303
0001
,
0101
0000
0000
0100
0000
0000
0010
0000
0110
0000
0000
0010
0000
0000
1000
0000
,
1001
0000
0000
0010
0000
0000
0100
0000
0120
0000
0000
0000
0032
0000
0000
0000
,
2000
0000
0000
0000
0000
0000
0000
0000
3003
0000
1000
0000
0000
0001
0000
0000
,
0101
0000
0000
0000
0100
0000
0000
0000
0000
0000
0000
0010
1000
0000
0001
0000
,
1001
0000
0000
0001
0000
0000
0100
0000
0110
0000
0000
0100
0000
0000
0001
0000
,
0011
0000
0000
0100
0000
0000
0010
0000
0002
0000
0000
0000
2003
0000
0000
0000
,
0200
0000
0000
3300
,
1100
0110
0011
0000
,
0001
1000
0010
1000
0001
0010
0100
0010
,
0001
0100
1000
0100
0010
1000
0001
0010
,
1000
0010
0100
0010
0001
0010
0001
0100
,
1000
0100
0010
1000
0001
0010
0100
1000
,
0100
1000
0010
0100
0001
1000
0010
0100
,
0001
1000
0010
0100
0001
0010
0100
1000
,
0001
1000
0001
1000
0001
1000
0001
1000
0001
1000
0001
1000
0001
1000
0001
1000
,
0001
1000
0001
1000
0001
1000
0001
1000
0001
1000
0001
1000
0001
1000
0001
1000
,
0001
0000
0000
0100
0000
0000
0010
1000
0010
0000
0000
0100
0000
0000
0001
0000
,
1000
0100
0000
0010
0000
0000
0100
0000
1000
0000
1000
0000
0001
0000
0100
0000
,
0010
0000
0000
0100
0000
0000
0010
0000
1000
0000
0000
0100
0000
0000
1000
0000
,
0010
0000
0000
0100
0000
0000
0010
0000
1000
0010
0000
0100
0001
0000
1000
0000
,
0100
0000
0000
0010
0000
0000
0001
0000
0100
0000
0000
0010
0000
0000
0100
0000
,
0001
1000
0001
1000
0100
0000
0100
0010
0000
0001
0000
0010
0001
0000
1000
0000
,
0010
0000
0000
1000
0000
0000
0100
0000
0010
0000
0000
0100
0000
0000
1000
0000
,
0001
0000
0000
0100
0000
0000
0001
0000
1000
0000
1000
0100
0000
0010
0001
0000
,
1001
0000
0000
0001
0000
0000
0100
0000
0001
0000
0000
0010
0000
0000
0001
0000
,
1000
0000
0000
0100
0000
0000
1000
0000
0010
1000
0000
0010
0100
0001
0100
0000
,
0010
0000
0000
0100
0000
0000
0010
0000
1000
0000
0000
0001
0000
0000
0010
0000
,
0100
0000
0000
0010
0000
0000
0001
0000
1000
0000
0000
0000
0001
0000
0100
0000
,
0101
0000
0000
0010
0000
0000
1000
0000
1100
0000
0000
0100
0000
0000
0010
0000
,
0011
0000
0000
0001
0000
0000
1000
0000
0100
0000
0100
0000
0010
0000
0100
0000
,
1100
0000
0000
1000
0000
0000
0001
0000
0101
0000
0000
0001
0000
0000
1000
0000
,
2002
0000
3003
0000
0220
0000
0330
0000
0001
1000
0001
1000
0001
1000
0001
1000
,
0001
0000
0100
0000
0001
0000
1000
0000
0100
0000
0010
0100
0000
1000
0000
0001
,
0000
0100
0001
0000
1000
0000
0100
0000
0010
0000
0010
0001
0000
1000
0000
0001
,
0100
0000
0010
1000
0010
1000
0010
0000
0100
0000
0001
1000
0000
0100
0000
0010
,
0100
0000
0100
0010
0000
0010
0001
0000
0001
0100
0000
0100
0010
1000
0000
0001
,
1000
0000
0100
0010
0100
0010
0100
0000
0010
0000
0001
0010
0000
0001
0000
1000
,
0000
0001
0100
0001
0100
0001
0100
0000
0010
1000
0001
0010
0000
0100
0000
1000
,
0001
0000
0100
0000
0000
0000
0010
0100
0001
0000
1000
0100
0000
0010
0000
0001
,
1000
0000
1000
0100
0000
0010
0001
0000
0001
0100
0000
0010
1000
0000
0001
0000
,
0010
0000
0100
0000
1000
0100
1000
0000
0001
0000
0100
0010
0000
1000
0000
0100
,
0000
0001
0100
0000
0010
0000
0001
0000
1000
0010
0000
0100
0000
0001
0000
1000
,
0100
0000
0010
0000
0001
0010
0001
0000
0010
0000
0100
0010
0000
0001
0000
0100
,
0010
0000
1000
0010
0000
0100
0001
0000
0001
0010
0000
0010
0100
0000
1000
0000
,
0001
0000
0100
0000
0010
0100
0010
0000
0100
0000
0001
1000
0000
0100
0000
0010
,
0100
0000
0010
0000
0001
1000
0010
0000
0100
0001
0100
0001
0000
0100
0000
0010
,
1000
0000
0100
0010
0100
0010
0100
0000
0010
0001
0000
0001
0000
1000
0000
0010
,
0100
0000
0000
0001
0100
0000
0001
0100
0010
1000
0001
1000
0001
0000
1000
0000
,
0001
0100
0000
0000
0010
0000
1000
0000
0100
0010
0000
0000
0100
0000
1000
0000
,
0001
0100
0000
0000
0010
0000
1000
0000
0100
0010
0000
0000
0010
0000
0001
0000
,
0100
0010
0000
0000
0100
0000
0001
0000
1000
0100
0000
0000
0010
0000
0001
0000
,
0100
0010
0000
0000
0100
0000
0001
0000
1000
0100
0000
0000
0010
0000
0100
0000
,
1000
0010
0000
0000
0100
0000
0001
0000
1000
0100
0000
0000
1000
0000
0010
0000
,
0100
0001
0000
0000
0010
0000
0100
0000
1000
0100
0000
0000
1000
0000
0010
0000
,
0100
0001
0000
0000
0001
0000
0010
0000
0100
1000
0000
0000
0001
0000
1000
0000
,
0000
0010
0000
0100
0000
0001
0100
0001
0000
0100
0000
0010
0000
1000
0100
0010
;

//---------------dance-single - ----------------
#NOTES:
     dance-single:
     :
     Medium:
     7:
     0.420,0.424,0.081,0.111,0.232:
0010
0000
0000
0000
1001
0000
0000
0000
0000
0000
0001
0000
0000
1000
0000
0000
,
0100
0000
0000
0000
1000
0000
0000
0000
0000
0000
0010
0000
0000
0100
0000
0000
,
0001
0000
0000
0000
0100
0000
0000
0000
0000
0000
0010
0000
0000
0010
0000
0000
,
0100
0000
0001
0000
0000
0000
0001
1000
,
0100
0000
0000
0000
1000
0000
0000
0000
0000
0000
0100
0000
0000
0100
0000
0000
,
0010
0000
0000
0000
0001
0000
0000
0000
0000
0000
1000
0000
0000
0001
0000
0000
,
0100
0000
0000
0000
0001
0000
0000
0000
0000
0000
0100
0000
0000
0001
0000
0000
,
1000
0100
0020
0000
,
0031
0000
0000
0100
0000
0000
0001
0000
1000
0000
0000
0001
0000
0000
0010
0000
,
0001
0000
0000
1000
0000
0000
0001
0000
0100
0000
0010
0000
0100
0000
0000
0000
,
0002
0000
0003
0000
,
0000
0000
0000
0000
,
1000
0000
0000
0010
0000
0000
1000
0000
0001
0000
0000
1000
0000
0000
0100
0000
,
1000
0000
0000
0001
0000
0000
1000
0000
0010
0000
1000
0000
0010
0000
0000
0000
,
0200
0000
0000
0300
,
0020
0000
2030
0000
0002
0000
3003
0001
,
0001
0000
0000
0100
0000
0000
0001
0000
0100
0000
0000
1000
0000
0000
0100
0000
,
0010
0000
0000
1000
0000
0000
0010
0000
0100
0000
0000
0000
0002
0000
0000
0000
,
2000
0000
0000
3003
,
0000
0000
0000
0000
,
1000
0000
0000
0100
0000
0000
0010
0000
0100
0000
0000
1000
0000
0000
0010
0000
,
0100
0000
0000
0001
0000
0000
1000
0000
0010
0000
0000
0000
0100
0000
0000
0000
,
0002
0000
0000
0003
,
2000
0000
3200
0000
0320
0000
0000
0030
,
0100
0000
0000
0100
0000
0000
0100
0000
0010
0000
0000
0010
0000
0000
0010
0000
,
0001
0000
0000
0001
0000
0000
0001
0000
1000
0000
0000
1000
0000
0000
1000
0000
,
0001
0000
0000
1000
0000
0000
0001
0000
1000
0000
0000
0001
0000
0000
1000
0000
,
0010
0000
0000
0100
0000
0000
0010
0000
0100
0000
0000
0010
0000
0000
0100
0000
,
0010
0000
0000
1000
0000
0000
0001
0000
0100
0000
0000
0010
0000
0000
1000
0000
,
0001
0000
0000
0100
0000
0000
0010
0000
1000
0000
0000
0001
0000
0000
0100
0000
,
0001
0000
0000
0010
0000
0000
0100
0000
1000
0000
0000
0100
0000
0000
0001
0000
,
0100
0000
0000
1000
0000
0000
0010
0000
0100
0000
0000
0001
0000
0000
1000
0000
,
0001
0000
0000
0001
0000
0000
0100
0000
0001
0000
0000
0001
0000
0000
0100
0000
,
0010
0000
0000
0010
0000
0000
0100
0000
0001
0000
0100
0000
0001
0000
0100
0000
,
0010
0000
0000
0010
0000
0000
0000
0000
0100
0000
0000
0100
0000
0000
0000
0000
,
0010
0000
0000
0010
0000
0000
0000
0000
1000
0000
0001
0000
1000
0000
0001
0000
,
1000
0000
0000
0100
0000
0000
0000
0000
1000
0000
0000
0010
0000
0000
0000
0000
,
0100
0000
0000
0001
0000
0000
0000
0000
0100
0000
0010
0000
1000
0000
0001
0000
,
1000
0000
0000
1000
0000
0000
0000
0000
0100
0000
0000
0100
0000
0000
0000
0000
,
1000
0000
0000
1000
0000
0000
0000
0000
0100
0000
1000
0000
0100
0000
0010
0000
,
0001
0000
0000
0001
0000
0000
0010
0000
0100
0000
0000
0010
0000
0000
0001
0000
,
1000
0000
0000
0010
0000
0000
0100
0000
0001
0000
0100
0000
1000
0000
0100
0000
,
0010
0000
0000
0010
0000
0000
0100
0000
0001
0000
0000
0001
0000
0000
0100
0000
,
1000
0000
0000
1000
0000
0000
1000
0000
0100
0000
0010
0000
1000
0000
0001
0000
,
1000
0000
0000
1000
0000
0000
0001
0000
0100
0000
0000
0100
0000
0000
0001
0000
,
1000
0000
0000
1000
0000
0000
1000
0000
0100
0000
0010
0000
0001
0000
0010
0000
,
0001
0000
0000
0001
0000
0000
0010
0000
0100
0000
0000
0100
0000
0000
0100
0000
,
0110
0000
1001
0000
0220
0000
0000
0330
,
0010
0000
0100
0000
0010
1000
0001
1000
,
0001
0000
0101
0000
0001
0100
0001
0100
,
0010
0000
1010
0000
0010
0100
0001
1000
,
0001
0000
0011
0000
0001
0010
0100
0010
,
0001
0000
1001
0000
0001
1000
0010
0100
,
0001
0000
0101
0000
0001
0100
0010
1000
,
0100
0000
0110
0000
0100
1000
0010
0001
,
0010
0000
0110
0000
0100
0001
1000
0000
,
0001
1000
0000
0010
1000
0010
0100
0010
,
0100
0001
1000
0010
0100
0001
1000
0010
,
0100
0100
0000
0010
1000
0001
0010
0100
,
1000
0000
0000
0100
0000
0000
0010
0000
0000
0001
0000
0000
0010
0000
0001
0000
,
0100
0010
0000
0100
0010
1000
0001
1000
,
0001
0100
0001
0100
0010
1000
0010
1000
,
0010
0100
0000
0000
0000
0000
0010
0000
0100
0000
0001
0000
1000
0000
0010
0000
,
0100
0000
0000
0001
0000
0000
1000
0000
0000
0100
0000
0000
0010
0000
0001
0000
,
0010
0000
0001
0100
0010
0000
0100
0010
,
1000
0000
1000
0100
0010
0000
0100
1000
,
0010
0000
0100
0010
1000
0000
1000
0010
,
0100
0000
0100
0001
1000
0000
1000
0100
,
0010
0000
0010
0100
1000
0000
1000
0010
,
0100
0000
0100
0001
0100
0000
0001
0010
,
0100
0000
0000
0000
0100
0000
0010
0000
0001
0000
0000
0000
1000
0000
0010
0200
,
0000
0000
0000
0000
,
0300
0000
0000
0000
;

//---------------dance-single - ----------------
#NOTES:
     dance-single:
     :
     Easy:
     4:
     0.264,0.371,0.044,0.066,0.000:
1001
0000
0000
0001
,
1000
0000
0100
1000
,
0010
0000
0000
0000
,
0100
0000
0000
0001
,
0001
1000
0100
0000
,
0100
1000
0010
0000
,
0200
0000
0300
0000
,
0010
0010
2000
3000
,
0001
1000
0100
1000
,
0010
0100
0001
0010
,
0200
0000
0300
0000
,
0000
0000
0000
0000
,
0010
0001
1000
0010
,
0100
0001
1000
0100
,
0020
0000
0000
0030
,
0100
0100
0200
0000
,
1300
0010
0001
0010
,
0100
0001
1000
0100
,
2000
0000
0000
3000
,
0000
0000
0000
0001
,
1000
0001
0100
0010
,
1000
0010
0100
0100
,
0200
0000
0300
0000
,
0001
0100
0020
0000
,
0130
0001
0100
0001
,
0100
0010
0100
0010
,
1000
0010
1000
0010
,
1000
0001
1000
0001
,
1000
0100
1000
0001
,
0100
0001
1000
0100
,
1000
0010
1000
0001
,
0010
0001
1000
0010
,
0100
0001
0010
0100
,
1000
0000
0010
0000
0100
0010
0100
0000
,
0010
0100
0001
1000
,
0100
0000
1000
0000
0010
1000
0010
0000
,
1000
0010
0100
0001
,
1000
0000
0100
0000
0010
0001
0010
0000
,
0001
0100
0010
0100
,
0001
0000
1000
0000
0100
0000
1000
0010
,
0100
0010
0100
0010
,
1000
0000
0010
0000
1000
0000
0010
1000
,
0100
1000
0100
1000
,
0100
0010
0001
0010
,
0100
0010
0001
0100
,
0010
1000
0010
0100
,
0001
0001
1000
1000
,
1001
0110
1001
0110
,
1001
0001
0100
0001
,
1000
0100
0010
0100
,
1000
0010
0001
0010
,
0100
0100
0010
0010
,
0100
0001
1000
0100
,
1000
0010
0100
0001
,
0010
0000
0010
0001
,
1000
1000
1000
1000
,
0001
0000
0001
0100
,
0001
1000
0100
1000
,
0010
0000
0100
0010
,
0100
0001
1000
0100
,
1000
0000
0100
0010
,
0100
1000
0010
0100
,
0001
0000
0001
0100
,
0010
0100
0001
1000
,
0001
0000
1000
0000
,
0001
0000
1000
0000
,
0010
0000
1000
0000
,
0010
0000
1000
0000
,
0010
0000
0100
0000
,
0001
0000
1000
0000
,
0100
0000
0010
0000
,
0002
0000
0000
0000
,
0003
0000
0000
0000
;

//---------------dance-single - ----------------
#NOTES:
     dance-single:
     :
     Beginner:
     2:
     0.132,0.212,0.029,0.044,0.000: // measure 1
0001
0000
0000
0000
,  // measure 2
1000
0000
0001
0000
,  // measure 3
0100
0000
0000
0000
,  // measure 4
0000
0000
0000
0000
,  // measure 5
0001
0000
0000
0000
,  // measure 6
0100
0000
0010
0000
,  // measure 7
1000
0000
0000
0000
,  // measure 8
0001
0001
0001
0000
,  // measure 9
1001
0000
0000
0000
,  // measure 10
0001
0000
0100
0000
,  // measure 11
0020
0000
0030
0000
,  // measure 12
0000
0000
0000
0000
,  // measure 13
0100
0000
0000
0000
,  // measure 14
0001
0000
1000
0000
,  // measure 15
0002
0000
0003
0000
,  // measure 16
1000
1000
1000
0000
,  // measure 17
0010
0000
0000
0000
,  // measure 18
0100
0000
0001
0000
,  // measure 19
2000
0000
3000
0000
,  // measure 20
0000
0000
0000
0000
,  // measure 21
0100
0000
0000
0000
,  // measure 22
1000
0000
0010
0000
,  // measure 23
0200
0000
0300
0000
,  // measure 24
0001
0100
0001
0000
,  // measure 25
1000
0000
1000
0000
,  // measure 26
1000
0000
1000
0000
,  // measure 27
0001
0000
0001
0000
,  // measure 28
0001
0000
0001
0000
,  // measure 29
0100
0000
0010
0000
,  // measure 30
0100
0000
0010
0000
,  // measure 31
0100
0000
0001
0000
,  // measure 32
1000
0000
0100
0000
,  // measure 33
0110
0000
0000
0000
,  // measure 34
0100
0000
0010
0010
,  // measure 35
0001
0000
0000
0000
,  // measure 36
0001
0000
1000
0000
,  // measure 37
0010
0000
0000
0000
,  // measure 38
0100
0000
0010
0000
,  // measure 39
0100
0000
0000
0000
,  // measure 40
0001
0000
0001
0000
,  // measure 41
1001
0000
0000
0000
,  // measure 42
1000
0000
0100
0000
,  // measure 43
1000
0000
0000
0000
,  // measure 44
0010
0000
0100
0001
,  // measure 45
0001
0000
0000
0000
,  // measure 46
1000
0000
0000
0000
,  // measure 47
0010
0000
0100
0000
,  // measure 48
0010
0010
0020
0030
,  // measure 49
0110
0000
0100
0000
,  // measure 50
0001
0000
0000
0000
,  // measure 51
1000
0000
0100
0000
,  // measure 52
0010
0000
0000
0000
,  // measure 53
0100
0000
0010
0000
,  // measure 54
0001
0000
0000
0000
,  // measure 55
1000
0000
0001
0000
,  // measure 56
0100
0000
0000
0000
,  // measure 57
0001
0000
1000
0000
,  // measure 58
0001
0000
0000
0000
,  // measure 59
0100
0000
0010
0000
,  // measure 60
0100
0000
0000
0000
,  // measure 61
0001
0000
0100
0000
,  // measure 62
1000
0000
0000
0000
,  // measure 63
1000
0000
0100
0000
,  // measure 64
0010
0000
0000
0000
,  // measure 65
1000
0000
1000
0000
,  // measure 66
1000
0000
1000
0000
,  // measure 67
0010
0000
0010
0000
,  // measure 68
0010
0000
0010
0000
,  // measure 69
0100
0000
0100
0000
,  // measure 70
0100
0000
0100
0000
,  // measure 71
0001
0000
0001
0000
,  // measure 72
0020
0000
0000
0000
,  // measure 73
0030
0000
0000
0000
;
