#TITLE:GREEN EYES;
#SUBTITLE:;
#ARTIST:SLAKE;
#TITLETRANSLIT:;
#SUBTITLETRANSLIT:;
#ARTISTTRANSLIT:;
#CREDIT:;
#BANNER:GREEN EYES.png;
#BACKGROUND:GREEN EYES-background.png;
#JACKET:GREEN EYES-jacket.png:
#LYRICSPATH:;
#CDTITLE:;
#MUSIC:GREEN EYES.mp3;
#OFFSET:-11.704;
#SAMPLESTART:35.650;
#SAMPLELENGTH:12.000;
#SELECTABLE:YES;
#BPMS:0.000=170.000;
#STOPS:31.000=1.412
;
#BGCHANGES:;

//---------------dance-single - ----------------
#NOTES:
     dance-single:
     :
     Hard:
     8:
     0.531,0.643,0.663,0.471,0.231: // measure 1
0001
0200
0000
0300
,  // measure 2
0010
2000
0000
3000
,  // measure 3
0001
2000
0000
3000
,  // measure 4
0100
2000
0000
3000
,  // measure 5
0100
0020
0000
0030
,  // measure 6
0100
0020
0000
0030
,  // measure 7
0001
2000
0000
3000
,  // measure 8
0001
0200
0000
0301
,  // measure 9
0001
0000
0000
0000
0100
0000
0000
0000
1010
0000
0000
1010
0000
0000
1010
0000
,  // measure 10
0000
0000
0010
0000
0000
0100
0000
0000
0001
0000
0010
0000
0000
0000
0000
0000
,  // measure 11
0100
0000
0000
0000
1000
0000
0000
0000
1001
0000
0000
0101
0000
0000
1001
0000
,  // measure 12
0000
1000
0100
0010
0001
1000
0200
0000
,  // measure 13
0310
0000
0000
0000
0001
0000
0000
0000
0101
0000
0000
1001
0000
0000
0011
0000
,  // measure 14
0000
0000
0001
0000
0000
0100
0000
0000
0010
0000
0000
1000
0000
0000
0001
0000
,  // measure 15
1000
0000
0000
0000
0100
0000
0000
0000
0110
0000
0000
0011
0000
0000
1001
0000
,  // measure 16
1000
0001
0100
1000
0100
0010
0100
0000
,  // measure 17
0001
0100
0020
0000
1000
0000
0130
0000
,  // measure 18
0100
0010
2000
0000
0001
0000
3100
0000
,  // measure 19
0100
0010
0002
0000
0010
0000
0103
0000
,  // measure 20
0100
0010
2000
0000
0010
0000
3100
0000
,  // measure 21
0100
0010
0002
0000
0010
0000
1003
0000
,  // measure 22
1000
0010
0200
0000
0010
0000
0301
0000
,  // measure 23
0001
1000
0020
0000
0100
0000
1030
0000
,  // measure 24
1000
0001
0020
0000
0100
0000
0001
0000
,  // measure 25
0031
0000
0200
0000
0000
0000
0000
0300
,  // measure 26
0000
0000
0200
0000
0000
0000
0000
0300
,  // measure 27
0000
0000
0200
0000
0000
0000
0000
0300
,  // measure 28
0000
0000
0200
0000
0000
0000
0000
0300
,  // measure 29
0001
0000
0000
0000
1001
0000
0000
0000
1001
0000
0000
0011
0000
0000
1001
0000
,  // measure 30
0000
0000
0001
0000
0000
1000
0000
0000
0100
0000
0010
0000
0000
0000
0000
0000
,  // measure 31
0100
0000
0000
0000
1100
0000
0000
0000
1001
0000
0000
0011
0000
0000
0101
0000
,  // measure 32
0000
0001
0100
0100
0001
1000
2000
0000
,  // measure 33
3010
0000
0000
0000
0101
0000
0000
0000
0011
0000
0000
1100
0000
0000
1001
0000
,  // measure 34
0000
0000
0001
0000
0000
0001
0000
0000
1000
0000
0000
1000
0000
0000
0010
0000
,  // measure 35
0100
0000
0000
0000
1010
0000
0000
0000
1001
0000
0000
0011
0000
0000
0110
0000
,  // measure 36
0100
0000
0010
0000
0001
0010
0000
0100
1000
0000
0001
0000
1000
0000
0000
0000
,  // measure 37
0001
0000
0000
0000
0110
0000
0000
0000
1010
0000
0000
0101
0000
0000
1001
0000
,  // measure 38
0000
0000
0001
0000
0000
0100
0000
0000
0001
0000
1000
0000
0000
0000
0000
0000
,  // measure 39
0100
0000
0000
0000
0110
0000
0000
0000
1100
0000
0000
0011
0000
0000
1001
0000
,  // measure 40
0000
0001
0010
0001
0100
1000
0200
0000
,  // measure 41
0310
0000
0000
0000
1010
0000
0000
0000
1001
0000
0000
1100
0000
0000
1001
0000
,  // measure 42
0000
0000
0001
0000
0000
1000
0000
0000
0010
0000
0000
1000
0000
0000
0100
0000
,  // measure 43
0010
0000
0000
0000
0011
0000
0000
0000
1100
0000
0000
0101
0000
0000
1001
0000
,  // measure 44
0001
0000
0100
0000
0010
1000
0000
1000
0010
0000
0100
0000
0001
0000
0000
0000
,  // measure 45
1000
0000
0000
0000
0101
0000
0000
0000
1001
0000
0000
0101
0000
0000
1001
0000
,  // measure 46
0000
0000
0001
0000
0000
0100
0000
0000
0001
0000
0000
0100
0000
0000
0010
0000
,  // measure 47
0100
0000
0000
0000
1010
0000
0000
0000
1100
0000
0000
0110
0000
0000
1100
0000
,  // measure 48
0000
0000
1000
0000
0001
0000
0010
0000
0002
0000
0000
0200
0000
0003
0020
0000
,  // measure 49
0000
0000
0000
0330
0110
0000
0000
0000
1001
0000
0000
1010
0000
0000
0011
0000
,  // measure 50
0000
0000
0010
0000
0000
0100
0000
0000
0010
0000
0000
0001
0000
0000
1000
0000
,  // measure 51
0010
0000
0110
0000
1001
0002
0000
0203
,  // measure 52
0000
0320
0000
2030
0000
3200
0000
0320
,  // measure 53
0001
0000
0000
0000
0130
0000
0000
0000
0110
0000
0000
0110
0000
0000
0110
0000
,  // measure 54
0000
0000
0000
0000
,  // measure 55
0001
0000
0000
0000
0101
0000
0000
0000
1001
0000
0000
1001
0000
0000
1001
0000
,  // measure 56
0000
2000
0000
0000
3002
0000
0000
0203
0000
0000
0302
0000
0000
0023
0000
0000
,  // measure 57
0130
0000
0000
0000
0110
0000
0000
0000
0011
0000
0000
1100
0000
0000
1001
0000
,  // measure 58
0000
0000
1000
0000
0000
0001
0000
0000
0100
0000
0000
0001
0000
0000
1000
0000
,  // measure 59
2000
0000
0000
3200
0000
0000
0320
0000
0000
0032
0000
0000
0023
0000
0000
0230
,  // measure 60
0000
0000
2300
0000
0000
3002
0000
0000
0203
0000
0000
0302
0000
0000
2003
0000
,  // measure 61
0000
0000
3000
0000
0000
0000
0000
0001
0000
0000
0000
0000
0000
0000
0000
0000
,  // measure 62
0000
0000
1000
0000
0000
0000
0000
0000
0000
0000
0000
0000
0000
0000
0000
0001
0000
0000
0000
0000
0000
0000
0000
0000
,  // measure 63
0000
0000
0200
0000
,  // measure 64
0000
0000
0000
0300
;

//---------------dance-single - ----------------
#NOTES:
     dance-single:
     :
     Medium:
     6:
     0.346,0.398,0.029,0.231,0.154: // measure 1
0010
0200
0000
0300
,  // measure 2
0010
2000
0000
3000
,  // measure 3
0010
0200
0000
0300
,  // measure 4
0010
2000
0000
3000
,  // measure 5
0010
2000
0000
0000
,  // measure 6
3010
0200
0000
0000
,  // measure 7
0310
2000
0000
0000
,  // measure 8
3010
0200
0000
0300
,  // measure 9
0001
0000
0000
0000
1000
0000
0000
0000
0001
0000
0000
0100
0000
0000
0001
0000
,  // measure 10
0000
0000
0000
0000
0000
0100
0000
0000
,  // measure 11
0000
0000
0000
0000
0010
0000
0000
0000
1000
0000
0000
0010
0000
0000
1000
0000
,  // measure 12
0000
0000
0000
0020
,  // measure 13
0130
0000
0000
0000
0010
0000
0000
0000
1000
0000
0000
0010
0000
0000
0100
0000
,  // measure 14
0000
0000
0010
0000
0000
1000
0000
0000
0001
0000
0000
0010
0000
0000
0100
0000
,  // measure 15
0010
0000
0000
0000
0001
0000
0000
0000
0100
0000
0000
0001
0000
0000
1000
0000
,  // measure 16
0001
0100
0010
0100
0001
1000
0001
0000
,  // measure 17
1000
0010
0200
0000
0000
0000
0000
0000
,  // measure 18
0310
1000
0002
0000
0000
0000
0000
0000
,  // measure 19
0013
0100
2000
0000
0000
0000
0000
0000
,  // measure 20
3100
1000
0020
0000
0000
0000
0000
0000
,  // measure 21
0130
0001
0020
0000
0000
0000
0000
0000
,  // measure 22
0130
1000
0020
0000
0000
0000
0000
0000
,  // measure 23
0130
0001
2000
0000
0000
0000
0000
0000
,  // measure 24
3001
0010
0200
0000
0000
0000
0000
0000
,  // measure 25
0310
0000
0002
0000
0000
0000
0000
0003
,  // measure 26
0000
0000
0002
0000
0000
0000
0000
0003
,  // measure 27
0000
0000
0002
0000
0000
0000
0000
0003
,  // measure 28
0000
0002
0000
0003
,  // measure 29
1001
0000
0000
0000
0001
0000
0000
0000
0100
0000
0000
0100
0000
0000
0100
0000
,  // measure 30
0000
0000
0000
0000
0000
0010
0000
0000
,  // measure 31
0100
0000
0000
0000
0010
0000
0000
0000
1000
0000
0000
0010
0000
0000
0100
0000
,  // measure 32
0000
0000
0000
0020
,  // measure 33
1030
0000
0000
0000
0010
0000
0000
0000
0100
0000
0000
0001
0000
0000
0100
0000
,  // measure 34
0000
0000
0001
0000
0000
1000
0000
0000
0100
0000
0000
0010
0000
0000
0001
0000
,  // measure 35
0010
0000
0000
0000
0001
0000
0000
0000
0100
0000
0000
0100
0000
0000
0001
0000
,  // measure 36
1000
0000
0100
0000
0010
0001
0011
0000
,  // measure 37
0001
0000
0000
0000
0100
0000
0000
0000
0010
0000
0000
0010
0000
0000
0010
0000
,  // measure 38
0000
0000
0000
0000
0000
1001
0000
0000
,  // measure 39
0001
0000
0000
0000
1000
0000
0000
0000
0100
0000
0000
0100
0000
0000
0100
0000
,  // measure 40
0000
0000
1000
0000
0010
0100
0010
0000
,  // measure 41
0100
0000
0000
0000
0010
0000
0000
0000
1000
0000
0000
0010
0000
0000
0100
0000
,  // measure 42
0000
0000
0010
0000
0000
0100
0000
0000
0010
0000
0000
0100
0000
0000
0010
0000
,  // measure 43
1000
0000
0000
0000
0001
0000
0000
0000
0010
0000
0000
0100
0000
0000
1000
0000
,  // measure 44
0100
1000
0100
0010
0001
0010
0001
0000
,  // measure 45
0001
0000
0000
0000
0100
0000
0000
0000
0010
0000
0000
0100
0000
0000
0001
0000
,  // measure 46
1000
0100
1000
0010
,  // measure 47
0100
0000
0000
0000
0010
0000
0000
0000
1000
0000
0000
0010
0000
0000
0100
0000
,  // measure 48
0010
0000
0100
0000
0010
0100
0010
0000
,  // measure 49
0100
0000
0000
0000
0001
0000
0000
0000
1000
0000
0000
1000
0000
0000
1000
0000
,  // measure 50
0000
0000
0001
0000
0000
0100
0000
0000
0001
0000
0000
0100
0000
0000
0010
0000
,  // measure 51
1000
0000
0000
0000
0010
0000
0000
0000
0100
0000
0000
0010
0000
0000
1000
0000
,  // measure 52
0001
1000
0100
1000
0010
0100
0001
0000
,  // measure 53
1000
0000
0000
0000
0010
0000
0000
0000
0100
0000
0000
0100
0000
0000
0010
0000
,  // measure 54
0000
0000
0000
0000
,  // measure 55
0010
0000
0000
0000
0100
0000
0000
0000
0001
0000
0000
0001
0000
0000
0001
0000
,  // measure 56
0000
0000
0000
0000
,  // measure 57
1000
0000
0000
0000
0100
0000
0000
0000
1000
0000
0000
0100
0000
0000
1000
0000
,  // measure 58
0000
0000
0100
0000
0000
0100
0000
0000
0010
0000
0000
0010
0000
0000
0010
0000
,  // measure 59
0001
0000
0000
0000
0010
0000
0000
0000
0001
0000
0000
0100
0000
0000
0010
0000
,  // measure 60
1000
0001
0010
0100
0010
0001
1000
2000
,  // measure 61
0000
0000
3000
0000
0000
0000
0000
0001
0000
0000
0000
0000
0000
0000
0000
0000
,  // measure 62
0000
0000
1000
0000
0000
0000
0000
0000
0000
0000
0000
0000
0000
0000
0000
0001
0000
0000
0000
0000
0000
0000
0000
0000
,  // measure 63
0000
0000
0200
0000
,  // measure 64
0000
0000
0000
0300
;

//---------------dance-single - ----------------
#NOTES:
     dance-single:
     :
     Easy:
     3:
     0.281,0.306,0.058,0.279,0.000: // measure 1
0010
0200
0000
0300
,  // measure 2
0010
2000
0000
3000
,  // measure 3
0010
0200
0000
0300
,  // measure 4
0010
2000
0000
3000
,  // measure 5
0001
0020
0000
0030
,  // measure 6
0001
0020
0000
0030
,  // measure 7
0001
0200
0000
0300
,  // measure 8
0001
0200
0000
0300
,  // measure 9
0110
0010
0100
0100
,  // measure 10
0000
0000
0000
0000
0000
0010
0000
0000
,  // measure 11
0100
0001
1000
1000
,  // measure 12
0000
0000
0000
0001
,  // measure 13
0100
0010
1000
1000
,  // measure 14
0010
0100
0001
1000
,  // measure 15
0100
1000
0010
0010
,  // measure 16
0100
0001
1000
0010
,  // measure 17
0100
0002
0000
0000
,  // measure 18
0103
0020
0000
0000
,  // measure 19
0130
2000
0000
0000
,  // measure 20
3100
0020
0000
0000
,  // measure 21
0130
2000
0000
0000
,  // measure 22
3010
0200
0000
0000
,  // measure 23
0301
0020
0000
0000
,  // measure 24
0130
0000
2000
0000
0000
0000
0000
3000
,  // measure 25
0000
0000
2002
0000
0000
0000
0000
3003
,  // measure 26
0000
0000
2002
0000
0000
0000
0000
3003
,  // measure 27
0000
0000
2002
0000
0000
0000
0000
3003
,  // measure 28
0000
0000
2002
0000
0000
0000
0000
3003
,  // measure 29
0110
0010
0100
0100
,  // measure 30
0000
0000
0000
0000
0000
0010
0000
0000
,  // measure 31
0100
0001
1000
1000
,  // measure 32
0000
0000
0000
0002
,  // measure 33
0013
0001
0100
0100
,  // measure 34
0001
1000
0100
0001
,  // measure 35
0100
0010
0001
0010
,  // measure 36
0001
0100
0010
1000
,  // measure 37
0010
0100
0001
0001
,  // measure 38
0000
0000
0000
0000
0000
1000
0000
0000
,  // measure 39
0010
0100
0001
0001
,  // measure 40
0100
0010
1000
0010
,  // measure 41
0100
0010
1000
0001
,  // measure 42
0010
1000
0010
0100
,  // measure 43
1000
0100
0010
0001
,  // measure 44
0010
0000
0001
0000
0100
0001
0100
0000
,  // measure 45
0001
0100
0010
0010
,  // measure 46
0000
0000
0000
0000
,  // measure 47
0100
0010
1000
1000
,  // measure 48
0000
0000
0002
0000
,  // measure 49
1003
0100
0010
0010
,  // measure 50
0100
1000
0010
0100
,  // measure 51
0001
0100
0010
1000
,  // measure 52
0010
0010
0100
0100
,  // measure 53
0010
1000
0001
0001
,  // measure 54
0000
0000
0000
0000
,  // measure 55
1000
0001
0100
0100
,  // measure 56
0002
0000
0000
0000
,  // measure 57
0013
0100
0010
0010
,  // measure 58
0001
0010
0100
0010
,  // measure 59
0001
0010
1000
0010
,  // measure 60
0100
1000
0010
0100
,  // measure 61
0002
0000
0000
0000
,  // measure 62
0000
0000
0000
0000
,  // measure 63
0000
0000
2000
0000
,  // measure 64
0000
0000
0000
3003
;

//---------------dance-single - ----------------
#NOTES:
     dance-single:
     :
     Beginner:
     1:
     0.097,0.120,0.019,0.000,0.000: // measure 1
0001
0000
0000
0000
,  // measure 2
0001
0000
0000
0000
,  // measure 3
0100
0000
0000
0000
,  // measure 4
0100
0000
0000
0000
,  // measure 5
0010
0000
0000
0000
,  // measure 6
0010
0000
0000
0000
,  // measure 7
1000
0000
0000
0000
,  // measure 8
1000
0000
0000
0000
,  // measure 9
0001
0000
1000
0000
,  // measure 10
0000
0000
0000
0000
,  // measure 11
1000
0000
0001
0000
,  // measure 12
0000
0000
0000
0100
,  // measure 13
0100
0000
0010
0000
,  // measure 14
0000
0000
0000
0000
,  // measure 15
0100
0000
0010
0000
,  // measure 16
0000
0000
0000
0000
,  // measure 17
0010
0010
0000
0000
,  // measure 18
0000
1000
0000
0000
,  // measure 19
0000
0001
0000
0000
,  // measure 20
0000
0001
0000
0000
,  // measure 21
0000
0010
0000
0000
,  // measure 22
0000
0010
0000
0000
,  // measure 23
0000
0001
0000
0000
,  // measure 24
0000
0001
0000
0000
,  // measure 25
1000
1000
0000
0000
,  // measure 26
0000
1000
0000
0000
,  // measure 27
0000
1000
0000
0000
,  // measure 28
0000
1000
0000
0000
,  // measure 29
1001
0000
0000
0000
,  // measure 30
0000
0000
0000
0000
,  // measure 31
0110
0000
0000
0000
,  // measure 32
0000
0000
0000
0010
,  // measure 33
0010
0000
0000
0000
,  // measure 34
0100
0000
0000
0000
,  // measure 35
0001
0000
0000
0000
,  // measure 36
1000
0000
0000
0000
,  // measure 37
0001
0001
0000
0000
,  // measure 38
0000
0000
0000
0000
,  // measure 39
1000
1000
0000
0000
,  // measure 40
0000
0000
0000
0010
,  // measure 41
0010
0000
0000
0000
,  // measure 42
0100
0000
0010
0000
,  // measure 43
0100
0000
0010
0000
,  // measure 44
1000
0000
0000
0000
,  // measure 45
0001
0000
1000
0000
,  // measure 46
0000
0000
0000
0000
,  // measure 47
0100
0000
0010
0000
,  // measure 48
0000
0000
0001
0000
,  // measure 49
1000
0000
1000
0000
,  // measure 50
0000
0000
0000
0000
,  // measure 51
0001
0000
0100
0000
,  // measure 52
0001
0000
0000
0000
,  // measure 53
1000
0000
0001
0000
,  // measure 54
0000
0000
0000
0000
,  // measure 55
0100
0000
0001
0000
,  // measure 56
0000
0000
0000
0000
,  // measure 57
1000
0000
1000
0000
,  // measure 58
0000
0000
0000
0000
,  // measure 59
0100
0000
0010
0000
,  // measure 60
0000
0000
0000
0000
,  // measure 61
0001
0000
0000
0000
,  // measure 62
0000
0000
0000
0000
,  // measure 63
0000
0000
1000
0000
;
