#TITLE:Fractured Fractions;
#SUBTITLE:;
#ARTIST:SEAMOON;
#TITLETRANSLIT:;
#SUBTITLETRANSLIT:;
#ARTISTTRANSLIT:;
#CREDIT:;
#BANNER:Fractured Fractions.png;
#BACKGROUND:Fractured Fractions-background.png;
#JACKET:Fractured Fractions-jacket.png;
#LYRICSPATH:;
#CDTITLE:;
#MUSIC:Fractured Fractions.mp3;
#OFFSET:-0.027;
#SAMPLESTART:65.420;
#SAMPLELENGTH:12.000;
#SELECTABLE:YES;
#BPMS:0.000=88.000;
#STOPS:126.000=0.682
;
#BGCHANGES:;

//---------------dance-single - ----------------
#NOTES:
     dance-single:
     :
     Hard:
     6:
     0.295,0.339,0.089,0.065,0.113: // measure 1
0000
0000
0000
0000
,  // measure 2
0000
0000
0000
0000
,  // measure 3
0000
0000
0000
0000
,  // measure 4
0000
0000
0000
0000
,  // measure 5
0001
0100
1010
0000
1000
0100
0011
0000
,  // measure 6
0001
0010
1100
0000
1000
0010
0101
0000
,  // measure 7
0001
1000
0110
0000
0100
0010
1001
0000
,  // measure 8
0001
0010
0110
0000
0010
0100
1001
0000
,  // measure 9
2000
0100
3200
0010
,  // measure 10
0320
0032
0010
0100
,  // measure 11
1000
1003
0100
1000
,  // measure 12
0010
0001
0010
0100
,  // measure 13
1001
0001
0100
0000
0100
1000
0100
0000
,  // measure 14
0010
0001
1000
0000
0100
0001
0100
0000
,  // measure 15
0010
0100
1000
0000
0100
0001
0100
0000
,  // measure 16
0100
0010
0001
0000
0001
0100
1000
0000
,  // measure 17
0100
0010
1000
0000
0100
0010
0001
0000
,  // measure 18
0001
0010
1000
0000
1000
0010
0100
0010
,  // measure 19
0001
1000
0100
0000
0100
1000
0010
0000
,  // measure 20
0100
0010
1000
0000
0001
0010
0200
0000
,  // measure 21
0310
0100
1000
0000
0100
0010
0001
0000
,  // measure 22
1000
0001
0100
0000
0001
0100
1000
0100
,  // measure 23
0010
1000
0010
0100
0001
0010
0100
0010
0001
0000
0000
0000
1000
0000
0000
0000
,  // measure 24
0010
0100
0001
0000
0001
0010
0200
0000
,  // measure 25
1300
0000
0100
0000
0010
0000
0000
0001
0010
0000
0001
0000
1000
0000
0000
0000
,  // measure 26
0010
0000
0100
0000
0001
0000
0000
1000
0010
0000
0100
0000
0010
0000
0000
0000
,  // measure 27
0100
0000
0001
0000
1000
0000
0000
0100
0010
0000
0100
0000
1000
0000
0000
0000
,  // measure 28
0001
0000
0100
0000
0010
0000
0000
0100
0001
0000
1000
0000
0100
0000
0000
0000
,  // measure 29
0010
0100
1000
0000
0001
0000
0000
0100
0001
0000
0010
0000
0001
0000
0010
0000
,  // measure 30
0010
0100
1000
0010
0100
0001
1001
0010
,  // measure 31
0010
0100
1000
0010
0100
0001
1001
0010
,  // measure 32
0010
0000
0100
0000
1000
0000
0010
0000
0100
0000
0000
0000
1000
0100
0010
0100
,  // measure 33
1000
0100
0010
0001
1000
0000
0000
0000
0001
0000
0000
0000
2000
0000
0000
0000
,  // measure 34
0100
0010
0001
0100
,  // measure 35
0010
0001
0010
0001
,  // measure 36
0010
0100
0010
3002
,  // measure 37
0000
0103
0000
0001
,  // measure 38
0000
1000
0000
0100
,  // measure 39
0000
0000
0100
1000
0000
0000
0000
1000
0000
0000
0000
0000
0010
0000
0000
0010
,  // measure 40
0000
0000
0100
0001
0100
0000
0000
0001
0000
0000
0000
0000
1000
0000
0000
0001
,  // measure 41
0000
0000
1000
0100
1000
0000
0000
0100
0000
0000
0010
0000
0001
0000
0000
0010
,  // measure 42
0000
0000
0100
0010
0100
0000
0000
0100
0000
0000
0010
0000
0001
0000
0000
0001
,  // measure 43
0000
0000
1000
0001
1000
0000
0000
0001
0000
0000
0100
0000
0010
0000
0000
0000
,  // measure 44
0000
0010
0000
0010
,  // measure 45
0000
0010
0000
0000
;

//---------------dance-single - ----------------
#NOTES:
     dance-single:
     :
     Medium:
     4:
     0.238,0.285,0.048,0.097,0.000:
0000
0000
0000
0000
,
0000
0000
0000
0000
,
0000
0000
0000
0000
,
0000
0000
0000
0000
,
1000
0100
0010
0000
0100
1000
0010
0000
,
0100
0001
0100
0000
0010
0100
0010
0000
,
1000
0010
0100
0000
0010
1000
0001
0000
,
0010
0100
1000
0000
0100
0010
0001
0000
,
2000
0000
3002
0000
,
0203
0302
0000
0100
,
0000
0103
0000
0001
,
1000
0100
0010
0002
,
0013
0001
0100
0000
0100
1000
0100
0000
,
0100
0001
0010
0000
0010
0100
1000
0000
,
0100
1000
0010
0000
0100
1000
0100
0001
,
0100
0010
1000
0000
0010
0100
0001
0000
,
1000
0100
0010
0000
0100
1000
0010
0000
,
0100
0010
0001
0000
0001
0010
0100
0000
,
0010
0100
0001
1000
0001
1000
0001
1000
,
0001
0100
0001
0000
0100
1000
0020
0000
,
0130
0001
1000
0000
0100
0010
0001
0000
,
1000
0001
0100
0000
0001
0100
0010
0000
,
0100
0100
0100
0100
0100
0000
0010
0000
,
0100
0001
1000
0001
,
1000
0100
0010
0001
0010
0000
0000
0000
,
0001
0010
0100
1000
1001
0000
0000
0000
,
1000
0100
1000
0000
1000
0010
1000
0000
,
0001
0100
0001
0000
0001
0010
0001
0000
,
1000
0000
0101
0000
0001
0100
0010
0000
,
0100
0010
1010
0010
,
0100
0010
1010
0010
,
0100
0010
1010
0102
,
0100
0000
0103
0000
0001
1000
0100
0000
,
1000
0000
0010
0000
0100
0010
1000
0000
,
0001
0010
0001
1000
,
0100
0000
1000
0010
0100
0000
0002
0000
,
0000
0000
0200
0000
0000
0003
0020
0000
,
0000
0300
2000
0000
0000
0030
0200
0000
,
0300
3100
1000
0000
0100
0000
0100
0000
,
0000
1000
0000
0001
,
0100
0001
1000
0100
,
1000
0010
0100
0001
,
0000
0001
0000
1000
,
0000
0010
0000
0100
,
0000
0100
0000
0000
;

//---------------dance-single - ----------------
#NOTES:
     dance-single:
     :
     Easy:
     2:
     0.137,0.194,0.024,0.097,0.000:
0000
0000
0000
0000
,
0000
0000
0000
0000
,
0000
0000
0000
0000
,
0000
0000
0000
0000
,
0001
1000
0001
0100
,
0001
1000
0100
1000
,
0010
1000
0001
0010
,
0001
1000
0010
0100
,
0002
0000
2000
0003
,
0002
0000
0000
0000
0000
0000
0000
3003
,
0001
0001
1000
1000
,
0100
0100
0010
0020
,
0130
0000
0010
0000
,
0001
0000
1000
0000
,
0001
0000
0001
0100
,
0001
0000
1000
0000
,
0100
0000
1000
0000
,
0010
0000
0100
0000
,
0010
0000
0100
0001
,
1000
0000
0100
0000
,
1000
0000
0001
0000
,
0100
0000
0001
0000
,
2002
0000
0000
3003
0001
0000
0001
0000
,
1000
0000
0100
0020
,
0130
0010
0001
0000
,
1000
1000
0001
0000
,
0100
0001
1000
0100
,
0000
1000
0010
0100
,
0001
0000
0001
0000
,
1000
0100
0010
0001
,
1000
0100
0010
0001
,
1000
0100
0010
0220
,
0000
0330
0000
0200
,
0000
0000
0000
2300
,
0000
0000
0000
0002
,
0000
0000
0000
0000
0000
3003
0110
0000
,
0000
0010
0000
0010
,
0000
0010
0000
1000
,
0000
1000
1000
1000
,
0000
0001
0000
0100
,
0000
0001
0000
1000
,
0000
0100
0000
0010
,
0000
0100
0100
0100
,
0000
0010
0000
0001
;

//---------------dance-single - ----------------
#NOTES:
     dance-single:
     :
     Beginner:
     1:
     0.084,0.105,0.024,0.008,0.000:
0000
0000
0000
0000
,
0000
0000
0000
0000
,
0000
0000
0000
0000
,
0000
0000
0000
0000
,
0001
0000
0001
0000
,
0001
0000
0000
0000
,
1000
0000
1000
0000
,
1000
0000
0000
0000
,
0010
0000
0100
0000
,
0001
0001
0000
0000
,
1000
0000
0000
0000
,
0100
0000
0000
0000
,
0010
0000
0100
0000
,
0010
0000
0001
0000
,
1000
0000
1000
0000
,
0001
0000
0100
0000
,
0001
0000
1000
0000
,
1000
0000
0010
0000
,
0100
0000
0100
0000
,
0100
0000
0010
0000
,
1000
0000
1000
0000
,
0001
0000
0001
0000
,
0200
0000
0300
0000
,
0010
0000
0100
0000
,
1001
0000
0001
0000
,
1000
0000
1000
0000
,
0010
0000
0100
0000
,
0001
0000
1000
0000
,
0100
0000
1000
0000
,
0010
0000
0000
0000
,
0010
0000
0000
0000
,
0010
0000
0000
1001
,
0000
0000
0000
0001
,
0000
0000
0000
1000
,
0000
0000
0000
0100
,
0000
1000
0000
0110
,
0000
0100
0000
0100
,
0000
0100
0000
0010
,
0000
0100
0000
0001
,
0000
1000
0000
0010
,
0000
1000
0000
0100
,
0000
1000
0000
0001
,
0000
0100
0000
0001
,
0000
1000
0000
0000
;

//---------------dance-single - ----------------
#NOTES:
     dance-single:
     :
     Challenge:
     9:
     0.540,0.635,0.113,0.282,0.685: // measure 1
0000
0000
0000
0000
,  // measure 2
0000
0000
0000
0000
,  // measure 3
0000
0000
0000
0000
,  // measure 4
0000
0000
0000
0000
,  // measure 5
1001
0100
0001
1000
0000
0100
0010
0000
0100
0010
0001
1000
0000
0010
0100
0000
,  // measure 6
0010
1000
0001
0010
0000
0100
1000
0000
1000
0100
1000
0010
0000
0100
0001
0000
,  // measure 7
1000
0001
0010
0100
0000
0010
0001
0000
0001
0100
0010
1000
0000
1000
0010
0000
,  // measure 8
0100
0010
1000
0001
0000
0001
0010
0000
0100
1000
0010
0100
0000
0001
1000
0000
,  // measure 9
0200
1000
0010
1000
0320
0001
0100
0001
,  // measure 10
0230
2300
3020
0100
1000
0100
1000
0130
,  // measure 11
0010
1000
0010
0100
0000
0010
1000
0000
1000
0100
0001
0100
0000
0010
0001
0000
,  // measure 12
0001
0010
1000
0010
0000
0100
1000
0000
1000
0010
0100
0001
0020
0000
0000
0000
,  // measure 13
0130
0020
0031
1000
0010
0000
0000
1000
0001
0000
0100
0000
0010
0010
1000
0001
,  // measure 14
0100
0001
0000
0000
1001
0000
0001
0000
0101
0000
0010
0000
1000
0000
0001
1000
,  // measure 15
0010
0000
0100
0000
0001
0000
1000
0001
0100
0000
0010
1000
0001
0000
0001
0010
,  // measure 16
0100
0000
0010
0000
0001
0000
0000
0100
0010
0000
1000
0000
0002
0000
0000
0000
,  // measure 17
0013
0002
0013
0100
1000
0000
0000
1000
0001
0100
0001
0010
0100
0000
0000
0100
,  // measure 18
0010
0001
1000
0001
0010
0000
0000
0100
1000
0001
0010
0001
1000
0000
0000
0001
,  // measure 19
0100
0010
1000
0100
0001
0000
0001
0010
0100
0000
0100
0010
0010
0000
0001
0100
,  // measure 20
0001
0000
0100
0000
0110
0000
0010
1000
0001
0000
1000
0000
0020
0000
0000
0000
,  // measure 21
0130
0020
1030
0001
1000
0000
0000
0000
1100
0100
0010
1000
0001
0000
0000
0000
,  // measure 22
0011
0010
0100
0010
0001
0000
0000
0000
1001
0001
0100
0001
0010
0000
0000
0000
,  // measure 23
0002
0203
2300
3200
0320
0032
0023
2030
3200
0310
0001
0010
1000
0010
0100
1000
,  // measure 24
0010
0000
0100
0000
0001
0000
0100
0010
1000
0000
0100
0000
0020
0000
0000
0000
,  // measure 25
0130
0010
0000
0011
0000
1100
0000
0101
0000
1001
0000
0000
0000
0000
0000
0000
,  // measure 26
0001
0100
0000
0010
1000
0000
0010
0000
1001
0000
0000
0000
0000
0000
0000
0000
,  // measure 27
0001
0010
0100
0010
0001
1000
0010
0100
0001
0000
1000
0100
0010
0100
1000
0000
,  // measure 28
0000
0000
0100
0010
0001
1000
0001
0000
0100
0010
0000
0000
0000
0000
0000
0000
,  // measure 29
1001
1000
0010
1000
0000
0000
0010
0100
0001
0000
0000
0000
0000
0000
1000
0000
,  // measure 30
1000
0100
0001
0100
0010
0001
0100
1000
0100
0010
1000
0001
0010
0100
1000
0001
,  // measure 31
1000
0100
0001
0100
0010
0001
0100
1000
0100
0010
1000
0001
0010
0100
1000
0001
,  // measure 32
1000
0100
0001
0100
0010
0001
0100
1000
0200
0300
0000
0000
0200
2300
3200
0320
,  // measure 33
2030
3002
0023
0230
0310
0001
1000
0010
0100
0001
0010
0100
0020
0000
0001
0000
,  // measure 34
0001
0000
0100
0100
0100
0000
1000
1000
,  // measure 35
1000
0000
0100
0100
0100
0000
0001
0001
,  // measure 36
0001
0000
0000
0000
0100
0000
0100
0000
0100
0000
0030
0000
0101
0001
0100
0001
,  // measure 37
0000
0100
0010
0000
0010
1000
0010
1000
0000
0010
1000
0000
0001
1000
0001
1000
,  // measure 38
0000
1000
0100
0000
0010
0100
0010
0100
0000
0010
0001
0000
0001
0100
0001
0100
,  // measure 39
0000
0100
0010
0000
0010
1000
0010
1000
0000
1000
0001
0000
0001
0100
0010
1000
,  // measure 40
0000
1000
0010
0000
0100
0001
0010
0100
0000
0100
1000
0000
0001
1000
0000
0000
,  // measure 41
0000
0000
1000
0100
0100
1000
0001
0000
0000
0000
0000
0000
0001
0100
0000
0000
,  // measure 42
0000
0000
0100
0010
1000
1000
0010
0000
0000
0000
0000
0000
0100
0010
0000
0000
,  // measure 43
0000
0000
0100
0010
1000
0000
0010
0100
0000
0001
1000
0000
0001
0010
0100
1000
,  // measure 44
0000
1000
0100
0010
0001
0010
0100
0010
0000
0001
0100
0010
0200
0000
0000
0000
,  // measure 45
0000
0000
0000
0000
0000
0000
0000
0000
0000
0000
0000
0000
0000
0000
0000
0000
0000
0000
0000
0000
0000
0000
0000
0000
0000
0000
0000
0000
0000
0000
0000
0000
0000
0000
0000
0000
0000
0000
0000
0000
0000
0000
0000
0000
0300
0000
0000
0000
0200
0000
0000
0000
0000
0000
0000
0000
0000
0000
0000
0000
0000
0000
0000
0000
0000
0000
0000
0000
0000
0000
0000
0000
0000
0000
0000
0000
0000
0000
0000
0000
0000
0000
0000
0000
0000
0000
0000
0000
0000
0000
0000
0000
0000
0300
0000
0000
0200
0000
0000
0000
0000
0000
0000
0000
0000
0000
0000
0000
0000
0000
0000
0000
0000
0000
0000
0000
0000
0000
0000
0000
0000
0000
0000
0000
0000
0000
0000
0000
0000
0000
0000
0000
0000
0000
0000
0000
0000
0000
0000
0000
0000
0300
0000
0000
0200
0000
0000
0000
0000
0000
0000
0000
0000
0000
0000
0000
0000
0000
0000
0000
0000
0000
0000
0000
0000
0000
0000
0000
0000
0000
0000
0000
0000
0000
0000
0000
0000
0000
0000
0000
0000
0000
0000
0000
0000
0000
0000
0000
0000
0000
0000
0000
,  // measure 46
0300
0000
0000
0000
;
