#TITLE:Fly you to the star;
#SUBTITLE:;
#ARTIST:Another Infinity feat. Mayumi Morinaga;
#TITLETRANSLIT:;
#SUBTITLETRANSLIT:;
#ARTISTTRANSLIT:;
#CREDIT:;
#BANNER:Fly you to the star.png;
#BACKGROUND:Fly you to the star-background.png;
#JACKET:Fly you to the star-jacket.png
#LYRICSPATH:;
#CDTITLE:cdtitle.png;
#MUSIC:1-14 Fly you to the star.mp3;
#OFFSET:1.127;
#SAMPLESTART:55.420;
#SAMPLELENGTH:12.000;
#SELECTABLE:YES;
#BPMS:0.000=141.000;
#STOPS:;
#BGCHANGES:0.500=[IIDX TRICORO] Fly you to the star Another Infinity feat Mayumi Morinaga.avi=1.000=0=0=1,
99999=-nosongbg-=1.000=0=0=0 // don't automatically add -songbackground-
;

//---------------dance-single - ----------------
#NOTES:
     dance-single:
     :
     Hard:
     7:
     0.415,0.453,0.269,0.025,0.025:
0000
0000
0000
0000
,
0000
0000
0000
0000
,
0000
0000
0000
0000
,
0000
0000
0000
0000
,
0000
0000
0000
0000
,
0000
0000
1000
0000
0001
1000
0000
0100
,
0010
0000
0100
0000
0010
0001
0000
0010
,
0100
0000
1000
0000
0010
0100
0000
0001
,
0010
0000
0001
0000
1000
0000
0100
0010
,
0001
1000
0020
0000
0000
0000
0000
0000
,
0000
0000
0000
0000
,
0000
0130
0001
0100
,
0000
0001
0100
0010
0100
0001
1000
0000
,
0000
0100
0010
0100
,
0000
0010
0100
1000
0010
0100
0010
0000
,
0000
0100
0001
1000
,
0000
0100
1000
0001
0100
0010
0100
0000
,
0000
0100
0101
0100
,
0000
0001
1000
0010
1000
0010
0100
0000
,
0000
0010
1010
0010
,
0000
1000
0100
1000
0010
0100
0001
0000
,
0000
1000
1001
0001
,
0000
0001
0010
0100
0010
0001
1000
0000
,
0000
0010
0100
0000
0001
0000
1000
0000
,
0010
0000
1000
0100
0010
0001
1000
0000
,
0000
0101
0101
1001
,
0000
0000
0001
0000
1000
0000
0000
0100
0000
0000
1000
0000
0010
0000
0100
0000
,
0001
0100
0110
0000
1010
0000
0110
0000
,
0000
0000
0100
0000
0001
0000
0000
1000
0000
0000
0010
0000
1010
0000
0000
0000
,
0000
1100
0110
0011
,
0000
0000
0001
0000
0010
0000
0000
1000
0000
0000
0010
0000
0100
0000
1000
0000
,
0010
0100
0101
0000
1010
0000
1001
0000
,
0101
0000
0011
0000
0000
0001
0100
1000
,
0100
0001
1000
0001
0100
0001
0010
0100
,
0000
1000
0000
0000
0000
0000
1000
0100
,
0100
1000
0010
0100
0001
1000
0001
0010
,
0000
0100
0000
0000
0000
0000
0100
1000
,
0100
1000
0100
0010
0100
1000
0010
0100
,
0001
0010
0000
0000
0000
0000
0100
1000
,
0010
0100
0001
1000
0100
1000
0010
0100
,
0000
0001
0000
0000
0000
0000
1000
0100
,
0010
0001
0011
0000
0011
0000
0011
0000
,
0000
0000
0001
0000
0100
0000
0000
0001
0000
0000
0010
0000
0100
0000
0010
0000
,
0001
1000
1010
0000
1010
0000
1010
0000
,
0000
0000
0010
0000
0100
0000
0000
0001
0000
0000
1000
0000
0100
0000
0000
0000
,
0000
1100
0110
0011
,
0000
0000
0001
0000
0010
0000
0000
0010
0000
0000
0010
0000
0100
0000
1000
0000
,
0010
0100
0110
0000
1001
0000
0101
0000
,
1010
0000
1001
0000
0000
1000
0100
0001
,
0100
1000
0010
0100
0001
0100
0010
0200
,
0000
0002
0000
0000
0000
0000
0000
0000
,
0303
0000
0001
0100
1000
0010
1000
0010
,
0000
0100
0000
0000
0000
0000
0100
0001
,
0010
0100
1000
0100
1000
0010
0001
0010
,
0000
0100
0000
0000
0000
0000
0010
1000
,
0001
0010
0001
1000
0100
1000
0010
0100
,
0001
0010
0000
0000
0000
0000
0100
1000
,
0010
0100
0001
0010
0001
0100
0010
1000
,
0000
0100
0000
0000
0000
0000
1000
0100
,
0010
0001
0010
0100
0010
0001
1000
0010
,
0000
0100
0000
0000
0000
0000
0010
0001
,
0010
1000
0100
0001
0100
0010
0001
1000
,
0000
0010
0000
0000
0000
0000
1000
0100
,
0010
0100
1000
0100
0010
0100
1000
0010
,
0100
0001
0000
0000
0000
0000
0010
0100
,
0010
0001
1000
0100
0001
0100
1000
0010
,
0001
0010
0000
0000
0000
0000
0100
0001
,
0010
0100
1000
0000
0000
0000
0000
0000
;

//---------------dance-single - ----------------
#NOTES:
     dance-single:
     :
     Medium:
     5:
     0.315,0.340,0.152,0.017,0.000:
0000
0000
0000
0000
,
0000
0000
0000
0000
,
0000
0000
0000
0000
,
0000
0000
0000
0000
,
0000
0000
0000
0000
,
0000
0001
1000
0100
,
1000
0010
0000
0100
,
0001
1000
0100
1000
,
0010
0100
0000
0010
,
1000
2002
0000
0000
,
0000
0000
0000
0000
,
3003
0001
1000
0100
,
0000
0100
0010
0000
0010
0000
0100
0000
,
0000
0010
0001
1000
,
0000
0010
0100
0000
0001
0000
1000
0100
,
1000
0100
1000
0010
,
0000
0100
0001
0000
1000
0000
0100
0000
,
0010
0100
1000
0010
,
0000
0100
0001
0000
1000
0000
0001
0000
,
0000
1000
0001
1000
,
0000
0110
0110
0110
,
0000
0100
0001
0010
,
0000
0010
0100
0000
1000
0000
0100
0000
,
0000
1000
0010
0000
0100
0000
0010
0000
,
0000
0100
0001
0010
0100
1000
0100
0000
,
0000
1100
1100
1100
,
0000
0000
1000
0000
0001
0000
0100
0010
,
1000
1010
1010
1010
,
0000
1000
0001
0010
,
0000
0110
0110
0110
,
0000
0000
0010
0000
0001
0000
1000
0001
,
0100
0001
0010
0001
,
1000
0000
0100
0000
0000
0010
0001
0100
,
0001
0000
0001
0010
0100
0010
0001
1000
,
0000
0001
0000
0000
0000
0000
0001
1000
,
0001
0000
0100
0000
0010
0000
1000
0010
,
0000
0100
0000
0000
0000
0000
0010
0000
,
0100
0000
0001
0000
0100
0000
1000
0100
,
0010
1000
0000
0000
0000
0000
0001
0000
,
0010
0000
0001
0000
1000
0000
0100
0010
,
0000
0001
0000
0000
0000
0000
0001
0010
,
0100
1000
1100
0000
1100
0000
1100
0000
,
0000
1000
0010
0001
,
0010
0100
0001
1000
,
0000
1000
0100
1000
,
0000
0001
0001
0001
,
0000
0100
0001
1000
,
0100
1000
0010
0001
,
0010
0000
0100
0000
0000
0010
0100
0000
,
0001
1000
0100
1000
,
0010
0000
0100
0000
0001
0000
1000
0001
,
1001
0000
0001
0000
0100
0000
0010
1000
,
0000
0010
0000
0000
0000
0000
0100
0000
,
0001
0000
1000
0000
0100
0000
0010
0100
,
0000
1000
0000
0000
0000
0000
0100
0000
,
0010
0000
0100
0000
1000
0000
0010
0100
,
0001
1000
0000
0000
0000
0000
0001
0000
,
1000
0000
0100
0000
1000
0000
0010
0100
,
0000
0001
0000
0000
0000
0000
0001
0010
,
0100
1000
0100
1000
0100
1000
0010
1000
,
0000
0010
0000
0000
0000
0000
0100
0000
,
0010
0000
0100
0010
0100
0001
0100
0001
,
0000
1000
0000
0000
0000
0000
0100
0000
,
1000
0000
0100
0010
0001
0010
0001
1000
,
0010
0100
0000
0000
0000
0000
0100
0000
,
0001
0000
1000
0001
0100
0001
0010
0100
,
0000
1000
0000
0000
0000
0000
1000
0100
,
0010
0001
1001
0000
0000
0000
0000
0000
;

//---------------dance-single - ----------------
#NOTES:
     dance-single:
     :
     Easy:
     3:
     0.236,0.255,0.017,0.059,0.000:
0000
0000
0000
0000
,
0000
0000
0000
0000
,
0000
0000
0000
0000
,
0000
0000
0000
0000
,
0000
0000
0000
0000
,
0000
0001
0000
0000
,
0000
1000
0000
0000
,
0000
0001
0000
0000
,
0000
1000
0000
0010
,
0100
2002
0000
0000
,
0000
0000
0000
0000
,
0000
0000
0000
0000
,
0000
3003
0000
0000
,
0000
0001
0100
0001
,
0000
1000
1000
1000
,
0000
0100
0010
0100
,
0000
1000
1000
1000
,
0000
0001
0100
0010
,
0000
0100
0100
0001
,
0000
1000
1000
0001
,
0000
1000
0010
0100
,
0000
0010
0100
0001
,
0000
1000
1000
1000
,
0000
0001
1000
0100
,
0000
1000
0010
0100
,
0000
0001
0001
0001
,
0000
1000
0010
0100
,
0010
0100
0100
0100
,
0000
0001
1000
0010
,
0000
1000
0100
0010
,
0000
0100
0010
0001
,
1000
0001
0100
0001
,
1000
0100
0000
0010
,
0010
0100
1000
0010
,
0100
0002
0003
1000
,
1000
0001
0100
0010
,
0100
0002
0003
1000
,
0100
0001
0100
1000
,
0010
0200
0300
0010
,
0010
1000
0001
0010
,
0100
2000
3000
0100
,
1000
0010
0010
0010
,
0000
0100
0000
0001
,
0000
1000
1000
1000
,
0000
0001
1000
0010
,
0000
0100
0100
0100
,
0000
0001
0000
1000
,
0000
0100
0010
0001
,
0010
0100
0000
1000
,
0100
1000
0001
0100
,
0001
0020
0000
0000
,
0030
0100
0010
0001
,
1000
0001
0000
1000
,
0001
0100
0001
0010
,
0100
0010
0000
0100
,
1000
0010
0001
0010
,
0100
0001
0000
1000
,
0100
1000
0001
0100
,
0001
0010
0000
0100
,
0100
0010
0001
1000
,
0010
1000
0001
0010
,
0010
0001
1000
0100
,
0010
0100
1000
0010
,
0010
0100
0001
0010
,
0001
1000
0100
1000
,
1000
0100
1000
0010
,
0100
0001
1000
0010
,
0010
1001
0000
0000
;

//---------------dance-single - ----------------
#NOTES:
     dance-single:
     :
     Beginner:
     1:
     0.114,0.142,0.025,0.000,0.000: // measure 1
0000
0000
0000
0000
,  // measure 2
0000
0000
0000
0000
,  // measure 3
0000
0000
0000
0000
,  // measure 4
0000
0000
0000
0000
,  // measure 5
0000
0000
0000
0000
,  // measure 6
0000
0001
0000
0000
,  // measure 7
0000
1000
0000
0000
,  // measure 8
0000
0001
0000
0000
,  // measure 9
0000
1000
0000
0010
,  // measure 10
0010
1001
0000
0000
,  // measure 11
0000
0000
0000
0100
,  // measure 12
0000
0010
0000
0000
,  // measure 13
0000
1000
1000
0001
,  // measure 14
0000
0100
0000
0000
,  // measure 15
0000
0000
0001
0000
,  // measure 16
0000
1000
0000
0000
,  // measure 17
0000
0010
0010
0010
,  // measure 18
0000
0100
0000
0000
,  // measure 19
0000
0001
0000
0000
,  // measure 20
0000
1000
0000
0000
,  // measure 21
0000
0100
0000
0000
,  // measure 22
0000
1000
0000
0000
,  // measure 23
0000
0001
0000
0000
,  // measure 24
0000
0100
0000
0000
,  // measure 25
0000
0001
0001
0001
,  // measure 26
0000
1001
0000
0000
,  // measure 27
0000
0100
0000
0000
,  // measure 28
0000
0010
0000
0000
,  // measure 29
0000
1000
0000
0000
,  // measure 30
0000
0100
0000
0000
,  // measure 31
0000
1000
0000
0000
,  // measure 32
0000
0001
0000
1000
,  // measure 33
0000
0010
0000
0000
,  // measure 34
0000
0100
0000
0010
,  // measure 35
0000
1000
0000
0000
,  // measure 36
0000
0010
0000
0100
,  // measure 37
0000
0001
0000
0000
,  // measure 38
0000
1000
0000
0001
,  // measure 39
0000
0100
0000
0000
,  // measure 40
0000
0001
0000
1000
,  // measure 41
0000
1000
0000
0010
,  // measure 42
0010
0010
0000
0000
,  // measure 43
0000
0100
0000
0000
,  // measure 44
0000
0001
0000
0000
,  // measure 45
0000
1000
0000
0000
,  // measure 46
0000
0100
0000
0000
,  // measure 47
0000
1000
0000
0000
,  // measure 48
0000
0010
0000
0100
,  // measure 49
0000
0001
0000
1000
,  // measure 50
1000
1000
0000
0000
,  // measure 51
0000
0000
0000
0000
,  // measure 52
0000
1000
0000
0001
,  // measure 53
0000
0100
0000
0000
,  // measure 54
0000
0001
0000
1000
,  // measure 55
0000
0010
0000
0000
,  // measure 56
0000
0100
0000
0010
,  // measure 57
0000
1000
0000
0000
,  // measure 58
0000
1000
0000
0010
,  // measure 59
0000
0100
0000
0010
,  // measure 60
0010
0100
0000
0001
,  // measure 61
0000
0010
0000
0000
,  // measure 62
0000
0100
0000
0010
,  // measure 63
0000
0001
0000
0000
,  // measure 64
0000
1000
0000
0001
,  // measure 65
0000
0010
0000
0000
,  // measure 66
0000
0100
0000
0010
,  // measure 67
0000
0001
0000
1000
,  // measure 68
0001
1001
0000
0000
;
