#TITLE:Florescence;
#SUBTITLE:(Emotional Mix);
#ARTIST:Andy Blueman;
#TITLETRANSLIT:;
#SUBTITLETRANSLIT:;
#ARTISTTRANSLIT:;
#CREDIT:;
#BANNER:Florescence (Emotional Mix).png;
#BACKGROUND:Florescence (Emotional Mix)-background.png;
#JACKET:Florescence (Emotional Mix)-jacket.png;
#LYRICSPATH:;
#CDTITLE:cdtitle.png;
#MUSIC:Florescence (Emotional Mix).mp3;
#OFFSET:-6.369;
#SAMPLESTART:65.426;
#SAMPLELENGTH:12.000;
#SELECTABLE:YES;
#BPMS:0.000=69.045,68.000=138.090,69.000=137.990;
#STOPS:;
#BGCHANGES:;

//---------------dance-single - ----------------
#NOTES:
     dance-single:
     :
     Hard:
     7:
     0.352,0.333,0.135,0.262,0.000:
0000
1000
0100
0010
0100
1000
0001
0000
,
0100
0001
0010
0100
0010
0001
1000
0000
,
1000
0001
0100
1000
0100
0010
1000
0000
,
0010
0100
0001
1000
0100
0010
0100
0000
,
0010
0002
0000
0000
0200
0000
0000
0303
,
0100
0020
0000
0000
2000
0000
0000
3030
,
1000
0200
0000
0000
2000
0000
0000
3300
,
1000
0002
0000
0000
0103
0001
0010
0100
,
1000
2002
0000
3000
0200
0000
0303
0000
,
0001
2002
0000
0003
0020
0000
3030
0000
,
0010
2020
0000
3000
0200
0000
0330
0000
,
0010
2020
0000
0030
0200
0000
3300
0000
,
1000
2002
0000
0003
0200
0000
3300
0000
,
1000
0220
0000
0300
2000
0000
3030
0000
,
0010
0202
0000
0300
0020
0000
0033
0000
,
0001
2002
0000
3003
0001
0100
1000
0100
,
0001
0022
0000
0000
0000
0033
0000
0000
,
0002
0000
1003
0010
0000
0100
0000
0010
,
0000
1000
0000
1000
0100
0010
0100
0100
,
0000
0010
0001
0010
0000
0001
0000
0100
,
0000
0010
0000
0100
0001
1000
0100
1000
,
0000
0100
0010
0001
0000
0010
0000
0001
,
0000
0001
0000
0001
0100
0010
0100
0100
,
0000
0010
1000
0100
0000
1000
0000
0100
,
0000
0001
0000
0001
0100
1000
0100
1000
,
0100
0010
0001
0100
0000
1000
0000
0100
,
0000
0010
0000
0100
0010
1000
0001
1000
,
0100
1000
0010
0100
0000
0100
0000
0010
,
0000
0010
0000
0100
0001
1000
0010
0010
,
0000
0100
0100
1000
0000
0100
0000
1000
,
0000
0010
0000
0001
0100
0010
0100
0001
,
0000
0100
0001
1000
0000
0100
0000
1000
,
0000
0010
0000
0100
0010
1000
0001
0010
,
0100
1000
0100
1000
0010
0100
0000
0010
,
1000
0001
0000
0001
0010
0100
0000
0100
,
1000
0010
0100
0001
0010
1000
0000
1000
,
0010
0001
0000
0001
0010
0100
0010
0001
,
0100
1000
0100
0010
1000
0100
0000
0100
,
0010
0001
0000
0001
0010
0100
0000
0100
,
1000
0010
0100
0001
1000
0100
0000
0001
,
0100
1000
0000
1000
0010
0100
0010
0010
,
0100
0001
1000
0000
1001
0000
0001
0100
,
0010
0000
0110
0000
0010
0000
0100
0001
,
0010
0100
0010
0000
0011
0000
0001
0100
,
0010
0000
1000
0000
0110
0000
0100
0001
,
1000
0001
0010
0000
0110
0000
0100
1000
,
0010
0000
0100
0000
0101
0000
0001
0100
,
0010
0100
0001
0000
0101
0000
0001
0100
,
0010
0100
1000
0100
,
0001
1001
0000
0000
;

//---------------dance-single - ----------------
#NOTES:
     dance-single:
     :
     Medium:
     4:
     0.255,0.255,0.008,0.127,0.000:
0000
0100
0000
0000
0100
0000
0000
0000
,
0000
0010
0000
0000
0010
0000
0000
0000
,
1000
0001
0000
0000
1000
0000
0000
0000
,
0010
0100
0000
0000
0100
0000
0000
0000
,
0001
0100
0000
0000
0010
0000
0000
0000
,
0100
0010
0000
0000
1000
0000
0000
0000
,
0100
1000
0000
0000
1000
0000
0000
0000
,
1000
0001
0000
0000
0001
0100
0010
0100
,
0001
2000
0000
0000
0020
0000
0000
3030
,
0000
0020
0000
0000
0200
0000
0000
0330
,
0000
0200
0000
0000
0002
0000
0000
0303
,
0000
0002
0000
0000
2000
0000
0000
3003
,
0001
0200
0000
0000
0020
0000
0330
0000
,
0010
2000
0000
0000
0200
0000
0000
3300
,
1000
0020
0000
0000
0200
0000
0000
0330
,
0100
0002
0000
0000
1003
0100
0001
0100
,
1000
0010
0000
0000
0000
0000
0000
0000
,
0200
0000
0301
1000
0000
0100
0000
1000
,
0000
0010
0000
0100
0000
0010
0100
0010
,
0000
0100
0010
0100
0000
0010
0000
1000
,
0000
0001
0000
0010
0000
0100
1000
0100
,
0000
1000
0100
0000
1000
0000
0010
0000
,
0100
0000
0010
0000
1000
0000
0001
0010
,
0000
0100
1000
0010
0000
0100
0000
0001
,
0000
1000
0000
0001
0100
0000
0010
1000
,
0010
0000
0100
0000
0001
0000
1000
0010
,
0100
0010
0000
0100
0010
0000
1000
0000
,
0001
0010
0100
1000
,
0100
0010
0000
0010
0100
1000
0010
0100
,
0000
0010
0100
0000
0001
0000
1000
0000
,
0100
0000
1000
0000
0001
0000
0100
0010
,
0000
0100
0010
1000
0000
0001
0000
0010
,
0000
0100
0000
1000
0100
0000
1000
0000
,
0010
0000
0100
0000
0001
1000
0010
0000
,
0100
0010
1000
0001
,
0010
0000
0100
0000
1000
0100
0001
0000
,
0100
0010
0001
0010
,
1000
0000
0100
0000
1000
0010
0100
0000
,
0010
1000
0001
0010
,
0001
0000
0100
0000
1000
0100
0010
0000
,
0100
0000
0010
0000
1000
0000
0001
0010
,
0100
0000
1000
0000
0100
0000
0010
0001
,
0010
0000
0001
0000
0100
0000
0010
1000
,
0010
0000
0100
0000
0010
0000
1000
0001
,
1000
0000
0001
0000
0010
0000
0100
1000
,
0100
0000
1000
0000
0010
0000
0001
0010
,
0100
0000
0010
0000
0100
0000
0100
1000
,
0001
0000
0010
0000
0100
0000
1000
0100
,
0010
0001
0100
1000
,
0100
1001
0000
0000
;

//---------------dance-single - ----------------
#NOTES:
     dance-single:
     :
     Easy:
     2:
     0.143,0.137,0.016,0.008,0.000:
0000
0001
0000
0000
0000
0000
0000
0000
,
0000
1000
0000
0000
0000
0000
0000
0000
,
0000
0010
0000
0000
0000
0000
0000
0000
,
0000
0100
0000
0000
0000
0000
0000
0000
,
0000
0001
0000
0000
0001
0000
0000
0000
,
0000
1000
0000
0000
1000
0000
0000
0000
,
0000
0001
0000
0000
0100
0000
0000
0000
,
0000
0001
0000
0000
0000
0010
0000
0100
,
0000
1000
0000
0000
1000
0000
0000
0000
,
0000
0010
0000
0000
0010
0000
0000
0000
,
0000
0100
0000
0000
0100
0000
0000
0000
,
0000
0001
0000
0000
0001
0000
0000
0000
,
0000
1000
0000
0000
0010
0000
0000
0000
,
0000
0100
0000
0000
0001
0000
0000
0000
,
0000
0001
0000
0000
0100
0000
0000
0000
,
0000
0100
0000
0000
0000
0010
0000
1000
,
0000
1001
0000
0000
0000
0000
0000
0000
,
0002
0103
0001
0010
,
0000
0010
0100
1000
,
0000
1000
0010
0100
,
0000
0100
0010
1000
,
0000
1000
0001
0100
,
0000
0001
0100
0010
,
0000
0100
0001
1000
,
0000
1000
0100
0010
,
0010
0100
0000
1000
,
0000
0010
0100
0010
,
0000
0100
0000
0001
,
0000
1000
0100
1000
,
0000
0100
0000
1000
,
0000
0010
0100
0010
,
0000
0100
0000
0001
,
0000
0010
0100
1000
,
1000
0001
0000
0100
,
0000
0010
1000
0010
,
1000
0100
0000
0010
,
0000
0001
0010
0001
,
0010
0100
0000
1000
,
0000
0001
0100
0001
,
0100
0001
0000
0010
,
0000
0100
1000
0100
,
1000
0100
0000
0010
,
0000
0001
0000
0100
,
0000
0010
1000
0000
,
0001
0000
1000
0000
,
1000
0100
0010
0000
,
0100
0000
1000
0000
,
0001
0100
0010
0000
,
0100
0000
0001
0010
,
0100
1100
0000
0000
;

//---------------dance-single - ----------------
#NOTES:
     dance-single:
     :
     Beginner:
     1:
     0.072,0.078,0.024,0.000,0.000: // measure 1
0000
0010
0000
0000
0000
0000
0000
0000
,  // measure 2
0000
0100
0000
0000
0000
0000
0000
0000
,  // measure 3
0000
0001
0000
0000
0000
0000
0000
0000
,  // measure 4
0000
1000
0000
0000
0000
0000
0000
0000
,  // measure 5
0000
0100
0000
0000
0000
0000
0000
0000
,  // measure 6
0000
1000
0000
0000
0000
0000
0000
0000
,  // measure 7
0000
0001
0000
0000
0000
0000
0000
0000
,  // measure 8
0000
0100
0000
0000
0000
0001
0000
0000
,  // measure 9
0000
1001
0000
0000
0000
0000
0000
0000
,  // measure 10
0000
1000
0000
0000
0000
0000
0000
0000
,  // measure 11
0000
0010
0000
0000
0000
0000
0000
0000
,  // measure 12
0000
0100
0000
0000
0000
0000
0000
0000
,  // measure 13
0000
0001
0000
0000
0000
0000
0000
0000
,  // measure 14
0000
1000
0000
0000
0000
0000
0000
0000
,  // measure 15
0000
0100
0000
0000
0000
0000
0000
0000
,  // measure 16
0000
1000
0000
0000
0000
0010
0000
0100
,  // measure 17
0000
1001
0000
0000
0000
0000
0000
0000
,  // measure 18
0000
1000
0000
0000
,  // measure 19
0000
0001
0000
0000
,  // measure 20
0000
0100
0000
0000
,  // measure 21
0000
0001
0000
1000
,  // measure 22
0000
0010
0000
0000
,  // measure 23
0000
0100
0000
0000
,  // measure 24
0000
0001
0000
0000
,  // measure 25
0000
0010
0000
0010
,  // measure 26
0000
0010
0000
0000
,  // measure 27
0000
0100
0000
0000
,  // measure 28
0000
1000
0000
0000
,  // measure 29
0000
0001
0000
0001
,  // measure 30
0000
0100
0000
0000
,  // measure 31
0000
0010
0000
0000
,  // measure 32
0000
0100
0000
0000
,  // measure 33
0000
0001
0000
1000
,  // measure 34
0000
0100
0000
0000
,  // measure 35
0000
0010
0000
0000
,  // measure 36
0000
0001
0000
0000
,  // measure 37
0000
1000
0000
1000
,  // measure 38
0000
1000
0000
0000
,  // measure 39
0000
0010
0000
0000
,  // measure 40
0000
0100
0000
0000
,  // measure 41
0000
0001
0000
1000
,  // measure 42
0000
1000
0000
0000
,  // measure 43
1000
0000
0000
0000
,  // measure 44
1000
0000
0000
0000
,  // measure 45
0001
0000
0000
0000
,  // measure 46
0001
0000
0000
0000
,  // measure 47
0100
0000
0000
0000
,  // measure 48
0010
0000
0100
0000
,  // measure 49
0010
0000
0000
0000
,  // measure 50
0000
1001
0000
0000
;
