#TITLE:Fascination MAXX;
#SUBTITLE:(Cally & Juice's MAXXimum Overload Mix);
#ARTIST:100-200-400;
#TITLETRANSLIT:;
#SUBTITLETRANSLIT:;
#ARTISTTRANSLIT:;
#CREDIT:;
#BANNER:Fascination MAXX (Cally & Juice's MAXXimum Overload Mix).png;
#BACKGROUND:Fasincation MAXX (Cally & Juice's MAXXimum Overload Mix)-backgorund.png;
#JACKET:Fasincation MAXX (Cally & Juice's MAXXimum Overload Mix)-jacket.png;
#LYRICSPATH:;
#CDTITLE:;
#MUSIC:14_-_100-200-400_-_facination_maxx_(cally_&_juice's_maxximum_overload_mix).mp3;
#OFFSET:-3.250;
#SAMPLESTART:83.240;
#SAMPLELENGTH:12.000;
#SELECTABLE:YES;
#BPMS:0.000=150.000,4.000=299.861,12.000=150.000,16.000=299.861,24.000=149.930,28.000=299.861,36.000=149.930,40.000=300.000,301.000=37.482,303.000=74.965,319.000=150.003;
#STOPS:168.000=0.200
,169.000=0.200
,170.000=0.100
,170.500=0.100
,345.500=0.200
,346.500=0.200
,376.500=0.200
,377.500=0.200
;
#BGCHANGES:;

//---------------dance-single - ----------------
#NOTES:
     dance-single:
     :
     Hard:
     11:
     0.786,1.000,0.461,0.000,0.187:
0001
0001
1000
1000
,
0001
0100
0001
0100
0001
0100
0001
0100
,
0001
0010
0001
0010
0100
0010
0100
0010
,
0001
0000
0000
0000
,
1000
1000
0010
0010
,
0100
0000
0010
1000
0000
0100
0001
0000
,
1000
0000
0000
0000
,
0100
0010
0001
0010
0100
1000
0100
0010
,
0001
0010
0001
0100
0010
1000
0001
0010
,
0100
0100
0100
0100
,
0010
0100
1000
0001
0100
0010
1000
0001
,
1000
0100
0010
0001
0010
0100
0010
1000
,
0001
0100
0000
0000
0010
0000
0100
0001
,
0000
1000
0000
0100
0010
0000
0001
0100
,
0000
0010
0000
1000
0010
0000
0000
0100
,
0000
0010
1000
0001
0010
0000
0000
0100
,
0000
0010
0000
0001
0100
0000
0010
0100
,
0000
0010
0000
1000
0001
0000
1000
0100
,
0000
0010
0000
0001
0100
0000
0100
0010
,
1000
0010
0100
0001
0010
0001
1000
0010
,
0000
0010
0100
0000
0010
0000
0100
0001
,
0000
0001
0000
0010
0100
0000
0010
0001
,
0000
1000
0000
0010
1000
0000
0010
0100
,
0000
0010
1000
0001
0010
0000
0100
1000
,
0000
0100
0000
1000
0010
0000
0100
0001
,
0000
1000
0000
0010
0100
0000
0001
1000
,
0100
0010
0100
0010
0100
0010
0001
0010
,
0001
0100
0001
0100
1000
0000
0100
0000
,
0010
1000
0000
1000
0010
0000
0100
0001
,
0000
1000
0000
0100
0010
0000
0100
1000
,
0000
0010
0000
0100
0001
0000
0001
0010
,
0000
0100
0010
0001
1000
0000
0000
0001
,
0000
0100
0000
0010
1000
0000
0010
0100
,
0000
0001
0000
1000
0100
0000
1000
0010
,
0000
0100
0000
0010
1000
0000
0001
0100
,
0001
0000
0100
0010
0000
0010
0100
0000
,
0010
1000
0000
0010
0100
0000
0010
1000
,
0000
0001
0000
0010
0100
0000
0010
0001
,
0000
0100
0000
0010
1000
0000
0100
0010
,
0000
0100
1000
0010
0100
0000
0010
1000
,
0000
0010
0000
0100
0001
0000
0010
0100
,
0000
0010
0000
0001
1000
0000
0010
0100
,
0110
0000
0101
0000
0101
1100
0000
0000
,
1001
0000
0000
0001
0100
0000
0010
0000
,
1000
0010
0000
0100
0000
0010
0100
0000
,
0100
0001
0000
0010
0000
0100
0010
0000
,
0001
0010
0000
0100
0010
0001
1000
0000
,
0010
1000
0000
0010
0000
0100
0001
0000
,
0010
1000
0000
0010
0000
0100
0010
0000
,
0001
0100
0000
0010
0000
1000
0010
0000
,
0000
0100
0001
0100
0001
1000
0100
0010
,
0001
1000
0010
0100
0000
0010
1000
0000
,
0001
0100
0000
0010
0000
1000
0010
0000
,
0100
0001
0000
0010
0000
0100
0010
0000
,
0001
0100
0000
0010
1000
0100
0010
0000
,
0100
1000
0000
0001
0000
0100
0010
0000
,
1000
0001
0000
0100
0000
0010
1000
0000
,
0010
0000
0100
1000
0100
0001
0010
1000
,
0010
0001
0100
0001
0010
1000
0010
0000
,
0110
0000
0001
1000
0001
0000
0100
0001
,
0100
0000
0010
1000
0010
0000
0100
0010
,
0100
0000
0010
1000
0010
0000
0100
0010
,
0100
0000
0010
1000
0010
0000
1000
0001
,
1000
0000
0001
0010
0001
0000
0010
0100
,
0010
0000
0100
1000
0100
0000
1000
0010
,
1000
0000
0010
0100
0010
0000
0100
0001
,
0100
0000
0001
1000
0001
0000
1000
0001
,
1000
0000
0100
0010
0001
0000
0010
0001
,
0100
0000
0010
0100
0001
0000
0100
0010
,
1000
0000
0100
0010
0001
0000
0010
0001
,
1000
0000
0010
1000
0100
0000
0010
0001
,
0100
0000
0010
1000
0010
1000
0010
0000
,
1000
0000
0001
0100
0001
0100
0001
0000
,
0100
0000
0010
0100
0010
1000
0001
0010
,
0001
0100
0010
1000
0100
0010
0001
0010
,
0100
0000
0000
0000
0010
0000
0000
0000
0001
0100
1000
0100
0010
0000
0010
0100
0001
0000
1000
1000
0000
0001
0000
0010
0011
0000
0000
0000
0010
0000
0100
0000
,
0000
0100
0000
0100
0000
0000
0110
0000
1100
0000
1001
0000
0000
0000
0001
0100
,
0000
0100
0000
0100
0000
0000
1010
0000
0101
0000
1010
0000
0000
0000
0010
0100
,
0000
0100
0000
0100
0000
0000
0110
0000
0101
0000
1001
0000
0000
0000
1000
0100
,
0000
0000
0100
0000
0000
0000
0100
0000
0000
0000
0000
0000
0010
0000
0100
0000
0000
0010
0000
0000
0001
0000
0000
0000
1001
0000
0000
0000
0000
0000
0000
0000
,
0100
0000
0001
0000
0000
1000
0000
0000
0100
0000
0000
0000
1100
0000
0000
0000
,
0100
0000
0010
0000
0000
0001
0000
0000
0100
0000
0000
0000
0110
0000
0000
0000
,
0100
0000
0010
0000
0000
1000
0000
0000
0001
0000
0000
0000
1001
0000
0000
0000
,
0101
0000
0101
0000
1100
0000
1100
0000
1000
0001
1000
0000
0101
0000
0000
0000
,
0001
0000
0100
0000
0000
1000
0000
0000
0100
0000
0000
0000
0110
0000
0000
0000
,
0010
0000
0001
0000
0000
0010
0000
0000
1000
0000
0000
0000
0110
0000
0110
0000
,
1001
0000
0110
0000
0110
0000
0110
0000
0110
0000
1001
0000
0100
0010
1000
0001
,
0010
0000
0100
0010
0001
0000
0000
0000
1001
0000
0001
0000
0100
0000
0010
0000
,
1000
0010
0001
0000
0010
0100
1000
0100
,
0001
0010
0100
0000
0100
0010
0001
0010
,
1000
0010
0100
0000
0010
0000
0001
0001
,
1000
0000
1000
0000
0001
0100
0001
0000
0010
0000
0000
0000
0010
0000
0100
0000
,
0001
1000
0100
0000
1000
0000
0010
0100
,
0001
0010
0100
0000
0011
0011
1100
0011
,
0101
0000
0101
0000
1010
0000
0101
0000
1000
0010
1000
0100
0010
0000
0100
0010
,
1000
0000
0010
0100
0001
0101
0000
1010
,
0000
0101
0001
0010
0011
0000
1100
0000
,
0011
0000
1001
0001
0100
0110
0000
1001
,
0000
0101
0000
0010
0110
1001
0000
0110
,
1001
0000
1000
0100
0010
0001
0010
0001
,
0100
0010
1000
0100
0010
0001
0010
0100
,
1000
0000
0010
0000
0010
0100
0001
0100
0001
0000
1000
0000
0100
1000
0010
1000
,
0010
0000
1000
0000
0010
0100
0001
1000
0001
0010
0100
1000
0001
1000
0010
0100
,
0001
1000
0100
0000
1001
0000
0000
0000
0000
0000
0000
0000
0000
0000
0000
0000
;

//---------------dance-single - ----------------
#NOTES:
     dance-single:
     :
     Medium:
     8:
     0.536,0.698,0.223,0.000,0.095:
0001
0100
0001
0100
,
0010
1000
0001
0100
,
1000
0100
0001
0010
,
0100
0000
0000
0000
,
0010
0001
0100
0010
,
1000
0000
0001
0100
0000
0001
0100
0000
,
0010
0000
0000
0000
,
0100
1000
0100
0010
,
1000
0001
0010
0100
,
1000
0100
0010
0001
,
1000
0010
1000
0010
1000
0010
1000
0010
,
1000
0010
1000
0010
1000
0010
1000
0010
,
1000
0000
0010
0000
0100
0000
0000
0010
,
0000
1000
0000
0000
0001
0000
0000
1000
,
0000
0100
0000
0000
0010
0000
0000
0100
,
0000
0000
0010
0000
0001
0000
0000
0100
,
0000
0001
0000
0000
1000
0000
0000
0010
,
0000
1000
0000
0000
0010
0000
0000
0100
,
0000
0001
0000
0000
0010
0000
0000
0100
,
0010
0000
0001
0100
0000
0010
1000
0000
,
0001
1000
0000
0000
0001
0000
0000
0010
,
0000
1000
0000
0000
0010
0000
0000
0010
,
0000
0001
0000
0000
0010
0000
0000
0001
,
0000
0100
0010
0000
1000
0000
0001
0010
,
0000
0001
0000
0000
1000
0000
0000
0100
,
0000
0010
0000
0000
0100
0000
0010
0000
,
0001
0010
0100
1000
,
0001
0000
1000
0100
1000
0000
0010
0000
,
0010
0100
0000
0000
0001
0000
0000
0100
,
0000
0001
0000
0000
0010
0000
0000
0100
,
0000
0010
0000
0000
0001
0000
0000
1000
,
0000
0000
0010
0000
0100
0000
0000
0100
,
0000
0001
0000
0000
0100
0000
0000
0001
,
0000
0010
0000
0000
0100
0000
0000
0010
,
0000
0001
0000
0000
1000
0000
0000
0000
,
0010
0000
0100
0001
0000
0001
0010
0000
,
0100
1000
0000
0000
0001
0000
0000
1000
,
0000
0010
0000
0000
0100
0000
0000
0010
,
0000
1000
0000
0000
0001
0000
0000
0010
,
0000
0000
0100
0000
0010
0000
0000
0001
,
0000
0100
0000
0000
0010
0000
0000
1000
,
0000
0001
0000
0000
1000
0000
0001
0000
,
1001
0000
0110
0000
0101
1100
0000
0000
,
1010
0000
0000
0010
0000
0000
0100
0000
,
0000
1000
0000
0100
0000
0000
0001
0000
,
0000
0010
0000
0100
0000
0000
0010
0000
,
0000
0001
1000
0000
0001
0000
0010
0000
,
0000
0001
0000
0010
0000
0000
0100
0000
,
0000
1000
0000
0100
0000
0000
1000
0000
,
0000
0001
0000
0100
0000
0000
0001
0000
,
1000
0000
0010
0100
0000
0010
1000
0000
,
1000
0100
0000
0010
0000
0000
0001
0000
,
0000
0010
0000
0001
0000
0000
0100
0000
,
0000
0010
0000
1000
0000
0000
0010
0000
,
0000
0100
0000
0010
1000
0000
0100
0000
,
0000
0010
0000
0100
0000
0000
1000
0000
,
0000
0001
0000
0100
0000
0000
0010
0000
,
0100
0001
0010
0100
,
0010
0000
0001
0000
1000
0010
0100
0000
,
0010
1000
0010
0100
,
0001
0010
1000
0010
,
0001
0100
0010
1000
,
0001
0100
1000
0100
,
0010
1000
0001
0010
,
0100
1000
0100
0001
,
0100
0010
0001
0100
,
0010
1000
0001
0010
,
0100
1100
0100
0010
,
0001
0100
0010
1000
,
0001
0101
0001
0010
,
0001
0100
0010
1000
,
0001
1001
0001
0100
,
0010
1010
1000
0001
,
0010
0011
0010
0110
,
0100
1100
1000
1001
,
0001
0000
0000
0000
0101
0000
0000
0000
0000
0000
0000
0000
1001
0000
0001
0100
,
0000
0010
0000
1000
0000
0000
0010
0000
0100
0000
0010
0000
1000
0000
0100
0010
,
0000
0001
0000
0010
0000
0000
0100
0000
0010
0000
0001
0000
1000
0000
0001
0100
,
0000
0010
0000
1000
0000
0000
0100
0000
0001
0000
0100
0000
0010
0000
0100
1000
,
0000
0000
0010
0000
0000
0000
0100
0000
0000
0000
0000
0000
0010
0000
0100
0000
0000
0010
0000
0000
0100
0000
0000
0000
1001
0000
0000
0000
0000
0000
0000
0000
,
0001
0000
1000
0000
0000
0010
0000
0000
1000
0000
0000
0000
0010
0000
0000
0000
,
0100
0000
0001
0000
0000
0100
0000
0000
0010
0000
0000
0000
1000
0000
0000
0000
,
0100
0000
0010
0000
0000
0100
0000
0000
0010
0000
0000
0000
0001
0000
0000
0000
,
0010
0100
1000
0010
0100
0000
0001
0000
,
1000
0000
0010
0000
0000
1000
0000
0000
0010
0000
0000
0000
0100
0000
0000
0000
,
0001
0000
0100
0000
0000
0001
0000
0000
0100
0000
0000
0000
0001
0000
0010
0000
,
0100
1000
0001
0001
1000
0010
0100
0010
,
1000
0010
0100
0000
1001
0000
0001
0100
,
0000
0001
0000
0000
1000
0000
0000
0000
0100
0000
0000
0000
1000
0000
0100
0000
,
0000
0001
0000
0000
0100
0000
0000
0000
0010
0000
0000
0000
0001
0000
0010
0000
,
0000
1000
0000
0000
0010
0000
0000
0000
0100
0000
0000
0000
0010
0000
0001
0000
,
0100
1000
0100
0000
0010
0000
0100
0010
,
0000
1000
0000
0000
0010
0000
0000
0000
0100
0000
0000
0000
0001
0000
1000
0000
,
0000
0100
0000
0000
1000
0000
0000
0000
0010
0000
0100
0000
0001
0000
1000
0000
,
0100
0001
0001
0100
0100
0010
0001
1000
,
0010
0000
1000
0010
0100
0001
0000
0100
,
0000
0010
0000
0000
1001
0000
0110
0000
,
1001
0000
0001
1000
0100
0010
0000
0001
,
0000
0010
0000
0000
0011
1100
0000
0101
,
1010
0000
0001
1000
0010
0100
0000
0100
,
0000
0010
1000
0001
0010
0000
0100
0000
,
0010
0000
0011
0010
0100
0000
1100
0100
,
0010
0000
0011
0010
0100
1000
0010
0100
,
0001
1001
0000
0000
;

//---------------dance-single - ----------------
#NOTES:
     dance-single:
     :
     Easy:
     6:
     0.404,0.616,0.469,0.000,0.000:
0000
0000
0000
0000
,
1001
0000
0110
0000
,
0101
0000
1010
0000
,
1001
0000
0000
0000
,
1100
0000
0110
0000
,
1100
0000
0110
0000
,
1001
0000
0000
0000
,
0101
0000
1001
0000
,
1100
0000
1001
0000
,
0110
0010
0010
0010
,
0110
0000
0110
0000
,
0110
0000
0000
0010
0100
0000
0000
0000
,
0010
0000
0100
0000
,
0001
0000
1000
0000
,
0100
0000
1000
0000
,
0010
0100
0010
0000
,
0100
0000
0010
0000
,
1000
0000
0001
0000
,
0010
0000
0100
0000
,
0010
0001
0100
0010
,
1000
0000
1000
0000
,
0001
0000
0001
0000
,
0100
0000
0100
0000
,
0010
1000
0010
0000
,
0100
0000
0010
0000
,
1000
0000
0001
0000
,
1000
0100
0010
0001
,
0010
0100
1000
0100
,
0001
0000
0100
0000
,
0010
0000
0001
0000
,
0100
0000
0010
0000
,
1000
0010
0100
0000
,
0010
0000
1000
0000
,
0001
0000
0010
0000
,
0100
0000
0010
0000
,
0001
0000
0000
0100
0000
0000
0010
0000
,
1000
0000
0010
0000
,
0100
0000
0010
0000
,
1000
0000
0001
0000
,
0100
0001
0100
0000
,
0010
0000
1000
0000
,
0100
0000
1000
0000
,
0010
0000
0100
0000
0010
1000
0000
0000
,
0001
1000
0000
0100
,
0000
1000
0000
0010
,
0000
0100
0000
0001
,
0000
0100
0010
0100
,
0000
0010
0000
1000
,
0000
0001
0000
0010
,
0000
0100
0000
0010
,
0000
0001
0100
0010
,
1000
0001
0000
0001
,
0000
1000
0000
1000
,
0000
0010
0000
0010
,
0000
0100
0001
0010
,
0000
0100
0000
0010
,
0000
0001
0000
1000
,
0000
0001
0100
0001
,
1000
0010
1000
0010
,
0001
0010
0000
0010
,
0000
0100
0000
0100
,
0000
0010
0000
0010
,
0000
0110
0000
1001
,
0000
1000
0000
1000
,
0000
0001
0000
0001
,
0000
1000
0000
1000
,
0000
1001
0000
0110
,
0000
0101
0000
0001
,
0000
0100
0000
0010
,
0000
1010
0000
1000
,
0000
0100
0000
0010
,
0000
0011
0000
0001
,
0000
0011
0000
0010
,
0000
0110
0000
1001
,
0000
0110
0000
1001
,
0000
0110
0000
0100
,
0001
1000
0100
1000
,
0010
0100
0001
1000
,
0100
1000
0001
0100
,
0010
0000
0000
1001
,
0001
0100
0010
1010
,
0010
0100
0001
1001
,
1000
0100
0010
0110
,
1001
1001
1001
0101
,
0001
0100
0010
0110
,
0010
0000
0100
0000
0010
0000
1000
0001
,
1000
0001
1000
0001
1000
0001
1000
0001
,
1000
0001
1000
0000
1010
0000
0010
0000
,
0100
0001
0011
0001
,
0100
1000
1100
0100
,
0010
1000
1001
0101
,
0101
0101
1001
1000
,
0100
0010
0110
0010
,
0001
0000
0100
0000
0010
1000
0001
0100
,
0010
1000
0010
0100
0010
1000
0001
0010
,
0100
0010
0001
0100
,
0010
1000
1010
0101
,
1010
0010
0100
0001
,
1000
0000
0100
1000
0010
0100
0000
0010
,
0100
0110
0001
1000
,
0100
0010
0011
1100
,
0101
1001
0010
1001
,
0100
0000
0010
0000
0100
0001
0100
0010
,
1000
0101
0000
0000
;

//---------------dance-single - ----------------
#NOTES:
     dance-single:
     :
     Beginner:
     3:
     0.219,0.411,0.239,0.000,0.000: // measure 1
0000
0000
0000
0000
,  // measure 2
0001
0000
0001
0000
,  // measure 3
1000
0000
1000
0000
,  // measure 4
0010
0000
0000
0000
,  // measure 5
0100
0000
0100
0000
,  // measure 6
0100
0000
0100
0000
,  // measure 7
0110
0000
0000
0000
,  // measure 8
0010
0000
0010
0000
,  // measure 9
1000
0000
1000
0000
,  // measure 10
0001
0000
1000
0000
,  // measure 11
0010
0000
0010
0000
,  // measure 12
0010
0000
0010
0000
,  // measure 13
0110
0000
0000
0000
,  // measure 14
0100
0000
0000
0000
,  // measure 15
0001
0000
0000
0000
,  // measure 16
1000
0000
1000
0000
,  // measure 17
0100
0000
0000
0000
,  // measure 18
1000
0000
0000
0000
,  // measure 19
0010
0000
0000
0000
,  // measure 20
0100
0000
0010
0000
,  // measure 21
0100
0000
0000
0000
,  // measure 22
0001
0000
0000
0000
,  // measure 23
1000
0000
0000
0000
,  // measure 24
0100
0000
1000
0000
,  // measure 25
0001
0000
0000
0000
,  // measure 26
0100
0000
0000
0000
,  // measure 27
0010
0000
0010
0000
,  // measure 28
0010
0000
0110
0000
,  // measure 29
1001
0000
0000
0000
,  // measure 30
0001
0000
0000
0000
,  // measure 31
1000
0000
0000
0000
,  // measure 32
0001
0000
0001
0000
,  // measure 33
0100
0000
0000
0000
,  // measure 34
0010
0000
0000
0000
,  // measure 35
0100
0000
0000
0000
,  // measure 36
0010
0000
0010
0000
,  // measure 37
1000
0000
0000
0000
,  // measure 38
0010
0000
0000
0000
,  // measure 39
0100
0000
0000
0000
,  // measure 40
0001
0000
0001
0000
,  // measure 41
1000
0000
0000
0000
,  // measure 42
0001
0000
0000
0000
,  // measure 43
1001
0010
1001
0000
,  // measure 44
0000
0001
0000
0000
,  // measure 45
0000
1000
0000
0000
,  // measure 46
0000
0001
0000
0000
,  // measure 47
0000
0100
0000
0100
,  // measure 48
0000
0010
0000
0000
,  // measure 49
0000
0010
0000
0000
,  // measure 50
0000
1000
0000
0000
,  // measure 51
0000
0100
0000
1000
,  // measure 52
0000
0001
0000
0000
,  // measure 53
0000
1000
0000
0000
,  // measure 54
0000
0001
0000
0000
,  // measure 55
0000
0100
0000
0100
,  // measure 56
0000
0010
0000
0000
,  // measure 57
0000
0010
0000
0000
,  // measure 58
0000
0100
0000
0100
,  // measure 59
0000
0100
0000
0010
,  // measure 60
0000
1000
0000
0000
,  // measure 61
0000
0001
0000
0000
,  // measure 62
0000
0100
0000
0000
,  // measure 63
0000
0010
0000
1000
,  // measure 64
0000
0010
0000
0000
,  // measure 65
0000
0100
0000
0000
,  // measure 66
0000
0001
0000
0000
,  // measure 67
0000
1000
0000
0100
,  // measure 68
0000
1000
0000
0000
,  // measure 69
0000
0001
0000
0000
,  // measure 70
0000
0100
0000
0000
,  // measure 71
0000
0001
0000
0000
,  // measure 72
0000
1001
0000
0000
,  // measure 73
0000
0110
0000
0000
,  // measure 74
0000
1001
0000
1001
,  // measure 75
0000
0110
0000
0110
,  // measure 76
0000
1001
0000
0001
,  // measure 77
0000
0100
0000
0010
,  // measure 78
0000
1000
0000
0001
,  // measure 79
0000
1000
0000
0010
,  // measure 80
0000
0100
0000
1001
,  // measure 81
0000
0000
0000
1001
,  // measure 82
0000
0000
0000
1001
,  // measure 83
0000
0000
0000
1001
,  // measure 84
0010
0010
0010
0110
,  // measure 85
0000
0000
0000
0110
,  // measure 86
0000
0000
0000
1000
,  // measure 87
1000
0000
1000
0000
0000
0001
1000
0000
,  // measure 88
1000
0001
0100
0000
,  // measure 89
0000
0000
0010
0000
,  // measure 90
0000
0000
1000
0000
,  // measure 91
0000
0000
0100
0010
,  // measure 92
0010
0001
1000
0000
,  // measure 93
0000
0000
0001
0000
,  // measure 94
0000
0000
0100
0100
,  // measure 95
0100
0000
0000
0010
0100
0000
0010
0000
,  // measure 96
0100
0001
0000
1000
,  // measure 97
0000
0100
1000
1000
,  // measure 98
1000
0001
0000
0100
,  // measure 99
0000
0010
0110
0000
,  // measure 100
1001
1001
0000
0000
,  // measure 101
0000
1001
0000
0000
,  // measure 102
0000
0110
0000
1001
,  // measure 103
0000
0110
1001
0110
,  // measure 104
1001
0110
0000
0000
;
