#TITLE:Event Horizon;
#SUBTITLE:;
#ARTIST:Darius;
#TITLETRANSLIT:;
#SUBTITLETRANSLIT:;
#ARTISTTRANSLIT:;
#CREDIT:;
#BANNER:Event Horizon.png;
#BACKGROUND:Event Horizon-background.png;
#JACKET:Event Horizon-jacket.png;
#LYRICSPATH:;
#CDTITLE:;
#MUSIC:Event Horizon.mp3;
#OFFSET:-0.619;
#SAMPLESTART:21.300;
#SAMPLELENGTH:12.000;
#SELECTABLE:YES;
#BPMS:0.000=185.380;
#STOPS:156.000=0.972
;
#BGCHANGES:;

//---------------dance-single - ----------------
#NOTES:
     dance-single:
     :
     Hard:
     7:
     0.467,0.726,0.761,0.116,0.000:
0000
0000
0000
0000
,
0000
0000
0000
0000
,
0000
0000
0000
0000
,
0000
0000
0000
0000
,
0000
0000
0000
0000
,
0000
0000
0000
0000
,
0000
0000
0000
0000
,
0000
0000
0000
0000
,
0002
0000
0000
0000
,
2003
0000
0000
0000
,
0200
0000
0000
0000
,
0000
0000
0000
3300
,
2000
0000
0000
0000
,
3002
0000
0000
0000
,
0020
0000
0000
0033
,
0001
0010
1000
0010
0100
1000
0002
0000
,
1003
0000
0001
0100
0101
0000
1000
0100
,
1100
0000
0001
0100
0101
0000
1000
0100
,
1100
0000
0001
0100
0101
0000
1000
0100
,
1100
0000
0001
0100
0101
0000
0001
1000
,
1001
0000
0010
1000
1010
0000
0010
0001
,
0011
0000
0010
1000
1010
0000
0010
0001
,
0011
0000
0010
1000
1010
0000
0010
0001
,
0011
0000
0010
1000
0010
0001
1000
0010
,
1000
0000
0000
0001
0000
0000
0100
0000
,
0000
0001
0000
1000
0000
0100
0100
0000
,
1000
0000
0000
0010
0000
0000
0100
0000
,
0000
0010
0000
0010
0000
0100
0010
0000
,
1000
0000
0000
0001
0000
0000
0100
0000
,
0000
0001
0000
0010
0000
0100
0010
0000
,
0001
0000
0000
1000
0000
0000
0100
0000
,
0000
0010
0000
0010
0000
0100
0010
0000
,
0001
0000
0000
0010
0000
0000
0100
0000
,
0000
0010
0000
0001
0000
1000
0001
0000
,
0100
0000
0000
0010
0000
0000
1000
0000
,
0000
0010
0000
0100
0000
0010
1000
0000
,
0010
0000
0000
0100
0000
0000
0010
0000
,
0000
1000
0000
0100
0000
0010
0001
0000
,
0010
0000
0000
0100
0000
0000
1000
0000
,
1001
0000
1001
0000
0001
0010
0011
0000
,
0010
0100
0110
0000
0100
1000
1100
0000
,
1000
0100
1100
0000
0100
0010
0110
0000
,
0010
0001
0011
0000
0001
1000
1001
0000
,
0001
0100
0101
0000
0100
0010
0110
0000
,
0010
1000
1010
0000
1000
0100
1100
0000
,
0100
0010
0110
0000
0010
0001
0011
0000
,
0001
0100
0101
0000
0100
0010
0010
0100
,
0100
0001
1000
0000
0000
0000
0000
0000
,
0000
0001
0100
0001
,
0010
0000
0000
0100
0020
0000
0000
0000
,
0030
0000
0000
0000
,
0000
0000
0000
0000
,
0000
0100
1000
0010
,
0100
0000
0000
0001
2000
0000
0000
0000
,
0000
3000
0000
0000
,
0000
1001
0000
0000
,
0000
0001
0010
1000
,
0010
0000
0200
0000
,
0300
0010
0001
1000
,
0002
0000
0003
0000
,
0000
1000
0100
0010
,
0100
0000
0000
1000
0020
0000
0000
0000
,
0000
0000
0130
0001
0010
0100
0010
0001
,
2000
3000
0101
0000
1010
0000
0101
0000
,
0010
0101
0000
1100
0000
0101
0000
0001
,
1001
0000
1100
0000
0110
0000
0010
0110
,
0000
0110
0000
0011
0000
0001
0101
0000
,
1001
0000
1100
0000
0100
0110
0000
0110
,
0000
0110
0000
0100
0011
0000
0011
0000
,
0011
0000
0001
0101
0000
1010
0000
0001
,
1001
0001
0101
0000
1010
0000
0101
0000
,
1001
1001
0000
0101
0000
1010
0000
1100
,
1100
0000
0110
0000
0011
0000
0110
0110
,
0000
1001
0000
0101
0000
1010
1010
0000
,
0101
0000
1010
0000
1100
1100
0000
0110
,
0000
0011
0000
0011
0011
0000
1100
0000
,
0011
0000
0101
1010
0000
0101
0000
0001
,
0010
0100
0010
0000
0000
0000
0000
0000
;

//---------------dance-single - ----------------
#NOTES:
     dance-single:
     :
     Medium:
     6:
     0.353,0.484,0.090,0.098,0.000:
0000
0000
0000
0000
,
0000
0000
0000
0000
,
0000
0000
0000
0000
,
0000
0000
0000
0000
,
0000
0000
0000
0000
,
0000
0000
0000
0000
,
0000
0000
0000
0000
,
0000
0000
0000
0000
,
0002
0000
0000
0000
,
2003
0000
0000
0000
,
3200
0000
0000
0000
,
0000
0000
0000
0000
,
2300
0000
0000
0000
,
3020
0000
0000
0000
,
0230
0000
0000
0000
,
0301
0000
0000
1010
0000
0000
0001
0000
,
1001
0000
0001
0100
0001
0000
0100
0001
,
0100
0000
0001
0100
0001
0000
0100
0010
,
0100
0000
0010
0100
0010
0000
0100
0010
,
0100
0000
0010
0100
0010
0000
1000
0010
,
1000
0000
0010
1000
0010
0000
1000
0010
,
1000
0000
0010
1000
0010
0000
1000
0001
,
1000
0000
0001
1000
0001
0000
1000
0001
,
1000
0000
0001
1000
0001
0000
0001
0000
,
0100
0000
0000
0001
0000
0000
0010
0000
,
0000
0001
0000
0010
0000
0001
0010
0000
,
0001
0000
0000
1000
0000
0000
0010
0000
,
0000
0100
0000
0010
0000
0100
0010
0000
,
1000
0000
0000
0010
0000
0000
1000
0000
,
0000
0100
0000
0010
0000
0001
0010
0000
,
0001
0000
0000
1000
0000
0000
0010
0000
,
0000
0100
0000
0010
0000
0100
0010
0000
,
1000
0000
0000
1000
0000
0000
1000
0000
,
0000
0001
0000
0100
0000
0010
0100
0000
,
0010
0000
0000
0100
0000
0000
0010
0000
,
0000
0100
0000
0001
0000
1000
0100
0000
,
1000
0000
0000
1000
0000
0000
1000
0000
,
0000
0100
0000
1000
0000
0100
0010
0000
,
0001
0000
0000
0010
0000
0000
0001
0000
,
1001
0000
0001
0000
0100
0001
0100
0000
,
0100
0010
0100
0000
0010
1000
0010
0000
,
1000
0100
1000
0000
0100
0010
0100
0000
,
0010
0001
0010
0000
0001
0100
0001
0000
,
0100
0010
0100
0000
0010
1000
0010
0000
,
1000
0001
1000
0000
0001
0100
0001
0000
,
0100
0010
0100
0000
0010
1000
0010
0000
,
1000
0100
1000
0000
0100
0010
0100
0000
,
0010
0001
0000
0000
,
0000
0001
0010
0100
,
0010
0000
0000
0001
2000
0000
0000
0000
,
3000
0000
0000
0000
,
0000
0000
0000
0000
,
0000
1000
0100
0010
,
0001
0000
0000
0001
0200
0000
0000
0000
,
0000
0300
0000
0000
,
0000
1001
0000
0000
,
0000
0001
0010
0100
,
0010
0000
0200
0000
,
0300
0010
0001
1000
,
0200
0000
0300
0000
,
0000
0100
0010
0001
,
1000
0000
0000
0010
0200
0000
0000
0000
,
0000
0000
0310
0000
0000
1001
0000
0000
,
0010
0100
0001
0100
,
0010
1000
0000
0100
0000
0010
0000
0100
,
1000
0000
0010
0000
0100
0000
0010
1000
,
0000
0001
0000
0010
0000
0100
0010
0000
,
0001
0000
1000
0000
0010
0100
0000
0100
,
0000
0100
0000
0010
1000
0000
0001
0000
,
0010
0000
0100
1000
0000
0100
0000
1000
,
0100
0010
0001
0000
0010
0000
0011
0000
,
0001
0100
0000
0010
0000
1000
0000
0010
,
0100
0000
0001
0000
0101
0000
0001
0100
,
0000
0010
0000
1000
0000
0010
0100
0000
,
0001
0000
1001
0000
0001
0010
0000
0100
,
0000
0010
0000
0001
0010
0000
0100
0000
,
1100
0000
0100
0010
0000
0001
0000
1000
,
0001
0100
0110
0000
0000
0000
0000
0000
;

//---------------dance-single - ----------------
#NOTES:
     dance-single:
     :
     Easy:
     3:
     0.182,0.277,0.018,0.107,0.000:
0000
0000
0000
0000
,
0000
0000
0000
0000
,
0000
0000
0000
0000
,
0000
0000
0000
0000
,
0000
0000
0000
0000
,
0000
0000
0000
0000
,
0000
0000
0000
0000
,
0000
0000
0000
0000
,
0001
0000
0000
0000
,
0100
0000
0000
0000
,
0001
0000
0000
0000
,
0000
0000
0000
0000
,
1000
0000
0000
0000
,
0100
0000
0000
0000
,
1000
0000
0000
0000
,
2002
0000
0000
3003
,
0001
0000
0100
0000
,
0001
0000
1000
0000
,
0100
0000
1000
0000
,
0010
0000
0100
0000
,
0010
0000
1000
0000
,
0001
0000
0010
0000
,
0001
0000
0100
0000
,
0010
0000
1000
0000
,
0020
0000
0000
0000
,
0000
0000
0030
0000
,
0020
0000
0000
0000
,
2030
0000
0000
3000
,
0002
0000
0000
0000
,
0000
0000
0000
0003
,
0020
0000
0000
0000
,
0000
0000
0000
0030
,
0002
0000
0000
0000
,
0000
0000
0000
0003
,
2000
0000
0000
0000
,
3200
0000
0000
0000
,
2300
0000
0000
0000
,
0000
0000
0000
0000
,
3020
0000
0000
0000
,
0030
0100
0000
0001
,
0000
1000
0000
0100
,
0000
0010
0000
0100
,
0000
1000
0000
0001
,
0000
0100
0000
0001
,
0000
1000
0000
0100
,
0000
0010
0000
0100
,
0000
1000
0000
0010
,
0100
0001
0000
0000
,
0000
0001
0100
0010
,
0100
0000
0001
0000
,
0000
0000
0000
0000
,
0000
0000
0000
0000
,
0000
0001
0010
0100
,
1000
0000
0100
0000
,
0000
0000
0000
0000
,
0000
1000
0000
0000
,
0000
0100
0100
1000
,
0100
0000
0010
0000
,
0000
0100
1000
0001
,
0100
0000
0000
0000
,
0000
0001
0010
0100
,
0010
0000
0001
0000
,
0000
1001
0000
0000
,
0000
0001
0100
0001
,
0000
0100
0000
0010
0000
0100
0000
0000
,
0010
0000
1000
0000
0010
0000
0000
1000
,
0000
0001
0000
1000
0000
0000
0100
0000
,
0010
0000
0100
0000
0000
0010
0000
0001
,
0000
0010
0000
0000
0001
0000
0100
0000
,
0001
0000
0000
0100
0000
0010
0000
0100
,
0010
1000
0010
1000
,
0000
0010
0000
0100
0000
0001
0000
0000
,
1000
0000
0100
0000
0010
0000
0000
0100
,
0000
1000
0000
0010
0000
0000
0100
0000
,
0001
0000
0010
0000
0000
0100
0000
1000
,
0000
0100
0000
0000
1000
0000
0010
0000
,
0100
0000
0000
0010
0000
1000
0000
0000
,
0001
1000
0100
0000
0000
0000
0000
0000
;

//---------------dance-single - ----------------
#NOTES:
     dance-single:
     :
     Beginner:
     2:
     0.141,0.207,0.090,0.000,0.000: // measure 1
0000
0000
0000
0000
,  // measure 2
0000
0000
0000
0000
,  // measure 3
0000
0000
0000
0000
,  // measure 4
0000
0000
0000
0000
,  // measure 5
0000
0000
0000
0000
,  // measure 6
0000
0000
0000
0000
,  // measure 7
0000
0000
0000
0000
,  // measure 8
0000
0000
0000
0000
,  // measure 9
0001
0000
0000
0000
,  // measure 10
0100
0000
0000
0000
,  // measure 11
0001
0000
0000
0000
,  // measure 12
0000
0000
0000
0000
,  // measure 13
1000
0000
0000
0000
,  // measure 14
0100
0000
0000
0000
,  // measure 15
1000
0000
0000
0000
,  // measure 16
0000
0000
0000
0000
,  // measure 17
1001
0000
0001
0000
,  // measure 18
0001
0000
0001
0000
,  // measure 19
1000
0000
1000
0000
,  // measure 20
1000
0000
1000
0000
,  // measure 21
0110
0000
0100
0000
,  // measure 22
0100
0000
0100
0000
,  // measure 23
0010
0000
0010
0000
,  // measure 24
0010
0000
0010
0000
,  // measure 25
1001
0000
0000
0000
,  // measure 26
0001
0000
0000
0000
,  // measure 27
1000
0000
0000
0000
,  // measure 28
1000
0000
0000
0000
,  // measure 29
0010
0000
0000
0000
,  // measure 30
0000
0000
0000
0000
,  // measure 31
0010
0000
0000
0000
,  // measure 32
0100
0000
0000
0000
,  // measure 33
1001
0000
0000
0000
,  // measure 34
0001
0000
0000
0000
,  // measure 35
0001
0000
0000
0000
,  // measure 36
0100
0000
0000
0000
,  // measure 37
0001
0000
0000
0000
,  // measure 38
0000
0000
0000
0000
,  // measure 39
1000
0000
0000
0000
,  // measure 40
1001
1001
0000
0000
,  // measure 41
0000
0001
0000
0000
,  // measure 42
0000
1000
0000
0000
,  // measure 43
0000
0010
0000
0010
,  // measure 44
0000
0100
0000
0000
,  // measure 45
0000
0010
0000
0000
,  // measure 46
0000
1000
0000
0000
,  // measure 47
0000
0001
0000
1000
,  // measure 48
0000
0110
0000
0000
,  // measure 49
0000
0010
0000
0100
,  // measure 50
0000
0000
0001
0000
,  // measure 51
0000
0000
0000
0000
,  // measure 52
0000
0000
0000
0000
,  // measure 53
0000
1000
0000
0100
,  // measure 54
0000
0000
0100
0000
,  // measure 55
0000
0000
0000
0000
,  // measure 56
0000
0110
0000
0000
,  // measure 57
0000
0010
0000
0001
,  // measure 58
0000
0000
1000
0000
,  // measure 59
0000
0001
0000
0001
,  // measure 60
0000
0100
0000
0000
,  // measure 61
0000
0001
0000
0010
,  // measure 62
0000
0100
0000
1000
,  // measure 63
0000
1001
0000
0000
,  // measure 64
0000
0001
0001
0001
,  // measure 65
0000
1000
0000
0000
0000
0000
0000
0000
,  // measure 66
1000
0000
1000
0000
1000
0000
0000
0010
,  // measure 67
0000
0000
0000
0100
,  // measure 68
0100
0000
0100
0000
0000
0010
0000
0000
,  // measure 69
0000
0000
0010
0010
,  // measure 70
0010
0000
0000
0100
0000
0000
0000
0000
,  // measure 71
0001
0001
0001
0001
,  // measure 72
0000
1000
0000
0000
0000
0000
0000
0000
,  // measure 73
0100
0000
0100
0000
0100
0000
0000
0010
,  // measure 74
0000
0000
0000
0100
,  // measure 75
0100
0000
0100
0000
0000
1000
0000
0000
,  // measure 76
0000
0000
1000
1000
,  // measure 77
1000
0000
0000
0001
0000
0000
0000
0000
,  // measure 78
1000
1001
0000
0000
;
