#TITLE:Endless Day;
#SUBTITLE:;
#ARTIST:echo image;
#TITLETRANSLIT:;
#SUBTITLETRANSLIT:;
#ARTISTTRANSLIT:;
#CREDIT:;
#BANNER:Endless Day.png;
#BACKGROUND:Endless Day-background.png;
#JACKET:Endless Day-jacket.png;
#LYRICSPATH:;
#CDTITLE:cdtitle.png;
#MUSIC:Endless Day.mp3;
#OFFSET:-0.019;
#SAMPLESTART:31.280;
#SAMPLELENGTH:12.000;
#SELECTABLE:YES;
#BPMS:0.000=130.000;
#STOPS:;
#BGCHANGES:;

//---------------dance-single - ----------------
#NOTES:
     dance-single:
     :
     Hard:
     7:
     0.371,0.469,0.070,0.156,0.307:
0000
0000
0000
0000
,
0000
0000
0000
0000
,
0000
0000
0000
0000
,
0000
0000
0000
0000
,
0001
0000
0000
1000
0000
0000
0001
0000
0000
1000
0000
0000
0100
0000
0000
0000
,
0010
0000
0000
0001
0000
0000
0010
0000
0000
0001
0000
0000
0100
0000
0000
0000
,
0010
0000
0000
1000
0000
0000
0010
0000
0000
1000
0000
0000
0100
0000
0000
0000
,
0010
0000
0000
0100
0000
0000
0010
0000
0000
0100
0000
0000
0010
0000
0000
0000
,
0001
0000
0000
0000
1000
0000
0000
0000
0001
0000
1000
0000
0001
1000
0000
0000
,
0101
0000
0000
0100
0000
0000
0001
0000
0000
0010
0000
0000
0100
0000
0010
0000
,
0001
0000
0000
1000
0000
0000
0100
0000
0000
1000
0000
0000
0010
0000
0100
0000
,
0001
0000
0000
1000
0000
0000
0100
0000
0000
1000
0000
0000
0010
0000
0100
0000
,
0001
0000
0000
0001
0000
0000
1000
0000
0000
0100
0000
0000
1000
0000
0010
0000
,
0100
0000
0000
0100
0000
0000
0010
0000
0000
0010
0000
0000
0100
0000
0001
0000
,
1000
0000
0000
1000
0000
0000
0001
0000
0000
0001
0000
0000
0010
0000
0100
0000
,
1000
0000
0000
1000
0000
0000
0100
0000
0000
0100
0000
0000
0010
0000
0001
0000
,
0010
0000
0000
1000
0000
0000
0010
0000
0000
0100
0000
0000
0010
0000
0001
0000
,
1000
0000
0001
0100
0010
0000
0100
0010
,
1000
0000
0001
1000
0100
1000
0001
0100
,
0020
0000
0000
0000
,
0030
0000
0100
0010
,
1000
0010
0100
0000
0010
1000
0001
0000
,
0010
0100
0010
0001
1000
0010
0100
0002
,
0000
0000
0000
0000
0200
0000
0000
0303
,
0000
0000
0000
0000
0000
0000
0000
0000
0001
0000
0100
0000
0010
1000
0000
0000
,
0100
0000
0000
0010
0000
0010
0000
0000
0100
0000
0000
1000
0000
1000
0000
0000
,
0001
0000
0000
0100
0000
0100
0000
0000
0001
0000
0000
1000
0000
1000
0000
0000
,
0100
0000
0000
0010
0000
0010
0000
0000
0001
0000
0000
0010
0000
0010
0000
0000
,
0100
0000
0000
1000
0000
1000
0000
0000
0100
0000
1000
0000
0100
0010
0000
0000
,
0010
0000
0000
0010
0000
0010
0000
0000
0001
0000
0000
1000
0000
1000
0000
0000
,
0001
0000
0000
0100
0000
0100
0000
0000
0010
0000
0000
1000
0000
1000
0000
0000
,
0100
0000
0000
0010
0000
0010
0000
0000
0100
0000
0000
0010
0000
0010
0000
0000
,
0100
0000
0000
1000
0000
1000
0000
0000
0001
0000
0100
0000
0010
0100
0000
0000
,
0001
0000
1000
0010
0000
0100
0010
0000
,
1001
0000
0001
0100
0010
0100
0001
1000
,
0100
0100
1000
0010
0100
0001
1000
0002
,
0000
0000
0000
0003
,
1000
0000
0000
0100
0000
0000
0010
0000
0000
0001
0000
0000
1000
0000
0000
0000
,
0001
0100
0001
1000
0001
0010
0001
1000
,
0100
1000
0010
0100
0001
1000
0001
0100
,
0020
0000
1030
0200
0000
0002
0000
0000
,
0000
0000
0303
0110
,
1100
0100
0010
0100
1000
0010
0100
0001
,
1000
0001
0010
0001
1000
0100
0010
0100
,
2000
0000
0000
3000
,
0001
0000
0000
0100
0000
0000
0010
0000
0000
1000
0000
0000
0110
0000
0000
0000
,
1001
0000
0001
0100
0000
0010
0100
0001
,
1000
0100
0000
0010
0000
0002
0000
0000
,
2000
0000
0000
0000
,
0000
0000
0000
0000
0000
3003
0010
0000
,
2001
0001
0001
0001
,
3002
0100
0100
0203
,
0320
0000
0000
2000
0000
0000
0000
0000
,
0000
0000
0000
3030
,
2001
0001
0001
0001
,
3100
0200
0000
0000
0000
0000
0000
0010
,
0320
0000
0000
0000
,
0031
0000
0000
0010
0000
0000
0100
0000
0000
1000
0000
1000
0001
0000
1000
0000
,
0100
0000
0000
0010
0000
0000
0001
0000
0000
0010
0000
0000
0100
0000
0000
0000
,
1000
0000
0000
0100
0000
0000
1000
0000
0000
0010
0000
0000
0100
0000
0000
0000
,
0001
0000
0000
1000
0000
0000
0100
0000
0000
1000
0000
0000
0010
0000
0000
0000
,
0100
0000
0000
0001
0000
0000
0100
0000
0000
0010
0000
0000
1000
0000
0000
0000
,
0001
0000
0000
0001
0000
0000
1000
0000
0000
1000
0000
0000
0100
0000
0000
0000
,
0010
0000
0000
0010
0000
0000
0001
0000
0000
0001
0000
0000
1000
0000
0000
0000
,
0100
0000
0000
0010
0000
0000
0001
0000
0000
0010
0000
0000
0100
0000
0000
0000
,
1000
0000
0000
0001
0000
0000
0100
0000
0000
0001
0000
0000
1000
0000
0000
0000
,
0220
0000
0000
0000
,
0330
0000
0000
0000
;

//---------------dance-single - ----------------
#NOTES:
     dance-single:
     :
     Medium:
     5:
     0.271,0.339,0.070,0.194,0.124:
0000
0000
0000
0000
,
0000
0000
0000
0000
,
0000
0000
0000
0000
,
0000
0000
0000
0000
,
1000
0001
1000
0001
,
0100
0010
0100
0010
,
1000
1000
1000
1000
,
0001
0000
0000
0000
,
0100
0000
0010
0000
0100
0001
0010
0100
,
1000
0000
0000
0100
0000
0000
1000
0000
0000
0100
0000
0000
1000
0000
0000
0000
,
0001
0000
0000
0100
0000
0000
0001
0000
0000
0100
0000
0000
0001
0000
0000
0000
,
1000
0000
0000
0001
0000
0000
1000
0000
0000
0001
0000
0000
1000
0000
0000
0000
,
0010
0000
0000
0100
0000
0000
0010
0000
0000
0100
0000
0000
0010
0000
0000
0000
,
1000
0000
0000
0010
0000
0000
0100
0000
0000
0001
0000
0000
0010
0000
0000
0000
,
0100
0000
0000
1000
0000
0000
0100
0000
0000
0010
0000
0000
0001
0000
0000
0000
,
0010
0000
0000
0010
0000
0000
0100
0000
0000
0100
0000
0000
1000
0000
0000
0000
,
0100
0000
0000
0010
0000
0000
0001
0000
0000
1000
0000
0000
0001
0000
0100
0000
,
0010
0000
0100
0001
0000
1000
0000
0200
,
0000
0000
0310
0100
0000
1000
0000
0002
,
0000
0000
0200
0000
,
0000
0000
0303
0000
0001
0100
0000
0010
,
0000
0010
0000
0100
0000
0001
0000
1000
,
0000
0100
0000
0010
0000
0100
0000
2000
,
0000
0000
0002
0000
,
0000
0000
3003
0000
0010
0100
0001
0000
,
1001
0000
0001
0100
0000
0100
0000
0020
,
0000
0000
0130
0001
0000
1000
0000
0200
,
0000
0000
0020
0000
,
0000
0000
0330
0000
,
0010
0001
0000
0010
0000
0100
0000
0010
,
0000
0001
0000
1000
0000
0020
0000
0200
,
0000
0000
0000
0000
,
0330
0000
0000
0000
,
1001
0000
0001
0100
0000
1000
0100
0000
,
0110
0000
0010
0001
0000
0001
0010
0100
,
0010
0001
0000
1000
0000
0010
0000
0200
,
0000
0000
0000
0000
,
0300
0000
0000
0010
,
1001
0000
1000
0001
0000
0001
0100
0010
,
0100
0000
0001
1000
0000
0200
0000
0000
,
0310
0000
0100
1000
0000
0020
0000
0000
,
0000
0000
0000
0130
,
1001
0000
0001
0010
0000
0001
1000
0010
,
0100
0100
0000
0010
0000
1000
0000
0002
,
0000
0000
0000
0000
,
0003
0000
0000
1000
,
0101
0000
0001
0100
0000
0100
0010
1000
,
0010
1000
0000
0010
0000
0100
0000
0000
,
0002
0000
0000
0000
,
2000
0000
0000
3003
,
1002
0000
0000
0000
,
0200
0000
0003
0010
,
0320
0000
0000
0200
0000
0000
0000
0000
,
0000
0000
0330
0000
,
2001
0000
0000
0000
,
3200
0000
0000
0000
0000
0000
0000
0310
,
0002
0000
0000
0000
,
0000
0000
0000
0000
0000
0000
0000
0000
0000
0000
0000
0003
0000
0000
0000
0000
,
0001
0000
0000
0100
0000
0000
0001
0000
0000
0100
0000
0000
0001
0000
0000
0000
,
0100
0000
0000
0010
0000
0000
0100
0000
0000
0010
0000
0000
0100
0000
0000
0000
,
0010
0000
0000
1000
0000
0000
0010
0000
0000
1000
0000
0000
0010
0000
0000
0000
,
1000
0000
0000
0100
0000
0000
1000
0000
0000
0100
0000
0000
1000
0000
0000
0000
,
0001
0000
0000
0100
0000
0000
0001
0000
0000
1000
0000
0000
0100
0000
0000
0000
,
1000
0000
0000
0010
0000
0000
1000
0000
0000
0001
0000
0000
0010
0000
0000
0000
,
0001
0000
0000
0010
0000
0000
0100
0000
0000
1000
0000
0000
0100
0000
0000
0000
,
0010
0000
0000
0001
0000
0000
0010
0000
0000
0100
0000
0000
1000
0000
0000
0000
,
0202
0000
0000
0000
,
0303
0000
0000
0000
;

//---------------dance-single - ----------------
#NOTES:
     dance-single:
     :
     Easy:
     3:
     0.191,0.287,0.078,0.132,0.000:
0000
0000
0000
0000
,
0000
0000
0000
0000
,
0000
0000
0000
0000
,
0000
0000
0000
0000
,
0001
0000
0000
0000
,
1000
0000
0000
0000
,
0100
0000
0000
0000
,
0010
0000
0000
0000
,
0001
0000
1000
0000
0010
1000
0010
0000
,
0110
0010
1000
0010
,
0100
0001
0100
0001
,
1000
0001
1000
0001
,
1000
0100
1000
0100
,
0010
0010
0010
0100
,
0010
0010
0010
0100
,
1000
1000
1000
0001
,
0100
0100
0001
1000
,
0100
0000
1000
0000
,
0010
0000
0100
0000
,
0002
0000
0000
0000
,
0003
0000
1000
1000
,
0010
0000
1000
0000
,
0100
0000
1000
0000
,
0020
0000
0000
0000
,
0000
0000
0030
0000
0100
0001
0100
0000
,
0101
0000
0001
0000
,
1000
0000
0100
0000
,
1000
0000
0010
0000
,
0100
0000
0001
0000
,
1000
0000
0100
0000
,
1000
0000
0010
0000
,
0200
0000
0000
0000
,
0300
0000
0000
0000
,
0010
0000
0000
0100
,
1001
0001
1000
0100
,
1000
0010
0100
0010
,
2000
0000
0000
3000
,
0000
0000
0000
1000
,
1001
0001
0010
0001
,
1000
0100
0010
0001
,
0200
0020
0000
0000
,
0000
0000
0330
0100
,
1001
0001
0010
0001
,
1000
0100
0010
0001
,
0020
0000
0000
0030
,
0000
0000
0000
0100
,
1100
0000
0000
0000
,
0011
0000
0000
0000
,
2002
0000
0000
0000
,
0000
0000
0000
3000
,
0203
0000
0000
0300
,
0002
0000
0000
1003
,
2000
0000
0000
0000
,
0000
0000
0000
3000
,
0120
0000
0000
0000
,
2030
0000
0000
0000
,
3200
0000
0000
0000
,
0000
0000
0000
0300
,
0010
0001
0010
0010
,
0001
1000
0010
0010
,
1000
0100
0010
0010
,
0001
0100
0010
0010
,
1000
0001
0100
0100
,
0001
1000
0100
0100
,
1000
0010
0100
0100
,
0001
0010
0100
0100
,
2002
0000
0000
0000
,
3003
0000
0000
0000
;

//---------------dance-single - ----------------
#NOTES:
     dance-single:
     :
     Beginner:
     1:
     0.091,0.154,0.070,0.000,0.000: // measure 1
0000
0000
0000
0000
,  // measure 2
0000
0000
0000
0000
,  // measure 3
0000
0000
0000
0000
,  // measure 4
0000
0000
0000
0000
,  // measure 5
0001
0000
0000
0000
,  // measure 6
1000
0000
0000
0000
,  // measure 7
0100
0000
0000
0000
,  // measure 8
1000
0000
0000
0000
,  // measure 9
0010
0000
0000
0000
,  // measure 10
1001
0000
0000
0000
,  // measure 11
0001
0000
0000
0000
,  // measure 12
1000
0000
0000
0000
,  // measure 13
0001
0000
0000
0000
,  // measure 14
0100
0000
0000
0000
,  // measure 15
0001
0000
0000
0000
,  // measure 16
1000
0000
0000
0000
,  // measure 17
0100
0000
0000
0000
,  // measure 18
0010
0000
0000
0000
,  // measure 19
0001
0000
0000
0000
,  // measure 20
1000
0000
1000
0000
,  // measure 21
0000
0000
0001
0000
,  // measure 22
0100
0000
0000
0000
,  // measure 23
0001
0000
0000
0000
,  // measure 24
0100
0000
0000
0000
,  // measure 25
0000
0000
1000
0001
,  // measure 26
1001
0000
0000
0000
,  // measure 27
1000
0000
0000
0000
,  // measure 28
0010
0000
0000
0000
,  // measure 29
0000
0000
0000
0000
,  // measure 30
0100
0000
0000
0000
,  // measure 31
0001
0000
0000
0000
,  // measure 32
1000
0000
0000
0000
,  // measure 33
0000
0000
0000
0000
,  // measure 34
0010
0000
0100
0000
,  // measure 35
1001
0000
0000
0000
,  // measure 36
0001
0000
0010
0000
,  // measure 37
0100
0000
0000
0000
,  // measure 38
0000
0000
0000
1000
,  // measure 39
0010
0000
0000
0000
,  // measure 40
0100
0000
0001
0000
,  // measure 41
1000
1000
1000
0000
,  // measure 42
0000
0000
0000
0010
,  // measure 43
1001
0000
0000
0000
,  // measure 44
0100
0000
0010
0000
,  // measure 45
1000
0000
0000
0000
,  // measure 46
0000
0000
0000
0001
,  // measure 47
1001
0000
0000
0000
,  // measure 48
0110
0000
0000
0000
,  // measure 49
1001
0000
0000
0000
,  // measure 50
0010
0000
0000
0100
,  // measure 51
1001
0000
0000
0000
,  // measure 52
0001
0000
0000
1000
,  // measure 53
1000
0000
0010
0000
,  // measure 54
0000
0000
0000
0000
,  // measure 55
0100
0000
0000
0000
,  // measure 56
0001
0000
0000
0000
,  // measure 57
1000
0000
0000
0000
,  // measure 58
0100
0000
0010
0000
,  // measure 59
0001
0000
0000
0000
,  // measure 60
1000
0000
0000
0000
,  // measure 61
0001
0000
0000
0000
,  // measure 62
0100
0000
0000
0000
,  // measure 63
0001
0000
0000
0000
,  // measure 64
1000
0000
0000
0000
,  // measure 65
0100
0000
0000
0000
,  // measure 66
1000
0000
0010
0000
,  // measure 67
0110
0000
0000
0000
;
