#TITLE:Ek Dana Ni Do Dane;
#SUBTITLE:;
#ARTIST:Daler Mehndi;
#TITLETRANSLIT:;
#SUBTITLETRANSLIT:;
#ARTISTTRANSLIT:;
#CREDIT:;
#BANNER:Ek Dana Ni Do Dane.png;
#BACKGROUND:Ek Dana Ni Do Dane-background.png;
#JACKET:Ek Dana Ni Do Dane-jacket.png;
#LYRICSPATH:;
#CDTITLE:;
#MUSIC:Ek Dana Ni Do Dane.mp3;
#OFFSET:-5.090;
#SAMPLESTART:16.440;
#SAMPLELENGTH:12.000;
#SELECTABLE:YES;
#BPMS:0.000=190.000;
#STOPS:;
#BGCHANGES:;

//---------------dance-single - ----------------
#NOTES:
     dance-single:
     :
     Hard:
     10:
     0.719,0.851,0.534,0.259,0.828: // measure 1
1100
0100
0010
0011
0001
0100
0110
0000
,  // measure 2
1001
0000
0001
0100
0000
0100
0001
0000
0001
0100
0000
0100
,  // measure 3
0010
0000
1000
0100
0000
0100
0010
0000
0010
0001
0000
1000
,  // measure 4
0000
0000
0100
1000
0000
1000
0100
0000
0100
1000
0000
1000
,  // measure 5
0100
0000
0100
0010
0000
0001
0100
0000
0010
1000
0000
0001
,  // measure 6
1000
0000
0001
0100
0000
0010
1000
0000
1000
0100
0000
0100
,  // measure 7
0010
0001
0010
0100
0000
0010
0001
0000
0100
0010
0000
1000
,  // measure 8
0001
0000
0100
0001
0000
0001
1000
0100
1000
0001
0000
0010
,  // measure 9
0100
0000
0010
0001
0000
0100
0010
0000
1000
0001
0000
0100
,  // measure 10
0001
0000
1000
0100
0000
0000
1000
0000
0000
1001
0000
0000
,  // measure 11
0001
0100
0020
1000
,  // measure 12
0130
0010
1000
0011
,  // measure 13
1001
0000
0001
1000
0000
0000
1100
0000
0000
0100
0000
0000
,  // measure 14
0010
0000
0010
0001
0000
0001
0100
0000
0100
0010
0000
0010
,  // measure 15
1000
0001
0010
1100
,  // measure 16
1001
0000
0001
1000
0000
1000
0001
0000
0001
1000
0000
0000
,  // measure 17
1100
0000
0100
0010
0000
0010
0001
0000
0000
0011
0000
0000
,  // measure 18
1001
0001
0100
1000
,  // measure 19
1100
0110
1001
0011
,  // measure 20
1001
0000
0010
0100
0000
0000
1001
0000
0100
0010
0000
0000
,  // measure 21
1001
0000
0010
0100
0000
0100
0010
0000
0000
1001
0000
0000
,  // measure 22
0001
0000
0001
0100
0000
0100
0010
0000
0010
1000
0000
0000
,  // measure 23
1000
0000
0100
0010
0000
0010
0001
0000
0001
1000
0000
0000
,  // measure 24
0001
0000
0100
0010
0000
1000
0100
0000
0010
0001
0000
0000
,  // measure 25
0010
0000
0100
0010
0000
0001
0100
0000
0010
1000
0000
0000
,  // measure 26
0001
0000
1000
0100
0000
0100
0010
0000
0010
0001
0000
0000
,  // measure 27
1000
0000
0001
0100
0000
0010
1000
0000
0100
0010
0000
0000
,  // measure 28
0001
0000
0010
0100
0000
1000
0001
0000
0000
1000
0000
0000
,  // measure 29
0100
0010
0100
0010
0100
0010
0100
0010
0100
0010
0100
0010
0100
0000
0000
0000
,  // measure 30
0010
0000
0000
0001
0000
0001
0200
0000
0000
0020
0000
0000
,  // measure 31
0000
0000
0000
0330
,  // measure 32
0010
0000
0000
0010
0000
0010
1000
0000
0000
0001
0000
0000
,  // measure 33
0202
0000
0000
0303
,  // measure 34
0001
0000
0000
1000
0000
0001
1000
0000
0000
0200
0000
0000
,  // measure 35
0000
0000
0000
0300
,  // measure 36
0010
0000
0000
0100
0000
0010
0100
0000
0000
1000
0000
0000
,  // measure 37
0020
0000
0000
0030
,  // measure 38
0100
0000
0000
0010
0000
0010
1000
0000
0000
0101
0000
0000
,  // measure 39
0100
0000
0000
0001
0000
0001
0010
0000
0000
1100
0000
0000
,  // measure 40
1000
0000
1000
0100
0000
0000
0010
0000
0000
0000
0000
0000
,  // measure 41
0001
0010
0100
1000
0000
0000
1000
0100
0010
0001
0000
0000
,  // measure 42
0001
0000
0100
0010
0000
0000
1010
0000
0000
0000
0000
0000
,  // measure 43
0001
0100
0010
1000
0000
0000
1000
0001
0010
0100
0000
0000
,  // measure 44
0010
0000
0100
1000
0000
0000
0110
0000
0000
0000
0000
0000
,  // measure 45
0100
1000
0100
0001
0000
0000
0001
0010
1000
0010
0000
0000
,  // measure 46
0100
0000
0010
0001
0000
0000
2000
0000
0000
0000
0000
0000
,  // measure 47
3001
0100
0001
0100
0001
0100
0001
0100
0001
0100
0001
0100
0001
0000
0000
0000
,  // measure 48
0100
0000
0100
0010
0000
1000
0001
0010
0100
0010
0000
0001
,  // measure 49
1000
0010
0100
0001
0000
0001
0100
0000
0010
1000
0000
1000
,  // measure 50
0100
0000
1000
0010
0000
0100
0001
0010
0100
1000
0000
0100
,  // measure 51
1000
0100
0010
0001
0000
0001
0100
0000
0010
0100
0000
0100
,  // measure 52
0010
0000
0010
1000
0000
0001
0100
0010
1000
0010
0000
0100
,  // measure 53
0010
1000
0100
0010
0000
0100
1000
0000
0010
0100
0000
0010
,  // measure 54
1000
0000
0001
0100
0000
0100
0010
1000
0001
0010
0000
0100
,  // measure 55
1000
0001
0100
0001
0000
0010
0100
0000
1000
0100
0000
0010
,  // measure 56
0012
1003
2100
3010
,  // measure 57
0210
0301
1002
0013
,  // measure 58
2001
3100
1020
0130
,  // measure 59
2010
3100
0210
0310
,  // measure 60
2100
3010
0102
0013
,  // measure 61
0102
0103
0210
0310
,  // measure 62
2010
3100
0210
0310
,  // measure 63
0021
0031
1002
0103
,  // measure 64
0001
0000
0000
0000
0000
0000
0000
0000
0000
0000
0000
0000
0100
0000
0000
0000
0000
0000
0000
0000
0000
0000
0000
0000
0000
0000
0000
0000
0010
0000
0000
0000
0000
0000
0000
0000
0000
0000
0000
1000
0000
0000
0000
0000
0000
0000
0000
0000
,  // measure 65
0010
0000
0000
0000
0000
0000
0000
0000
0000
0000
0000
0000
0100
0000
0000
0000
0000
0000
0000
0000
0000
0000
0000
0000
0000
0000
0000
0000
0000
0000
0000
0000
0000
0010
0000
0000
0000
0000
0000
0000
1000
0000
0000
0000
0000
0000
0000
0000
,  // measure 66
0001
0000
0000
0000
0010
0000
0000
0002
0000
0000
0000
0000
0000
0000
0000
0000
,  // measure 67
0003
0000
0000
0000
,  // measure 68
0011
0000
0000
0000
0000
0000
0000
0000
0000
0000
0000
0000
0110
0000
0000
0000
0000
0000
0000
0000
0000
0000
0000
0000
0000
0000
0000
0000
0000
0000
0000
0000
1001
0000
0000
0000
0000
0000
0000
1001
0000
0000
0000
0000
0000
0000
0000
0000
,  // measure 69
0011
0000
0000
1001
0000
0000
0000
0000
0110
0000
1001
0000
,  // measure 70
0011
0000
0000
1001
0000
0202
0000
0000
0000
0000
0000
0000
,  // measure 71
0000
0000
0303
0000
,  // measure 72
0001
0000
0000
1000
0000
0000
0000
0000
0100
0000
1000
0000
,  // measure 73
0010
0000
0000
0100
0000
0000
0000
0000
0010
0000
1000
0000
,  // measure 74
0001
0000
0000
1000
0000
0020
0000
0000
0000
0000
0000
0000
,  // measure 75
0000
0000
0000
0000
0000
0030
0000
0000
0000
0000
0000
0000
,  // measure 76
1100
0000
0000
1001
0000
0000
0000
0000
0101
0000
0011
0000
,  // measure 77
0011
0000
0000
1001
0000
0000
0000
0000
0110
0000
1010
0000
,  // measure 78
0011
0000
0000
1010
0000
2020
0000
0000
0000
0000
0000
0000
,  // measure 79
0000
0000
3030
0000
,  // measure 80
1100
0000
0000
0100
0000
0010
0001
0000
0000
2000
0000
0000
,  // measure 81
3010
0000
1000
0010
0000
0100
0001
0000
0001
0010
0000
0100
,  // measure 82
1000
0000
0000
0001
0000
0100
0010
0000
0000
0200
0000
0000
,  // measure 83
0301
0000
0100
0010
0000
1000
0100
0000
1000
0001
0000
0100
,  // measure 84
0010
0000
0000
1000
0000
0100
0010
0000
0000
0002
0000
0000
,  // measure 85
0013
0000
0100
1000
0000
1000
0010
0000
0100
0001
0000
0001
,  // measure 86
1000
0000
0000
0001
0000
0100
0001
0000
0000
0020
0000
0000
,  // measure 87
0130
0000
0010
0001
0000
0100
1000
0000
1000
0010
0000
0100
,  // measure 88
0001
0000
0000
1100
0000
0100
0010
0000
0000
0011
0000
0000
,  // measure 89
1001
0000
0000
0101
0000
0001
0100
0000
0000
0110
0000
0000
,  // measure 90
0010
0000
0010
1000
0000
1000
0010
0000
0010
0100
0000
0100
,  // measure 91
0010
0000
0010
1000
0000
1000
0010
0000
0010
0100
0000
0100
,  // measure 92
0001
0000
0001
0010
0000
0010
0100
0000
0100
1000
0000
1000
,  // measure 93
0100
0000
0100
0010
0000
0010
0001
0000
0001
0010
0000
0010
,  // measure 94
0001
0000
0001
0100
0000
0100
0010
0000
0010
1000
0000
1000
,  // measure 95
0010
0000
0010
0100
0000
0100
0001
0000
0001
1000
0000
1000
,  // measure 96
0100
0000
0100
0010
0000
0010
0001
0000
0001
0010
0000
0010
,  // measure 97
0100
0000
0100
1000
0000
1000
0010
0000
0010
0100
0000
0100
,  // measure 98
0001
0000
0000
0000
;

//---------------dance-single - ----------------
#NOTES:
     dance-single:
     :
     Medium:
     8:
     0.557,0.666,0.580,0.153,0.305: // measure 1
1000
0100
0001
0100
0010
0001
1000
0000
,  // measure 2
0001
0100
1000
0100
,  // measure 3
0010
0000
0100
0010
0000
0010
0100
0000
0100
0010
0000
0010
,  // measure 4
0100
0001
1000
0100
,  // measure 5
0010
0000
0001
0010
0000
0010
0001
0000
0001
0010
0000
0010
,  // measure 6
0001
0100
0010
1000
,  // measure 7
0010
0000
0010
0100
0000
0100
0010
0000
0010
0100
0000
0100
,  // measure 8
0010
1000
0001
0010
,  // measure 9
0100
0000
1000
0100
0000
0100
0010
0000
0010
0001
0000
0000
,  // measure 10
1000
0000
0001
0100
0000
0000
0010
0000
0000
1000
0000
0000
,  // measure 11
0110
0001
2002
3003
,  // measure 12
0000
0000
1000
0100
0000
0010
0001
0000
0000
0100
0000
0000
,  // measure 13
0010
0000
1000
0001
0000
0000
0100
0000
0000
0000
0000
0000
,  // measure 14
0001
0000
0100
0001
0000
0000
0100
0000
0000
0010
0000
0000
,  // measure 15
1000
0100
0002
0003
,  // measure 16
0000
0100
0010
0001
,  // measure 17
1000
0000
0001
1000
0000
0000
0010
0000
0000
0000
0000
0000
,  // measure 18
0100
0000
0001
0100
0000
0000
0010
0000
0000
1000
0000
0000
,  // measure 19
0100
0010
0100
1000
,  // measure 20
1100
0100
0110
0010
,  // measure 21
0011
1010
0011
0000
,  // measure 22
0001
0000
1000
0001
0000
0000
0100
0000
0000
0000
0000
0000
,  // measure 23
0001
0000
0001
0100
0000
0100
0010
0000
0010
1000
0000
0000
,  // measure 24
0100
0000
0010
0001
0000
0000
0010
0000
0000
0000
0000
0000
,  // measure 25
0100
0000
0100
0010
0000
0010
0001
0000
0001
1000
0000
1000
,  // measure 26
0001
0000
0001
0100
0000
0000
0010
0000
0000
0000
0000
0000
,  // measure 27
0100
0000
0010
1000
0000
1000
0010
0000
0010
0100
0000
0100
,  // measure 28
0001
0000
1000
0100
0000
0000
0010
0000
0000
0000
0000
0000
,  // measure 29
0200
0000
0000
0000
0000
0000
0000
0000
0000
0000
0300
0000
,  // measure 30
0010
0000
0000
0001
0000
1000
0010
0000
0000
0200
0000
0000
,  // measure 31
0000
0000
0000
0300
,  // measure 32
0010
0000
0000
0100
0000
0001
1000
0000
0000
0200
0000
0000
,  // measure 33
2000
0000
0000
3300
,  // measure 34
0100
0000
0000
1000
0000
0010
0200
0000
0000
0002
0000
0000
,  // measure 35
0000
0000
0000
0303
,  // measure 36
1000
0000
0000
0001
0000
0100
0001
0000
0000
0010
0000
0000
,  // measure 37
0200
0000
0000
0300
,  // measure 38
0010
0000
0000
0001
0000
1000
0001
0000
0000
0100
0000
0000
,  // measure 39
0001
0000
0000
1000
0000
0010
1000
0000
0000
0010
0000
0000
,  // measure 40
0100
0000
0010
0100
0000
0100
0010
0000
0000
0000
0000
0000
,  // measure 41
0110
1001
0110
1001
,  // measure 42
0001
0000
1000
0100
0000
0000
0010
0000
0000
0000
0000
0000
,  // measure 43
1100
0011
1100
0011
,  // measure 44
1000
0000
0001
0100
0000
0000
0010
0000
0000
0000
0000
0000
,  // measure 45
1010
0101
1010
0101
,  // measure 46
1001
0000
0001
0100
0000
0000
1001
0000
1000
0100
0000
0000
,  // measure 47
1001
0000
0001
0100
0000
1000
0100
0000
0001
0100
0000
0000
,  // measure 48
1001
0001
0100
1010
,  // measure 49
0101
0001
1000
1100
,  // measure 50
0110
0100
1000
1010
,  // measure 51
0101
0001
0100
0110
,  // measure 52
1001
0001
0010
1100
,  // measure 53
0011
0001
0010
1010
,  // measure 54
0011
0001
0100
1100
,  // measure 55
0101
0001
1000
0010
,  // measure 56
0110
0001
1100
0010
,  // measure 57
0011
0001
0101
1100
,  // measure 58
1001
0001
1010
0100
,  // measure 59
1100
1000
1010
0101
,  // measure 60
1001
0010
0101
0001
,  // measure 61
0011
0010
0110
1000
,  // measure 62
1010
0001
0101
0001
,  // measure 63
1001
1000
1100
0011
,  // measure 64
1001
0001
0100
0001
,  // measure 65
1000
0100
1000
0010
,  // measure 66
0100
0000
0000
0010
0000
2000
0000
0000
0000
0000
0000
0000
,  // measure 67
0000
0000
3000
0000
,  // measure 68
1010
0010
1000
1010
,  // measure 69
0101
0001
0010
0110
,  // measure 70
1001
0000
0000
0001
0000
0020
0000
0000
0000
0000
0000
0000
,  // measure 71
0000
0000
0030
0000
,  // measure 72
0110
0110
0010
0001
,  // measure 73
1001
1001
0001
1000
,  // measure 74
1010
0101
2002
0000
,  // measure 75
0000
0000
3003
0000
,  // measure 76
1100
0011
0001
0100
,  // measure 77
1010
0101
0001
1000
,  // measure 78
1001
0110
2002
0000
,  // measure 79
0000
0000
3003
0000
,  // measure 80
0001
0000
0000
0100
0000
1000
0100
0000
0000
0020
0000
0000
,  // measure 81
0100
0100
0100
0130
,  // measure 82
0010
0000
0000
1000
0000
0001
0010
0000
0000
0200
0000
0000
,  // measure 83
0010
0010
0010
0310
,  // measure 84
0100
0000
0000
1000
0000
0010
0100
0000
0000
0002
0000
0000
,  // measure 85
1000
1000
1000
1003
,  // measure 86
0001
0000
0000
0100
0000
0010
1000
0000
0000
2000
0000
0000
,  // measure 87
0001
0001
0001
3001
,  // measure 88
1000
0000
0000
0100
0000
0010
0001
0000
0000
0010
0000
0000
,  // measure 89
0001
0000
0000
0010
0000
0100
1000
0000
0000
0001
0000
0000
,  // measure 90
1000
0000
0001
0100
0000
1000
0100
0000
0000
0000
0000
0000
,  // measure 91
1000
0000
1000
0100
0000
0100
0010
0000
0010
0001
0000
0000
,  // measure 92
0001
0000
0100
0010
0000
0000
1000
0000
0000
0000
0000
0000
,  // measure 93
0010
0000
0100
0010
0000
0010
1000
0000
1000
0001
0000
0001
,  // measure 94
0010
0000
0100
0010
0000
0000
0001
0000
0000
0000
0000
0000
,  // measure 95
0010
0000
0010
0100
0000
0100
1000
0000
1000
0010
0000
0010
,  // measure 96
0100
0000
0010
1000
0000
0000
0010
0000
0000
0000
0000
0000
,  // measure 97
0100
0000
0001
1000
0000
0100
0010
0000
0010
0001
0000
0001
,  // measure 98
0100
0000
0000
0000
;

//---------------dance-single - ----------------
#NOTES:
     dance-single:
     :
     Easy:
     4:
     0.397,0.409,0.389,0.214,0.000: // measure 1
0101
0000
0000
1010
0000
0000
1001
0000
,  // measure 2
0001
1000
0100
1000
,  // measure 3
0001
0100
0001
0001
,  // measure 4
1000
0010
1000
0001
,  // measure 5
0010
0001
1000
1000
,  // measure 6
0001
0100
0010
1000
,  // measure 7
0100
0001
0100
1000
,  // measure 8
0010
0100
0001
1000
,  // measure 9
0001
0010
1000
0010
,  // measure 10
0100
0010
0001
1000
,  // measure 11
0010
0010
0010
0000
,  // measure 12
0000
0100
0001
1000
,  // measure 13
0001
0100
0010
0000
,  // measure 14
0100
0010
0001
0010
,  // measure 15
1000
1000
0010
0000
,  // measure 16
0100
0010
1000
0001
,  // measure 17
1000
0001
1000
0000
,  // measure 18
0100
1000
0010
0100
,  // measure 19
0010
0010
0100
0000
,  // measure 20
0001
0100
1000
0100
,  // measure 21
0010
0001
0010
1000
,  // measure 22
0010
0100
0001
0000
,  // measure 23
0000
0101
0000
1100
,  // measure 24
0100
0010
0001
0000
,  // measure 25
0000
0011
0000
1100
,  // measure 26
0100
1000
0010
0000
,  // measure 27
0000
0101
0000
1010
,  // measure 28
0010
0100
0010
0000
,  // measure 29
2002
0000
0000
3003
,  // measure 30
0001
0100
0010
2000
,  // measure 31
0000
0000
0000
3000
,  // measure 32
0010
0100
0010
2000
,  // measure 33
0002
0000
0000
3003
,  // measure 34
0001
0010
0010
0200
,  // measure 35
0000
0000
0000
0300
,  // measure 36
0010
0001
1000
0020
,  // measure 37
0200
0000
0000
0330
,  // measure 38
0010
1000
0002
0103
,  // measure 39
0001
1000
0200
1300
,  // measure 40
0010
0001
0010
0000
,  // measure 41
0001
0101
0100
0101
,  // measure 42
0001
0100
0010
0000
,  // measure 43
1000
1010
0010
1010
,  // measure 44
0010
0100
0010
0000
,  // measure 45
1000
1001
0001
1001
,  // measure 46
0001
0100
0010
0000
,  // measure 47
2020
0000
0000
3030
,  // measure 48
0010
1000
0100
0001
,  // measure 49
0100
0010
0001
0010
,  // measure 50
0100
1000
0010
0001
,  // measure 51
0010
0100
0010
0100
,  // measure 52
0010
1000
0100
0001
,  // measure 53
0100
0010
0001
0010
,  // measure 54
0001
0100
1000
0100
,  // measure 55
0010
1000
0010
0001
,  // measure 56
0020
0000
0130
0000
,  // measure 57
0100
0000
0110
0010
,  // measure 58
2000
0000
3010
0000
,  // measure 59
0100
0000
0101
0001
,  // measure 60
2001
0000
3100
0000
,  // measure 61
1000
0000
1010
0010
,  // measure 62
0120
0000
0130
0000
,  // measure 63
0010
0000
0001
0000
,  // measure 64
1000
0001
0100
0001
,  // measure 65
1000
0100
1000
0001
,  // measure 66
0100
0010
2002
0000
,  // measure 67
0000
0000
3003
0000
,  // measure 68
0001
0010
0001
1000
,  // measure 69
0010
1000
0001
0010
,  // measure 70
0001
1000
2020
0000
,  // measure 71
0000
0000
0000
3030
,  // measure 72
0101
1010
0000
0000
,  // measure 73
1100
0011
0000
0000
,  // measure 74
0011
1100
2002
0000
,  // measure 75
0000
0000
3003
0000
,  // measure 76
1010
0011
0000
0000
,  // measure 77
0011
1010
0000
0000
,  // measure 78
1010
0011
2002
0000
,  // measure 79
0000
0000
3003
0000
,  // measure 80
0001
0100
0010
1000
,  // measure 81
0020
0000
0000
0030
,  // measure 82
0100
0001
1000
0001
,  // measure 83
0200
0000
0000
0300
,  // measure 84
0001
0010
0100
1000
,  // measure 85
2000
0000
0000
3000
,  // measure 86
0100
1000
0010
0100
,  // measure 87
0002
0000
0000
0003
,  // measure 88
1000
0100
0010
0100
,  // measure 89
1000
0010
0001
0010
,  // measure 90
0100
0010
1001
0000
,  // measure 91
0000
0101
0000
1010
,  // measure 92
0010
0100
1001
0000
,  // measure 93
0000
1100
0000
0011
,  // measure 94
0100
1000
0100
0000
,  // measure 95
0000
0011
0000
1100
,  // measure 96
0100
1000
0010
0000
,  // measure 97
0000
0101
0000
1010
,  // measure 98
1001
1001
1001
0000
;

//---------------dance-single - ----------------
#NOTES:
     dance-single:
     :
     Beginner:
     3:
     0.191,0.295,0.076,0.046,0.000: // measure 1
1001
0000
0000
0000
,  // measure 2
0010
0000
0000
0000
,  // measure 3
0100
0000
0000
0000
,  // measure 4
0001
0000
0000
0000
,  // measure 5
1000
0000
1000
0000
,  // measure 6
0001
0000
0000
0000
,  // measure 7
0100
0000
0000
0000
,  // measure 8
0001
0000
0000
0000
,  // measure 9
1000
0000
0000
0000
,  // measure 10
0010
0000
0000
0100
,  // measure 11
0100
0000
0000
0001
,  // measure 12
0001
0000
0000
1000
,  // measure 13
1000
0000
0000
0010
,  // measure 14
0010
0000
0000
0100
,  // measure 15
0100
0000
0000
0001
,  // measure 16
0001
0000
0000
1000
,  // measure 17
1000
0000
0000
0010
,  // measure 18
0010
0000
0000
0100
,  // measure 19
0100
0000
0000
0000
,  // measure 20
0001
0000
0010
0000
,  // measure 21
0100
1000
0000
0000
,  // measure 22
0001
0001
1000
0000
,  // measure 23
0010
0000
0000
0000
,  // measure 24
0100
0100
0010
0000
,  // measure 25
0000
0100
0000
0100
,  // measure 26
0010
0010
1000
0000
,  // measure 27
0000
0010
0000
0100
,  // measure 28
0001
0001
0001
0000
,  // measure 29
2000
0000
0000
3000
,  // measure 30
0001
0000
0001
0000
,  // measure 31
0000
0000
0000
0000
,  // measure 32
0100
0000
0010
0000
,  // measure 33
1001
0000
0000
0000
,  // measure 34
1000
0000
1000
0000
,  // measure 35
0000
0000
0000
0000
,  // measure 36
0001
0000
1000
0000
,  // measure 37
0110
0000
0000
0000
,  // measure 38
0010
0000
0000
0000
,  // measure 39
0100
0000
0000
0000
,  // measure 40
0001
0001
1000
0000
,  // measure 41
0000
0010
0000
0010
,  // measure 42
0100
0100
0001
0000
,  // measure 43
0000
1000
0000
1000
,  // measure 44
0100
0100
0010
0000
,  // measure 45
0000
0100
0000
0100
,  // measure 46
0010
0010
0001
0000
,  // measure 47
2000
0000
0000
3000
,  // measure 48
0001
0000
0000
0000
,  // measure 49
0100
0000
0001
0000
,  // measure 50
1000
0000
0000
0000
,  // measure 51
0100
0000
0100
0000
,  // measure 52
1000
0000
0000
0000
,  // measure 53
0010
0000
0100
0000
,  // measure 54
0001
0000
0000
0000
,  // measure 55
0100
0000
0001
0000
,  // measure 56
1000
0000
1000
0000
,  // measure 57
0000
0000
0001
0000
,  // measure 58
0100
0000
0100
0000
,  // measure 59
0000
0000
0000
0000
,  // measure 60
0010
0000
0010
0000
,  // measure 61
0000
0000
0000
0000
,  // measure 62
0100
0000
0100
0000
,  // measure 63
0000
0000
0000
0000
,  // measure 64
0001
0000
0000
0000
,  // measure 65
1000
0000
0000
0000
,  // measure 66
0020
0000
0000
0000
,  // measure 67
0000
0000
0000
0030
,  // measure 68
1000
0000
0000
0000
,  // measure 69
0001
0000
0000
0000
,  // measure 70
0200
0000
0000
0000
,  // measure 71
0000
0000
0000
0300
,  // measure 72
0001
0000
0000
0000
,  // measure 73
0100
0000
0000
0000
,  // measure 74
0020
0000
0000
0000
,  // measure 75
0000
0000
0000
0030
,  // measure 76
1000
0000
0000
0000
,  // measure 77
0010
0000
0000
0000
,  // measure 78
0200
0000
0000
0000
,  // measure 79
0000
0000
0000
0300
,  // measure 80
0010
1000
0010
0010
,  // measure 81
0000
0000
0000
0000
,  // measure 82
0100
0001
0100
0100
,  // measure 83
0000
0000
0000
0000
,  // measure 84
0001
1000
0001
0001
,  // measure 85
0000
0000
0000
0000
,  // measure 86
1000
0100
1000
1000
,  // measure 87
0000
0000
0000
0000
,  // measure 88
0100
0010
0010
0001
,  // measure 89
1000
0001
0001
0100
,  // measure 90
0010
0010
0010
0000
,  // measure 91
0000
0110
0000
0110
,  // measure 92
0001
0001
1000
0000
,  // measure 93
0000
1001
0000
1001
,  // measure 94
1000
1000
0001
0000
,  // measure 95
0000
1001
0000
1001
,  // measure 96
0001
0001
0110
0000
,  // measure 97
0000
1000
0000
0001
;
