#TITLE:Disco the ground;
#SUBTITLE:;
#ARTIST:sampling disaster 咲-SAKI-;
#TITLETRANSLIT:;
#SUBTITLETRANSLIT:;
#ARTISTTRANSLIT:;
#BANNER:Disco the ground.png;
#BACKGROUND:Disco the ground-background.png;
#JACKET:Disco the ground-jacket.png;
#LYRICSPATH:;
#CDTITLE:cdtitle.png;
#MUSIC:Disco the ground.mp3;
#OFFSET:-1.772;
#SAMPLESTART:85.773;
#SAMPLELENGTH:15.000;
#SELECTABLE:YES;
#BPMS:0.000=140.000;
#STOPS:144.000=1.286
;
#BGCHANGES:-4.250=Disco the ground.avi=1.000=1=0=1,
293.000=Disco the ground-bg.png=1.000=1=0=1,
99999=-nosongbg-=1.000=0=0=0 // don't automatically add -songbackground-
;

//---------------dance-single - Pandemonium X----------------
#NOTES:
     dance-single:
     Pandemonium X:
     Hard:
     8:
     0.587,0.561,0.832,0.078,0.152:
0000
0000
0000
0000
,
0000
0000
0000
0000
,
0000
0000
0000
0000
,
0000
0000
0000
0000
,
0010
0000
1001
0000
0001
0100
1000
0000
,
1000
0000
0110
0000
0010
1000
0001
0000
,
0010
0000
1100
0000
1000
0010
0100
0000
,
0001
0000
1000
0000
0001
0000
1000
0000
0001
0000
1000
0000
0010
0100
0000
0000
,
0202
0000
0000
0303
,
0001
0010
1000
0010
1000
0010
0001
0000
,
1001
0110
0101
1010
,
0010
1000
0010
0001
0010
0001
0010
0000
,
0100
0010
1000
0001
0010
0100
0010
0001
,
0100
0010
1000
0001
0010
1000
0010
0000
,
0110
0011
1010
1001
,
0001
1000
0010
1000
0001
0010
0100
0000
,
0110
0000
0000
0000
0000
0000
0110
0000
0000
0000
0000
0000
0001
0000
0000
1000
0000
0000
0001
0000
1000
0000
0001
0000
,
1001
0000
0110
0000
0010
1000
1100
0000
,
0100
0010
0001
0010
0100
0010
0001
0001
,
0010
0000
0110
0000
1001
0001
1001
0000
,
0010
0010
1000
0001
0010
0010
0100
0010
,
0011
0000
0000
0000
0101
0000
0000
0110
0000
0000
0010
0000
1001
0000
0000
0000
,
0000
0000
0001
0000
0001
0000
0000
0010
0000
0000
0100
0000
1000
0000
0010
0000
,
0110
0000
0000
0000
0101
0000
0000
0011
0000
0000
0110
0000
1001
0000
0000
0000
,
0001
0001
0100
0100
0010
1000
0100
0010
,
0001
0100
0110
0000
0010
1000
1100
0000
,
1000
0001
0011
0000
0001
0100
0110
0000
,
0010
1000
1001
0000
0001
0010
0011
0000
,
0001
0010
0100
0100
0010
0001
1001
0000
,
0001
0100
1010
0000
0011
0000
1100
0000
,
1000
0001
0101
0000
0110
0000
1001
0000
,
0001
0010
0110
0000
1000
0000
0011
0000
,
0001
0100
1000
0010
0001
0000
0010
0000
,
1002
0000
0000
0000
0103
0000
0000
0000
0010
1000
0000
0000
0101
0000
0000
0000
,
2001
0000
0000
0000
3100
0000
0000
0000
0010
0001
0000
0000
0101
0000
0000
0000
,
0120
0000
0000
0000
0130
0000
0000
0000
0010
1000
0000
0000
1001
0000
0000
0000
,
0000
0000
0000
0000
0102
0000
0000
0000
0013
0000
0000
0000
0010
0100
0000
0000
,
1100
0000
0000
0000
0210
0000
0000
0000
1300
0000
0000
0000
0010
0001
0000
0000
,
0101
0100
0100
0100
,
0100
0100
0100
0200
,
0300
0000
0000
0000
0110
0000
0000
1001
0000
0000
0001
0000
0101
0000
0001
0000
,
1001
0000
0000
0000
1010
0000
0000
0010
0000
0000
0010
0000
0110
0000
0000
0000
,
0101
0000
0000
0000
1001
0000
0000
0001
0000
0000
0100
0000
0110
0000
0010
0000
,
1010
0000
1000
0000
1100
0000
0000
0011
0000
0000
0001
0000
1000
0000
0100
0000
,
1000
0000
0100
0000
1100
0000
0000
1001
0000
0000
1000
0000
1010
0000
1000
0000
,
1001
0000
0000
0000
0101
0000
0000
0100
0000
0000
0100
0000
0110
0000
0000
0000
,
1010
0000
0000
0000
1001
0000
0000
1000
0000
0000
0010
0000
0110
0000
0100
0000
,
0101
0001
0022
0000
0000
0000
0000
0000
,
0033
0000
0001
0100
1000
0010
1001
0110
,
1001
0000
0100
0010
1000
0001
0010
0100
,
0010
0000
0001
0100
1000
0100
0010
0010
,
1000
0000
0000
0000
0010
0000
1000
0000
0001
0000
0010
0000
0100
0010
0000
0001
,
0000
1000
0000
0001
0100
0000
0010
0000
1000
0000
0001
0000
0011
0000
0010
0000
,
0011
0000
0000
0000
0001
0000
1000
0000
0010
1000
0000
0001
0000
0010
0000
0100
,
1000
0010
1000
0100
0001
0100
1000
0010
,
1000
0000
1001
0000
1001
0000
1001
1001
,
1001
0000
1000
0100
0001
0010
1000
0001
,
1000
0000
0000
0000
0001
0000
0100
0000
0010
0000
0000
0100
0000
0010
1000
0000
,
0001
0010
0100
0010
0001
1000
0010
1000
,
0010
0000
0000
0000
0100
0000
0010
0000
1000
0000
0001
0000
0010
0100
0000
0010
,
0000
0001
0000
1000
0010
0000
1000
0000
0001
0000
0010
0000
0100
0000
0010
0000
,
0001
0000
0000
0000
1000
0000
0010
0000
1000
0010
0000
0100
0000
0001
0000
0010
,
0100
1000
0010
0100
0001
0010
0100
0010
,
0001
0000
1001
0000
0101
0000
0011
0010
,
0110
0000
1001
0000
1001
0000
0001
0100
,
0110
0000
1010
0000
0011
0000
0001
0010
,
0110
0000
1001
0000
0101
0000
0001
0100
,
0110
0000
0000
0000
0100
0000
0100
0000
0010
0000
0000
0010
0100
0000
0001
0000
,
0010
0100
1000
0000
1100
0000
1000
0001
,
0101
0000
0010
0000
0110
0000
0010
1000
,
0011
0000
1001
0000
0101
0000
0001
0100
,
1010
0000
1000
1000
1000
0000
0001
0001
,
0001
0100
0001
0100
0010
0000
0000
0000
0000
0000
0000
0000
0000
0000
0000
0000
;

//---------------dance-single - ----------------
#NOTES:
     dance-single:
     :
     Medium:
     6:
     0.403,0.421,0.241,0.008,0.000:
1000
1000
0001
0001
,
1000
0001
1000
0001
,
0100
0100
0010
0010
,
0100
0010
0100
0001
,
1000
0100
1000
1000
,
0100
1000
0100
0100
,
1000
0010
0100
0100
,
0010
1000
0001
0010
,
0200
0000
0000
0000
,
1300
0000
0001
0000
1000
0001
0110
0000
,
0010
0100
0001
1000
,
0100
0000
0100
0000
0100
0010
0001
0000
,
0010
0100
1000
0010
,
0100
0000
0001
0000
0001
0010
1000
0000
,
0010
0100
1000
0100
,
1000
0000
0010
0000
0001
0010
0100
0000
,
0010
0000
0010
0000
0010
0100
0010
0000
,
0100
0000
1001
0000
0000
0001
0001
0000
,
0000
0001
0100
0000
0010
0000
1000
0000
,
0100
0000
0100
0000
0100
1000
1100
0000
,
0001
1000
0010
0000
0100
0010
1000
0001
,
1000
0000
1000
0000
0001
0100
0101
0000
,
0000
0100
0010
0000
1000
0000
0001
0000
,
0010
0000
0100
0000
0100
1000
0010
0000
,
0010
0001
0010
0000
0100
0000
0010
0000
,
1000
0101
0001
1010
,
0001
0000
1000
0000
0001
0100
0010
0000
,
0100
0110
0010
1001
,
0101
1100
0101
1100
,
0010
0000
1010
0000
0010
0100
0001
0000
,
1000
1000
0001
0001
,
0100
0000
1000
0000
0100
0010
1000
0000
,
1010
0010
0011
1010
,
0010
0000
0100
0000
0010
0010
1000
0000
,
0001
0000
0010
0000
0100
0100
0010
0000
,
0001
0000
1000
0000
0010
0100
0001
0000
,
1000
0000
0001
0000
1100
0000
1000
0010
,
0100
0000
0010
0000
1010
0000
1000
0100
,
0001
0100
0100
0100
,
0100
0100
0100
0100
,
1001
0000
0001
0000
1000
0000
0001
1000
,
0001
0000
0100
0000
0010
0000
0100
0010
,
0100
0000
1000
0000
0010
0000
1000
0010
,
1000
0001
0100
0101
,
0101
0000
0001
0000
0100
0000
0010
1000
,
0001
0000
0010
0000
0100
0000
0010
0001
,
0100
0000
0010
0000
0100
0000
0010
1000
,
0001
1000
0000
0000
,
0000
0000
1001
0000
0110
0000
0010
0010
,
0110
0001
1000
0100
,
1000
0000
0010
0000
0100
0000
0001
0100
,
0010
0100
0101
1100
,
0100
0000
0010
0000
0001
0000
0010
0100
,
1000
0100
0010
0100
,
1000
0000
0010
0000
0001
0000
0100
0010
,
1000
0000
0010
0000
0100
0000
0010
1000
,
0010
0000
1010
0000
0011
0000
1010
0001
,
0011
0001
0010
1000
,
0010
0000
0100
0000
1000
0000
0010
0100
,
0001
1000
1000
0001
,
0001
0000
0100
0000
0010
0000
0100
0001
,
0010
0100
0100
0010
,
0010
0000
0001
0000
0010
0000
1000
0010
,
0100
0000
1000
0000
0100
0000
1000
0010
,
0100
0000
0001
0000
1000
0000
0100
1000
,
0100
0000
1000
0000
0010
0000
0100
0001
,
0100
0000
0010
0000
1000
0000
0001
0010
,
0100
0000
1000
0000
0010
0000
0100
0001
,
0100
0001
0100
0000
0010
0000
1000
0010
,
0100
0000
0001
0000
0010
0000
0100
1000
,
0100
0000
1000
0000
0010
0000
0100
0010
,
1000
0000
0001
1000
0010
0000
0100
0001
,
0010
0100
1100
0000
0000
0000
0000
0000
;

//---------------dance-single - ----------------
#NOTES:
     dance-single:
     :
     Easy:
     4:
     0.324,0.374,0.357,0.039,0.000:
1000
1000
0001
0001
,
1000
0001
1000
1001
,
0010
0010
0100
0100
,
0010
0100
0002
0000
,
1003
0100
0001
0100
,
1000
0010
0001
0001
,
0001
0010
0100
0010
,
1000
0001
0010
0100
,
2002
0000
0000
3003
,
1001
0101
1001
1100
,
0000
0000
0000
0000
,
0001
0100
0010
0010
,
0000
0101
1010
0000
,
1000
0100
1000
0010
,
0000
0000
0000
0000
,
0100
0001
1000
1000
,
0001
0000
0001
0000
0001
1000
0001
0000
,
0100
0100
0000
0110
,
0000
0010
1000
0001
,
0010
0100
0100
1100
,
0100
0010
0001
1000
,
0010
1000
0010
0101
,
0000
1001
0001
1000
,
0100
1000
0010
0110
,
0100
0100
0010
0010
,
1000
0100
0001
0100
,
1000
0010
0001
0010
,
0100
0100
0010
0010
,
1000
0001
0100
0100
,
0000
0001
0010
0001
,
0100
0010
1000
0001
,
0010
0100
1000
1100
,
1000
0100
0100
1000
,
0000
0010
0100
0101
,
0000
0001
1000
1100
,
0000
1000
0010
0100
,
0000
0001
1000
1100
,
1000
0001
0101
0001
,
0010
0100
0100
0100
,
0100
0100
0100
0100
,
0000
1000
0001
0100
,
0100
0001
1000
1100
,
1100
1000
0001
0010
,
0010
0001
1000
0020
,
0000
0130
0001
0100
,
0100
0010
1000
1010
,
0101
0001
0100
0010
,
0010
0100
0000
0000
,
0000
1001
0011
1001
,
1010
1000
0000
0000
,
0000
0001
0100
0010
,
1000
0000
0000
0000
,
0000
0100
0010
0001
,
0010
0000
0000
0000
,
0000
0010
0100
1000
,
1000
0000
0001
0000
0100
0000
0001
0100
,
0001
0101
1010
1100
,
0011
0000
0000
0000
,
0000
1100
0011
0110
,
1100
0000
0000
0000
,
0000
1100
0011
0101
,
1100
0000
0000
0000
,
0000
1100
1010
0011
,
1010
0000
1000
0000
1000
0000
1000
0001
,
0100
0001
0010
0000
,
0110
0000
0010
0100
,
0100
1000
0001
0100
,
0101
0001
0001
1000
,
0100
0010
0100
1000
,
1001
0000
0010
0100
,
0100
0010
1000
0001
,
0010
0100
0100
1000
,
0002
0103
0000
0000
,
0000
0000
0000
0000
,
1001
0000
0000
0000
;

//---------------dance-single - ----------------
#NOTES:
     dance-single:
     :
     Beginner:
     2:
     0.157,0.253,0.101,0.016,0.000: // measure 1
1000
0000
0000
0000
,  // measure 2
0001
0000
0000
0000
,  // measure 3
1000
0000
0000
0000
,  // measure 4
0001
0000
0000
0000
,  // measure 5
0100
0000
0000
0000
,  // measure 6
0010
0000
0000
0000
,  // measure 7
0100
0000
0000
0000
,  // measure 8
0010
0000
0100
0000
,  // measure 9
2002
0000
0000
3003
,  // measure 10
0001
0001
1000
1000
,  // measure 11
0000
0000
0000
0000
,  // measure 12
0010
0010
0100
0100
,  // measure 13
0000
0000
0000
0000
,  // measure 14
0001
0001
0100
0100
,  // measure 15
0000
0000
0000
0000
,  // measure 16
0010
0010
1000
1000
,  // measure 17
0001
0000
0001
0000
,  // measure 18
1001
0000
0000
1000
,  // measure 19
0000
0000
0000
0000
,  // measure 20
0010
0000
0000
0100
,  // measure 21
0000
0000
0000
0000
,  // measure 22
0100
0000
0000
0010
,  // measure 23
0000
0010
0000
0000
,  // measure 24
0100
0000
0000
0001
,  // measure 25
1000
1000
0001
0000
,  // measure 26
0100
0000
0000
0000
,  // measure 27
0001
0000
0000
0000
,  // measure 28
1000
0000
0000
0000
,  // measure 29
0100
0000
0000
0000
,  // measure 30
1000
0000
0000
0000
,  // measure 31
0001
0000
0000
0000
,  // measure 32
0100
0000
0000
0000
,  // measure 33
0001
0000
0000
0000
,  // measure 34
1000
0000
0000
0000
,  // measure 35
0001
0000
0000
0000
,  // measure 36
0100
0000
0000
0000
,  // measure 37
0000
0001
0000
0000
,  // measure 38
0000
1000
0000
0000
,  // measure 39
0000
0100
0000
0100
,  // measure 40
0000
0100
0100
0100
,  // measure 41
0000
1001
0000
0000
,  // measure 42
0000
0001
0000
0000
,  // measure 43
0000
1000
0000
0000
,  // measure 44
0000
0010
0000
0100
,  // measure 45
0100
0100
0000
0000
,  // measure 46
0000
0001
0000
0000
,  // measure 47
0000
1000
0000
0000
,  // measure 48
0000
0010
0000
0000
,  // measure 49
0000
1001
1001
1001
,  // measure 50
1001
0000
0000
0000
,  // measure 51
0000
0001
0001
1000
,  // measure 52
1000
0000
0000
0000
,  // measure 53
0000
0010
0010
0100
,  // measure 54
0100
0000
0000
0000
,  // measure 55
0000
0100
0100
0001
,  // measure 56
0001
1000
1000
1000
,  // measure 57
1000
1001
0110
1001
,  // measure 58
0110
0000
0000
0000
,  // measure 59
0000
0100
0100
0100
,  // measure 60
0100
0000
0000
0000
,  // measure 61
0000
0010
0010
0010
,  // measure 62
0010
0000
0000
0000
,  // measure 63
0000
1000
1000
1000
,  // measure 64
1000
0001
0001
0001
,  // measure 65
0001
1001
0000
0000
,  // measure 66
0001
0000
0100
0000
,  // measure 67
0001
0001
0000
1000
,  // measure 68
0000
0100
0100
0100
,  // measure 69
0000
0010
0000
0001
,  // measure 70
0000
0000
1000
0000
,  // measure 71
0000
1000
0000
0001
,  // measure 72
0000
0100
0000
0010
,  // measure 73
0010
1001
0000
0000
;
