#TITLE:Digital Freedom;
#SUBTITLE:;
#ARTIST:Marcus Maison & Will Dragen;
#TITLETRANSLIT:;
#SUBTITLETRANSLIT:;
#ARTISTTRANSLIT:;
#GENRE:;
#CREDIT:;
#BANNER:Digital Freedom.png;
#BACKGROUND:Digital Freedom-bg.png;
#LYRICSPATH:;
#CDTITLE:cdtitle.png;
#MUSIC:Digital Freedom.mp3;
#OFFSET:-7.054000;
#SAMPLESTART:45.000000;
#SAMPLELENGTH:12.000000;
#SELECTABLE:YES;
#BPMS:0.000000=128.000000
;
#STOPS:
;
#BGCHANGES:;
#KEYSOUNDS:;
#ATTACKS:;

//---------------dance-single - ----------------
#NOTES:
     dance-single:
     :
     Hard:
     6:
     0.337293,0.297035,0.028561,0.047602,0.328453,240.000000,3.000000,5.000000,0.000000,0.000000,0.000000,0.337293,0.297035,0.028561,0.047602,0.328453,240.000000,3.000000,5.000000,0.000000,0.000000,0.000000:
// measure 0
1001
0002
0000
0000
,  // measure 1
0000
0000
0000
0000
,  // measure 2
0003
2000
0000
0000
,  // measure 3
0000
0000
0000
0000
,  // measure 4
3000
0102
0000
0000
,  // measure 5
0000
0000
0000
0000
,  // measure 6
0003
2000
0000
0000
,  // measure 7
0000
0000
0000
0000
,  // measure 8
0000
3010
0010
0010
,  // measure 9
0010
0010
0010
0100
,  // measure 10
0000
0100
0100
0100
,  // measure 11
0100
0100
0100
0010
,  // measure 12
1001
0001
0100
1000
,  // measure 13
0100
0000
0000
0000
0010
0000
0000
0000
1000
0000
0000
0000
0100
0000
0000
0100
,  // measure 14
0000
1000
0001
0100
,  // measure 15
0001
0000
0000
0000
1000
0000
0000
0000
0001
0000
0000
0000
0010
0000
0000
0010
,  // measure 16
0000
0000
0000
0000
0100
0000
0000
0010
0000
0000
0100
0000
0000
0010
0000
0000
,  // measure 17
0100
0000
0000
0010
0000
0000
0001
0000
0000
0010
0000
0000
0001
0000
0000
0010
,  // measure 18
0000
0000
0000
0000
0001
0000
0000
1000
0000
0000
0001
0000
0000
1000
0000
0000
,  // measure 19
0001
0000
0000
0010
0000
0000
0001
0000
0000
0010
0000
0000
0001
0000
0000
0010
,  // measure 20
0000
0000
0000
0000
0100
0000
1000
0000
0010
0000
0001
0000
0000
0010
0000
0000
,  // measure 21
0100
0000
0000
1000
0000
0000
0100
0000
0010
0000
1000
0000
0001
0000
0000
0001
,  // measure 22
0000
0000
0000
0000
0001
0000
1000
0000
1000
0000
0001
0000
0000
0100
0000
0000
,  // measure 23
0001
0000
0000
1000
0000
0000
0100
0000
0010
0000
0001
0000
0010
0000
0000
0010
,  // measure 24
0000
0000
0000
0000
0100
0000
0100
0000
1000
0000
0001
0000
0000
1000
0000
0000
,  // measure 25
0001
0000
0000
0100
0000
0000
0001
0000
1000
0000
0000
0000
0100
0000
0000
0100
,  // measure 26
0000
0000
0000
0000
0010
0000
0100
0000
1000
0000
0001
0000
0000
0100
0000
0000
,  // measure 27
0001
0000
0000
1000
0000
0000
0001
0000
0010
0000
0100
0000
0010
0000
0000
0010
,  // measure 28
0000
0000
0000
0000
0100
0000
0010
0000
0001
0000
0010
0000
0000
0010
0000
0000
,  // measure 29
0001
0000
0000
0100
0000
0000
1000
0000
0010
0000
0000
0000
0100
0000
0000
0010
,  // measure 30
0000
0000
0000
0000
0010
0000
0100
0000
0001
0000
1000
0000
0000
0100
0000
0000
,  // measure 31
0001
0000
0000
0100
0000
0000
0010
0000
0100
0000
1000
0000
0010
0000
0000
0010
,  // measure 32
0000
0000
0000
0000
0100
0000
0000
0001
0000
0000
0100
0000
0000
0001
0000
0000
,  // measure 33
0100
0000
0000
0010
0000
0000
0100
0000
0000
0010
0000
0000
0100
0000
0000
0010
,  // measure 34
0000
0000
0000
0000
1000
0000
0000
0010
0000
0000
1000
0000
0000
0010
0000
0000
,  // measure 35
1000
0000
0000
0001
0000
0000
1000
0000
0000
0001
0000
0000
1000
0000
0000
0001
,  // measure 36
1000
0000
0000
0000
1000
0000
1000
0000
0000
0000
1000
0000
0000
1000
0000
0000
,  // measure 37
1000
0000
0000
0001
0000
0000
0100
0000
0001
0000
0100
0000
0001
0000
0000
1000
,  // measure 38
0000
0000
0000
0000
0100
0000
0100
0000
0000
0000
0100
0000
0000
0100
0000
0000
,  // measure 39
0100
0000
0000
0100
0000
0000
0100
0000
0010
0000
0100
0000
0010
0000
0000
0010
,  // measure 40
0000
0000
0001
0000
0010
0000
0000
0010
0000
0000
0001
0000
1000
0000
0000
1000
,  // measure 41
0000
0000
0001
0000
0010
0000
0000
0010
0000
0000
0001
0000
1000
0000
0000
1000
,  // measure 42
0000
0000
0001
0000
0010
0000
0000
0010
0000
0000
0001
0000
1000
0000
0000
1000
,  // measure 43
0000
0000
0001
0000
0010
0000
0000
0010
0000
0000
0001
0000
1000
0000
0000
1000
,  // measure 44
0000
0000
0001
0000
0010
0000
0000
0010
0000
0000
0100
0000
0001
0000
0000
0001
,  // measure 45
0000
0000
0100
0000
1000
0000
0000
1000
0000
0000
0100
0000
0001
0000
0000
0001
,  // measure 46
0000
0000
0100
0000
1000
0000
0000
1000
0000
0000
0100
0000
0001
0000
0000
0001
,  // measure 47
0000
0000
0100
0000
1000
0000
0000
1000
0000
0000
1000
0000
0100
0000
0000
0100
,  // measure 48
0000
0000
0100
0000
0001
0000
0000
1000
0000
0000
0010
0000
1000
0000
0000
0001
,  // measure 49
0000
0000
0100
0000
0001
0000
0000
1000
0000
0000
0010
0000
1000
0000
0000
0001
,  // measure 50
0000
0000
0100
0000
0001
0000
0000
1000
0000
0000
0010
0000
1000
0000
0000
0001
,  // measure 51
0000
0000
0100
0000
0001
0000
0000
1000
0000
0000
0010
0000
0200
0000
0000
0000
,  // measure 52
0300
0000
0000
0000
;

//---------------dance-single - ----------------
#NOTES:
     dance-single:
     :
     Medium:
     5:
     0.254330,0.247529,0.066643,0.171367,0.133285,162.000000,7.000000,18.000000,0.000000,0.000000,0.000000,0.254330,0.247529,0.066643,0.171367,0.133285,162.000000,7.000000,18.000000,0.000000,0.000000,0.000000:
// measure 0
1001
0002
0000
0000
,  // measure 1
0000
0000
0000
0003
,  // measure 2
0000
2000
0000
0000
,  // measure 3
0000
0000
0000
3000
,  // measure 4
0000
0020
0000
0000
,  // measure 5
0000
0000
0000
0030
,  // measure 6
0000
0200
0000
0000
,  // measure 7
0000
0000
0000
0000
,  // measure 8
0000
0300
0000
0000
2002
0000
0000
0000
0000
0000
0000
0000
0000
0000
0000
0000
,  // measure 9
0000
0000
0000
0000
,  // measure 10
3003
0220
0000
0000
,  // measure 11
0000
0000
0000
0000
,  // measure 12
0330
0000
0001
0100
0001
0200
0000
0000
,  // measure 13
0000
0000
0000
0300
,  // measure 14
0000
0000
0010
1000
0010
2000
0000
0000
,  // measure 15
0000
0000
0000
3000
,  // measure 16
0000
0000
0000
0000
0001
0000
0000
1000
0000
0000
0001
0000
0000
1000
0000
0000
,  // measure 17
0001
0000
0000
1000
0000
0000
0001
0000
0000
1000
0000
0000
0001
0000
0000
1000
,  // measure 18
0000
0000
0000
0000
0010
0000
0000
0100
0000
0000
0010
0000
0000
0100
0000
0000
,  // measure 19
0010
0000
0000
0100
0000
0000
0010
0000
0000
0100
0000
0000
0010
0000
0000
0100
,  // measure 20
0000
0010
1000
0001
,  // measure 21
0010
0000
0000
0000
0100
0000
0000
0000
0010
0000
0000
0000
0001
0000
0000
0001
,  // measure 22
0000
1000
0010
0100
,  // measure 23
0010
0000
0000
0000
1000
0000
0000
0000
0010
0000
0000
0000
0100
0000
0000
0100
,  // measure 24
0000
0010
1000
0001
,  // measure 25
0010
0000
0000
0000
0100
0000
0000
0000
0010
0000
0000
0000
0001
0000
0000
0001
,  // measure 26
0000
1000
0001
0100
,  // measure 27
0001
0000
0000
0000
1000
0000
0000
0000
0010
0000
0000
0000
1000
0000
0000
1000
,  // measure 28
0000
0100
0010
0001
,  // measure 29
0010
0000
0000
0000
0001
0000
0000
0000
1000
0000
0000
0000
1010
0000
0000
1010
,  // measure 30
0000
0010
0100
0001
,  // measure 31
1000
0000
0000
0000
0100
0000
0000
0000
0010
0000
0000
0000
0011
0000
0000
1001
,  // measure 32
0000
0000
0000
0000
0001
0000
0000
1000
0000
0000
0001
0000
0000
1000
0000
0000
,  // measure 33
0001
0000
0000
1000
0000
0000
0001
0000
0000
1000
0000
0000
0001
0000
0000
1000
,  // measure 34
0000
0000
0000
0000
0100
0000
0000
0010
0000
0000
0100
0000
0000
0010
0000
0000
,  // measure 35
0100
0000
0000
0010
0000
0000
0100
0000
0000
0010
0000
0000
0100
0000
0000
0010
,  // measure 36
0000
0100
0010
0001
,  // measure 37
1000
0000
0000
0000
0010
0000
0000
0000
1000
0000
0010
0000
0100
0000
0000
0100
,  // measure 38
0000
0010
1000
0001
,  // measure 39
0010
0000
0000
0000
0100
0000
0000
0000
0010
0000
0001
0000
1000
0000
0000
1000
,  // measure 40
0000
0001
0100
0000
0000
0100
0010
0000
,  // measure 41
0000
0010
1000
0000
0000
1000
0001
0000
,  // measure 42
0000
0001
0010
0000
0000
0100
1000
0000
,  // measure 43
0000
0100
1000
0000
0000
1000
0010
0000
,  // measure 44
0000
0100
0100
0000
0000
0010
0010
0000
,  // measure 45
0000
1000
1000
0000
0000
0001
0001
0000
,  // measure 46
0000
1000
1000
0000
0000
0100
0100
0000
,  // measure 47
0000
1000
1000
0000
0000
0010
0010
0000
,  // measure 48
0000
0100
0200
0000
0000
0000
0302
0000
,  // measure 49
0000
2003
0000
3200
,  // measure 50
0000
0320
0000
0032
,  // measure 51
0000
2003
0000
0020
,  // measure 52
3030
0000
0000
0000
;

//---------------dance-single - ----------------
#NOTES:
     dance-single:
     :
     Easy:
     2:
     0.156406,0.247529,0.095204,0.209448,0.000000,83.000000,10.000000,22.000000,0.000000,0.000000,0.000000,0.156406,0.247529,0.095204,0.209448,0.000000,83.000000,10.000000,22.000000,0.000000,0.000000,0.000000:
0000
0020
0000
0000
,
0000
0000
0000
0000
,
0030
0020
0000
0000
,
0000
0000
0000
0000
,
0030
0200
0000
0000
,
0000
0000
0000
0000
,
0300
0200
0000
0000
,
0000
0000
0000
0000
,
0300
0002
0000
0000
,
0000
0000
0000
0000
,
0000
2000
0000
0000
,
0000
0000
0000
0000
,
3003
2020
0000
0000
,
0000
0000
0000
3030
,
0000
0202
0000
0000
,
0000
0000
0000
0303
,
0000
0002
0000
0000
,
0000
0000
0000
0000
,
0003
0020
0000
0000
,
0000
0000
0000
0000
,
0030
0100
0100
1000
,
0001
0100
0001
1000
,
0000
0001
1000
0100
,
1000
0010
0100
0001
,
0000
1000
0010
1000
,
0010
0100
0001
1000
,
0000
0001
0100
0001
,
0100
0001
0010
0100
,
0000
0010
0010
0100
,
1000
0100
0001
0200
,
0300
0100
1000
0010
,
0001
0010
0100
0002
,
0003
2000
0000
0000
,
0000
0000
0000
0000
,
3000
0020
0000
0000
,
0000
0000
0000
0000
,
0030
0110
0000
1001
,
0000
0101
0000
2020
,
3030
1100
0000
0110
,
0000
0011
0000
1001
,
0000
0001
0000
0001
,
0000
0001
0000
0001
,
0000
0001
0000
0001
,
0000
0001
0000
0001
,
0000
0100
0000
0010
,
0000
1000
0000
0010
,
0000
0100
0000
0001
,
0000
1000
0000
0100
,
0000
0020
0000
0000
,
0030
0200
0000
0000
,
0300
2000
0000
0000
,
3000
0002
0000
0000
,
0013
0000
0000
0000
;

//---------------dance-single - ----------------
#NOTES:
     dance-single:
     :
     Beginner:
     1:
     0.096564,0.099012,0.047602,0.000000,0.000000,66.000000,5.000000,0.000000,0.000000,0.000000,0.000000,0.096564,0.099012,0.047602,0.000000,0.000000,66.000000,5.000000,0.000000,0.000000,0.000000,0.000000:
0000
0010
0000
0000
,
0000
0000
0000
0000
,
0000
0010
0000
0000
,
0000
0000
0000
0000
,
0000
1001
0000
0000
,
0000
0000
0000
0000
,
0000
1000
0000
0000
,
0000
0000
0000
0000
,
0000
0001
0000
0000
,
0000
0000
0000
0000
,
0000
0100
0000
0000
,
0000
0000
0000
0000
,
0000
0110
0000
0000
,
0000
0000
0000
0000
,
0000
1001
0000
0000
,
0000
0000
0000
0000
,
0000
0001
0000
0000
,
0000
0001
0000
0000
,
0000
1000
0000
0000
,
0000
1000
0000
0000
,
0000
1001
0000
0000
,
0000
0001
0000
0001
,
0000
1000
0000
0000
,
0000
0010
0000
0010
,
0000
0100
0000
0000
,
0000
0001
0000
1000
,
0000
0100
0000
0000
,
0000
1000
0000
0010
,
0000
1000
1000
0000
,
0000
0001
0000
0100
,
0000
0010
0010
0000
,
0000
0100
0000
0001
,
0000
1000
0000
0000
,
0000
0001
0000
0000
,
0000
0100
0000
0000
,
0000
0010
0000
0000
,
0100
0010
0000
0000
,
0000
0100
0000
0000
,
0000
0001
0000
0000
,
0000
1000
0000
0000
,
0000
0001
0000
0001
,
0000
0001
0000
0001
,
0000
0001
0000
0001
,
0000
0001
0000
0001
,
0000
1000
0000
1000
,
0000
1000
0000
1000
,
0000
1000
0000
1000
,
0000
1000
0000
1000
,
0000
0100
0000
0010
,
0000
0100
0000
1000
,
0000
0001
0000
0100
,
0000
0010
0000
0100
,
1001
0000
0000
0000
;
