#TITLE:電人、暁に斃れる。;
#SUBTITLE:;
#ARTIST:L.E.D.-G;
#TITLETRANSLIT:Denjin, Akatsuki ni Taoreru;
#SUBTITLETRANSLIT:;
#ARTISTTRANSLIT:;
#CREDIT:;
#BANNER:Denjin, Akatsuki ni Taoreru.png;
#BACKGROUND:Denjin, Akatsuki ni Taoreru-bg.png;
#JACKET:Denjin, Akatsuki ni Taoreru-jacket.png;
#LYRICSPATH:;
#CDTITLE:;
#MUSIC:Denjin, Akatsuki ni Taoreru.mp3;
#OFFSET:-3.296;
#SAMPLESTART:39.320;
#SAMPLELENGTH:12.000;
#SELECTABLE:YES;
#BPMS:0.000=165.000;
#STOPS:;
#BGCHANGES:;

//---------------dance-single - ----------------
#NOTES:
     dance-single:
     :
     Hard:
     10:
     0.645,0.797,0.094,0.055,0.720: // measure 1
1000
0000
0001
0100
0000
0000
0010
0000
1000
0000
0001
0010
0000
0000
0100
0000
,  // measure 2
1000
0010
0100
0001
1000
0100
0001
0100
,  // measure 3
0010
0000
0001
0010
0000
0000
0010
0000
0100
0000
1000
0100
0000
0000
1000
0000
,  // measure 4
0001
0100
0001
1000
0100
1000
0001
0000
,  // measure 5
0100
1000
0100
0010
0001
0010
1000
0001
,  // measure 6
0010
0100
1000
0100
0001
0100
1000
0010
,  // measure 7
0100
0001
0010
0100
0010
0100
0001
1000
,  // measure 8
2002
0000
0000
3003
,  // measure 9
0001
0100
0001
0100
0000
0100
0001
0100
0001
0000
0100
0001
0000
0100
0001
0100
,  // measure 10
0001
0010
0100
1000
,  // measure 11
0010
0000
0000
0100
0000
0000
0010
0000
0100
0010
0100
0010
0100
0010
0100
0010
,  // measure 12
0100
0100
0001
1000
,  // measure 13
0100
0000
0010
0001
0000
0001
0100
0010
1000
0000
0001
1000
0000
1000
0100
0010
,  // measure 14
0100
0010
0001
0100
,  // measure 15
0010
0000
0100
0010
0000
0000
1000
0000
0001
1000
0000
0000
1000
0000
0100
0010
,  // measure 16
0000
0000
0001
0000
0000
0010
0000
0000
0100
0000
0000
1000
0000
0000
0010
0000
,  // measure 17
0100
0000
0000
0001
0000
0000
0010
0000
0100
1000
0000
0100
0000
0000
0010
0001
,  // measure 18
0000
0000
0001
0000
0000
0100
0000
0000
0010
0000
0000
0010
0000
0000
0100
0010
,  // measure 19
0100
0001
0000
0010
0000
0000
0100
0000
1000
0100
0000
1000
0000
0000
0001
0100
,  // measure 20
0000
0000
0001
0000
0000
0100
0000
0000
1000
0000
0000
0100
0000
0000
0010
0000
,  // measure 21
1000
0010
0000
0100
0000
0001
0000
0010
0100
0000
1000
0100
0000
1000
0100
0010
,  // measure 22
0000
0000
0010
0000
0000
0001
0000
0000
0100
0000
0000
0010
0000
0000
0010
0100
,  // measure 23
0001
1000
0001
1000
0000
0000
1000
0001
1000
0001
0000
0000
0001
1000
0001
0100
,  // measure 24
0000
0000
0101
0000
0000
1010
0000
0000
1100
0000
0000
0011
0000
0000
1001
0000
,  // measure 25
0001
0000
0000
0100
0000
0000
0010
0000
0000
0010
0000
0000
0010
0000
0100
0000
,  // measure 26
0001
0000
0000
1000
0000
1000
0100
0000
0000
0000
0100
0000
0010
0000
0001
0000
,  // measure 27
0010
0000
0000
0010
0000
0000
0001
0000
0000
0010
0000
0000
0010
0000
0100
0000
,  // measure 28
1000
0000
0000
1000
0000
0000
0010
0000
0000
0100
0000
0000
0010
0000
1000
0000
,  // measure 29
0001
0000
0000
1000
0000
0000
0100
0000
0000
0100
0000
0000
1000
0000
0001
0000
,  // measure 30
0100
0000
0000
0001
0000
0000
0010
0000
0000
0000
0010
0000
0100
0000
0010
0000
,  // measure 31
0001
0000
0000
1000
0000
0000
0100
0000
0000
0100
0000
0000
0100
0000
0010
0000
,  // measure 32
0001
0000
0000
0100
0000
0000
1000
0000
0000
0100
0000
0000
0010
0000
1000
0000
,  // measure 33
0001
0000
0000
0100
0000
0000
0010
0000
0000
1000
0000
0000
0100
0000
0100
0000
,  // measure 34
1000
0000
0000
0010
0000
0000
0100
0000
0000
0001
0000
0000
0010
0000
0010
0000
,  // measure 35
0100
0000
0000
1000
0000
0000
0100
0000
0000
0001
0000
0000
0100
0000
0100
0000
,  // measure 36
0010
0000
0000
0001
0000
0000
0010
0000
0000
1000
0000
0000
0010
0000
0010
0000
,  // measure 37
0000
0000
0110
0000
0000
0011
0000
0000
1010
0000
0000
0101
0000
0000
1001
0000
,  // measure 38
0001
0000
0000
0100
0000
0000
1000
0000
0000
0100
0000
0000
0010
0000
1000
0000
,  // measure 39
0001
0000
0000
0001
0000
0000
0001
0000
1000
0000
0000
1000
0000
0000
1000
0000
,  // measure 40
0010
0000
0100
0000
0010
0000
0100
0000
0001
1000
0001
1000
0001
1000
0001
2000
,  // measure 41
0002
0000
0000
0000
,  // measure 42
0000
0000
0000
0000
,  // measure 43
3003
0000
0001
0000
0000
0001
0000
0000
0001
0000
0000
0001
0000
0000
0001
0000
,  // measure 44
0100
0000
0010
0000
0000
0010
0000
0000
0010
0000
0000
0010
0000
0000
0010
0000
,  // measure 45
1000
0000
0100
0000
0000
0100
0000
0000
0100
0000
0000
0100
0000
0000
0100
0000
,  // measure 46
0010
0000
0001
0000
0000
0001
0000
0000
0001
0000
0000
0001
0000
0000
0001
0000
,  // measure 47
0100
0000
0010
0000
0000
0010
0000
0000
0010
0000
0000
0010
0000
0000
0010
0000
,  // measure 48
2020
0000
0000
3030
,  // measure 49
1000
0000
0001
0100
0000
0001
1000
0000
0001
0010
0000
0001
1000
0000
1000
0000
,  // measure 50
0001
0000
1000
0100
0000
1000
0001
0000
1000
0010
0000
1000
0001
0000
1000
0000
,  // measure 51
1000
0000
0001
0100
0000
0001
1000
0000
0001
0010
0000
0001
1000
0000
1000
0000
,  // measure 52
0001
0000
1000
0100
0000
1000
0001
0000
1000
0010
0000
1000
0001
0000
1000
0000
,  // measure 53
0100
0000
0010
0001
0000
0010
0100
0000
0010
1000
0000
0010
0100
0000
0100
0000
,  // measure 54
0010
0000
0100
0001
0000
0100
0010
0000
0100
1000
0000
0100
0010
0000
0100
0000
,  // measure 55
0010
0000
0100
1000
0000
0100
0010
0000
0100
0001
0000
0100
0010
0000
0010
0000
,  // measure 56
0100
0000
0010
1000
0000
0010
0100
0000
0010
0001
0000
0010
0100
0000
0010
0000
,  // measure 57
0100
1000
0100
0100
,  // measure 58
1000
0001
0100
0100
,  // measure 59
0001
1000
0010
0010
,  // measure 60
1000
0001
0010
0010
,  // measure 61
0001
0100
0010
1000
,  // measure 62
0100
0010
0001
0010
,  // measure 63
0100
1000
0100
1000
0010
0100
0001
0010
,  // measure 64
0100
1000
0100
1000
0100
1000
0100
1000
0100
1000
0100
1000
0100
1000
0100
1000
,  // measure 65
0100
0000
0000
1000
0000
0000
0100
0000
0000
0010
0000
0000
0001
0000
0100
0000
,  // measure 66
0010
0000
0000
0010
0000
0000
0100
0000
0000
0001
0000
0000
1000
0000
0001
0000
,  // measure 67
1000
0000
0100
0010
0000
0010
0001
0000
0010
0000
0000
0100
0000
0000
0010
0000
,  // measure 68
0000
0000
0010
0001
0000
0010
0000
0000
0010
0000
0000
1000
0000
0000
0001
0000
,  // measure 69
0100
0000
0000
0001
0000
0000
0010
0000
0000
1000
0000
0000
0010
0000
0100
0000
,  // measure 70
1000
0000
0000
1000
0000
0000
0001
0000
0000
0001
0000
0000
0100
0000
0010
0000
,  // measure 71
0000
0000
0100
0000
0000
0001
0000
0000
1000
0000
0000
0100
0000
0000
0010
0000
,  // measure 72
0000
0000
0010
0000
0000
0001
0000
0000
0010
0000
0000
0100
0000
0000
1000
0001
,  // measure 73
1000
0000
0000
1000
0000
0000
0100
0000
0000
1000
0000
0000
0001
0000
0100
0000
,  // measure 74
0010
0000
0000
0010
0000
0000
0100
0000
0000
0100
0000
0000
0010
0000
1000
0000
,  // measure 75
0001
0000
0000
0010
0000
0000
1000
0000
0000
0010
0000
0000
0100
0000
1000
0000
,  // measure 76
0100
0000
0000
0001
0000
0000
0100
0000
0000
1000
0000
0000
0010
0000
0100
0000
,  // measure 77
0001
0000
0001
0100
0000
0100
0010
0000
0100
0001
0000
0001
1000
0000
0100
0000
,  // measure 78
0010
0000
0001
0010
0000
0010
0100
0000
0100
1000
0000
1000
0001
0000
0100
0000
,  // measure 79
0010
1000
0010
0100
0001
0010
0100
1000
,  // measure 80
0010
0000
1000
0010
0000
0010
1000
0000
1000
0100
0000
0100
0010
0001
0010
0100
,  // measure 81
0020
0000
0000
0000
,  // measure 82
0030
0000
0000
0000
;

//---------------dance-single - ----------------
#NOTES:
     dance-single:
     :
     Medium:
     8:
     0.499,0.574,0.134,0.157,0.409:
0001
0000
0000
1000
0000
0000
0100
0000
1000
0000
0000
0010
0000
0000
0100
0000
,
0010
0010
0100
0100
,
0001
0000
0000
0100
0000
0000
0010
0000
1000
0000
0000
0010
0000
0000
0100
0000
,
0010
0100
0110
1001
,
0001
0000
0000
0001
0000
0000
0001
0000
1000
0000
0000
1000
0000
0000
1000
0000
,
0100
1000
0010
0100
,
0010
0000
0000
0010
0000
0000
0010
0000
0100
0000
0000
0100
0000
0000
0100
0000
,
2002
0000
0000
0000
0000
0000
0000
3003
,
0001
0000
0000
0100
0000
0000
1000
0000
0100
0000
0000
0010
0000
0000
1000
0000
,
0020
0000
0000
0030
,
0100
0000
0000
0100
0000
0000
0100
0000
0010
0000
1000
0000
0010
0000
0100
0000
,
0002
0000
0000
0003
,
1000
0000
0000
0100
0000
0000
1000
0000
0010
0000
0000
0100
0000
0000
0001
0000
,
0020
0000
0000
0030
,
0100
0000
0000
0100
0000
0000
1000
0000
0000
1000
0000
0000
0100
0000
0000
0000
,
0000
0000
0010
0000
0000
0001
0000
0000
0010
0000
0000
0001
0000
0000
0100
0000
,
0010
0000
0000
0100
0000
0000
0010
0000
1000
0000
0000
0001
0000
0000
0100
0000
,
0000
0000
0001
0000
0000
0001
0000
0000
1000
0000
0000
1000
0000
0000
0100
0000
,
1000
0000
0000
0010
0000
0000
0100
0000
0010
0000
0000
1000
0000
0000
0001
0000
,
0000
0000
0010
0000
0000
0100
0000
0000
1000
0000
0000
0000
0001
0000
1000
0000
,
0010
0000
0000
1000
0000
0000
0001
0000
0010
0000
0000
0001
0000
0000
0100
0000
,
0000
0000
0010
0000
0000
0100
0000
0000
0001
0000
0000
0001
0000
0000
1000
0000
,
0100
0000
0000
1100
0000
0000
0100
0000
0000
0110
0000
0000
0010
0000
0000
0000
,
0000
0000
0011
0000
0000
0011
0000
0000
1100
0000
0000
1100
0000
0000
1000
0000
,
0001
0000
0000
0010
0000
0000
0100
0000
0000
1000
0000
0000
0001
0000
1000
0000
,
0010
0000
0000
0100
0000
0000
0002
0000
0000
0000
1003
0000
0100
0000
0010
0000
,
0100
0000
0000
0100
0000
0000
1000
0000
0000
0100
0000
0000
1000
0000
0010
0000
,
0100
0000
0000
0001
0000
0000
1000
0000
0000
0000
0100
0000
0010
0000
0001
0000
,
1000
0000
0000
0100
0000
0000
1000
0000
0000
0001
0000
0000
0100
0000
0001
0000
,
1000
0000
0000
0100
0000
0000
0020
0000
0000
0000
0130
0000
1000
0000
0010
0000
,
0100
0000
0000
0001
0000
0000
1000
0000
0000
0100
0000
0000
1000
0000
0100
0000
,
0010
0000
0000
0100
0000
0000
1000
0000
0000
0001
0000
0000
0100
0000
0001
0000
,
1000
0000
0000
0001
0000
0000
1000
0000
0000
0001
0000
0000
0100
0000
0010
0000
,
1000
0000
0000
0010
0000
0000
1000
0000
0000
0010
0000
0000
1000
0000
0010
0000
,
0100
0000
0000
0001
0000
0000
0100
0000
0000
0001
0000
0000
0100
0000
0001
0000
,
0010
0000
0000
0100
0000
0000
0010
0000
0000
0100
0000
0000
0010
0000
0100
0000
,
0000
0000
1100
0000
0000
0011
0000
0000
0101
0000
0000
1010
0000
0000
1001
0000
,
0001
0000
0000
0100
0000
0000
1000
0000
0000
0100
0000
0000
0010
0000
1000
0000
,
0100
0000
0000
1000
0000
0000
0010
0000
0100
0000
0000
0001
0000
0000
1000
0000
,
0001
0100
0001
0100
0001
0100
1000
0100
,
0220
0000
0000
0000
,
0330
0000
0000
0000
,
0200
0010
0010
0310
,
0020
0100
0100
0130
,
2000
0001
0001
3001
,
0002
1000
1000
1003
,
0020
0100
0100
0130
,
2002
0000
0000
3000
0003
0000
0000
0000
,
0000
0000
0001
0000
0000
0100
0000
0000
0001
0000
0000
0100
0000
0000
0001
0000
,
0100
0000
0010
0000
0000
0010
0000
0000
0010
0000
0000
0010
0000
0000
0100
0000
,
0010
0000
1000
0000
0000
1000
0000
0000
1000
0000
0000
1000
0000
0000
1000
0000
,
0100
0000
0010
0000
0000
0010
0000
0000
0010
0000
0000
0010
0000
0000
0010
0000
,
0100
0000
1000
0000
0000
0100
0000
0000
1000
0000
0000
0100
0000
0000
1000
0000
,
0100
0000
0010
0000
0000
0100
0000
0000
0010
0000
0000
0100
0000
0000
0010
0000
,
0001
0000
0010
0000
0000
0001
0000
0000
0010
0000
0000
0001
0000
0000
0010
0000
,
0001
0000
0010
0000
0000
0100
0000
0000
1000
0000
0000
0010
0000
0000
0100
0000
,
0001
1000
0100
1000
,
0010
0100
0010
1000
,
0010
0100
0001
0010
,
0100
0010
0001
1000
,
0002
0000
0000
0000
,
0203
0000
0000
0000
,
0310
0000
0000
0100
0000
0000
0010
0000
0000
1000
0000
0000
0010
0000
0100
0000
,
0001
1000
0100
0010
0001
0010
0100
1000
,
0001
0000
0000
1000
0000
0000
0100
0000
0000
1000
0000
0000
0100
0000
1000
0000
,
0010
0000
0000
0010
0000
0000
0100
0000
0000
0100
0000
0000
0010
0000
0100
0000
,
0000
0000
0001
0000
0000
0100
0000
0000
0010
0000
0000
1000
0000
0000
0010
0000
,
0000
0000
0000
0100
0000
0010
0000
0000
1000
0000
0000
0001
0000
0000
0010
0000
,
0100
0000
0000
0100
0000
0000
0010
0000
0000
0010
0000
0000
0001
0000
0010
0000
,
0100
0000
0000
0100
0000
0000
1000
0000
0000
1000
0000
0000
0100
0000
1000
0000
,
0000
0000
1000
0000
0000
0100
0000
0000
0010
0000
0000
0001
0000
0000
0010
0000
,
0000
0000
0001
0000
0000
0010
0000
0000
0100
0000
0000
1000
0000
0000
0001
0000
,
0100
0000
0000
0100
0000
0000
0010
0000
0000
0010
0000
0000
1000
0000
0001
0000
,
0010
0000
0000
0100
0000
0000
0010
0000
0000
0001
0000
0000
1000
0000
0001
0000
,
0100
0000
0000
0100
0000
0000
0001
0000
0000
0001
0000
0000
1000
0000
0100
0000
,
1000
0000
0000
1000
0000
0000
0100
0000
0000
0100
0000
0000
1000
0000
0010
0000
,
0100
0000
0010
0000
0000
0000
1000
0000
0000
0001
0000
0000
0010
0000
0100
0000
,
0010
0000
0001
0000
0000
0000
1000
0000
0000
0001
0000
0000
1000
0000
0100
0000
,
0010
0001
0010
0001
0010
0100
1000
0100
,
1000
0100
0001
0100
1000
0010
0001
0010
,
2002
0000
0000
0000
,
3003
0000
0000
0000
;

//---------------dance-single - ----------------
#NOTES:
     dance-single:
     :
     Easy:
     4:
     0.326,0.441,0.228,0.228,0.000:
0001
0000
1000
0000
,
0010
1000
0010
1000
,
0010
0000
0100
0000
,
0001
0000
1001
1001
,
1001
0001
0100
0010
,
0100
0001
0010
0100
,
1000
0100
1000
0010
,
0220
0000
0000
0330
,
0100
0001
1000
0100
,
0020
0000
0000
0030
,
0100
0010
0001
0010
,
0002
0000
0000
0003
,
1000
1000
0001
0100
,
0020
0000
0000
0030
,
0100
0001
1000
0100
,
0010
0100
1000
1000
,
1001
0001
0100
0001
,
0010
0100
0010
0001
,
1000
0010
0100
0010
,
1010
0010
0110
1001
,
0101
0001
0100
0001
,
0010
0100
0010
0001
,
1000
0001
0100
0010
,
0200
0000
0000
0300
,
0010
0000
1000
0000
,
0010
0100
0001
0000
,
1000
0000
0100
0000
,
1000
0010
0100
0001
,
1001
0000
0001
0000
,
1000
1000
0100
0000
,
1000
0000
0100
0000
,
0010
0000
0100
0000
,
1000
0100
0010
0011
,
0001
0010
0100
1100
,
1000
0100
0010
0011
,
0001
0010
0100
1100
,
0000
2002
0000
0000
0000
0000
3003
0000
,
0001
0100
0010
1000
,
1010
0000
0101
0000
,
1001
1100
0110
0011
,
2002
0000
0000
0000
,
0000
0000
0000
3003
,
0000
0020
0000
0000
0000
0000
0000
0030
,
0000
0200
0000
0000
0000
0000
0000
0300
,
0000
0002
0000
0000
0000
0000
0000
0003
,
0000
2000
0000
0000
0000
0000
0000
3000
,
0000
0200
0000
0000
0000
0000
0000
0300
,
0220
0000
0000
0330
,
0000
0200
0000
0000
0000
0000
0000
1300
,
0200
0000
0000
0000
0000
0000
0000
0310
,
0200
0000
0000
0000
0000
0000
0000
1300
,
0002
0000
0000
0000
,
0203
0000
0000
0000
0000
0000
0000
0310
,
2000
0000
0000
0000
,
3200
0000
0000
0000
0000
0000
0000
0310
,
0002
0000
0000
0003
,
0010
0001
0200
0000
,
0310
1000
0002
0000
,
1003
0100
0020
0000
,
0130
1000
0020
0030
,
0100
0000
0001
0000
,
1000
0000
0100
0000
,
1000
0100
0010
0001
,
0011
0110
1100
1001
,
0101
0001
0100
0010
,
0100
0001
1000
0010
,
1000
0100
1000
0010
,
1000
0001
0010
0100
,
0010
0100
1000
0010
,
0001
0010
0100
0001
,
1000
1000
0001
0001
,
0100
0001
0010
0100
,
1000
0100
1000
0010
,
0100
0001
1000
0100
,
1000
0001
0100
0001
,
1000
0001
0010
0100
,
1000
0100
1000
0010
,
0001
0010
0100
0001
,
1000
1000
0001
0001
,
0100
0100
0010
0010
,
1001
0000
0000
0000
;

//---------------dance-single - ----------------
#NOTES:
     dance-single:
     :
     Beginner:
     2:
     0.127,0.252,0.055,0.000,0.000:
0001
0000
0001
0000
,
0100
0000
0000
0000
,
1000
0000
1000
0000
,
0010
0000
0000
0000
,
0100
0000
0100
0000
,
0001
0000
0000
0000
,
0010
0000
0010
0000
,
1001
0000
0000
0000
,
1000
0000
0000
0000
,
0100
0000
0000
0000
,
1000
0000
0000
0000
,
0100
0000
0000
0000
,
1000
0000
0000
0000
,
0001
0000
0000
0000
,
1000
0000
1000
0000
,
1000
0000
0000
0000
,
0001
0000
0100
0000
,
0010
0000
0000
0000
,
0100
0000
0001
0000
,
1000
0000
0100
0100
,
0100
0000
1000
0000
,
0001
0000
0000
0000
,
1000
0000
0001
0000
,
0000
0000
0000
0000
,
1001
0000
0000
0000
,
0010
0000
0000
0100
,
0100
0000
0000
0000
,
0001
0000
0000
1000
,
1000
0000
0000
0000
,
0100
0000
0000
0000
,
1000
0000
0000
0000
,
0010
0000
0000
0000
,
0100
0000
0000
0000
,
0001
0000
0000
0000
,
1000
0000
0000
0000
,
0100
0000
0000
0000
,
1000
0000
0001
0000
,
0100
0000
0000
0000
,
0010
0000
0100
0000
,
0001
0000
1000
1000
,
1001
0000
0000
0000
,
0000
0000
0000
0000
,
0001
0000
0000
0000
,
1000
0000
0000
0000
,
1001
0000
0000
0000
,
0010
0000
0000
0000
,
0100
0000
0000
0000
,
1001
0000
0000
0000
,
1000
0000
0000
0000
,
0001
0000
0000
0000
,
0100
0000
0000
0000
,
0001
0000
0000
0000
,
1000
0000
0000
0000
,
0100
0000
0000
0000
,
1000
0000
0000
0000
,
0001
0000
0000
0000
,
0100
0000
0000
0000
,
0100
0000
0000
0000
,
0001
0000
0000
0000
,
0001
0000
0000
0000
,
1000
0000
0000
0000
,
1000
0000
0000
0000
,
0100
0000
0010
0000
,
0001
1000
0010
0100
,
1001
0000
0000
0000
,
0001
0000
0000
0000
,
1000
0000
0000
0000
,
0100
0000
0000
0000
,
1000
0000
0000
0000
,
0001
0000
0000
0000
,
0100
0000
0000
0000
,
0100
0000
0010
0010
,
0010
0000
0000
0000
,
0100
0000
0000
0000
,
0001
0000
0000
0000
,
1000
0000
0100
0100
,
0100
0000
0000
0000
,
0010
0000
0000
0000
,
0001
0000
1000
0000
,
0010
0000
0100
0000
,
1001
0000
0000
0000
;
