#TITLE:Dealer;
#SUBTITLE:;
#ARTIST:S3RL;
#TITLETRANSLIT:;
#SUBTITLETRANSLIT:;
#ARTISTTRANSLIT:;
#CREDIT:;
#BANNER:Dealer.png;
#BACKGROUND:Dealer-background.png;
#JACKET:Dealer-jacket.png;
#LYRICSPATH:Dealer.lrc;
#CDTITLE:cdtitle.png;
#MUSIC:Dealer.mp3;
#OFFSET:-0.020;
#SAMPLESTART:32.340;
#SAMPLELENGTH:11.200;
#SELECTABLE:YES;
#BPMS:0.000=177.980;
#STOPS:92.000=1.011
,121.500=0.337
,122.500=0.337
,153.000=0.337
,278.500=0.337
,279.500=0.337
;
#BGCHANGES:;

//---------------dance-single - Pandy----------------
#NOTES:
     dance-single:
     Pandy:
     Hard:
     9:
     0.631,0.687,0.295,0.160,0.046:
0000
0000
0000
0000
,
0000
0000
0000
0000
,
0000
0000
0000
0000
,
0000
0000
0000
0000
,
0000
0000
0000
0000
,
0000
0000
0000
0000
,
0000
0000
0000
0000
,
0000
0000
0000
0000
,
1000
0000
1000
0000
0001
1000
0001
0000
,
0100
0000
0010
1000
0010
0100
0001
0000
,
1000
0000
0100
0000
0001
0100
1000
0000
,
1000
0000
0010
1000
0100
0001
0100
0000
,
0010
0001
0100
0000
0100
0010
1000
0000
,
0001
0000
1000
1000
0010
1000
0001
0000
,
0000
0000
1000
0001
0010
0100
0010
0001
,
0000
0000
0001
1000
0100
0010
0200
0010
,
0310
0010
0001
0100
0010
0010
1000
0000
,
1000
1000
0001
0100
0010
0010
1000
0000
,
0001
0001
0100
0010
1000
1000
0001
0000
,
0001
0001
0010
1000
0010
0010
0100
0000
,
0010
0001
0011
0000
0001
0100
0110
0000
,
0010
1000
0001
0010
0100
1000
0001
0000
,
0000
0000
1000
0001
0010
0100
1000
0010
,
0100
0000
0101
0000
1010
0000
0010
1000
,
0010
0000
1010
0000
1100
0000
1000
1000
,
0010
0000
0101
0000
0011
0000
0001
0010
,
0100
0000
0110
0000
1100
0000
1000
0001
,
0001
0100
0001
1000
1100
0000
1000
0010
,
1010
0000
1020
0000
0130
0010
1000
0001
,
0010
0000
0000
0000
0001
0010
0100
1000
,
0001
0100
0110
0110
1001
1001
0001
0000
,
0100
0000
0010
1000
0001
0010
0000
0001
,
1000
0000
0100
1000
0001
0000
1000
0000
,
0010
0000
0100
0001
1000
0100
0000
1000
,
0010
0100
0010
0000
0100
0000
0100
0000
0010
0000
1000
0000
0100
0000
0000
0000
,
0010
0000
0100
0010
0001
0010
0000
0100
,
0010
0000
0010
0100
1000
0001
0100
0000
,
0001
0000
0001
0010
0001
1000
0001
0100
,
0010
0100
0010
0000
0100
0000
0000
0000
1001
0000
0000
0000
1010
0000
0000
0000
,
1000
0100
1000
0010
0000
0010
0100
0000
,
0001
1000
0001
0000
0100
0000
0001
0000
,
0100
0000
1000
0000
0100
0000
0100
0000
0000
0000
0010
0000
0100
0010
0100
0000
,
0100
0010
0200
0000
0301
0000
0001
1000
,
0000
1000
0010
0000
0100
0001
0000
0001
,
0010
0000
0010
0000
0010
0100
1000
0100
,
1000
0000
0000
0001
0000
0000
0100
0000
0000
1000
0000
0000
0100
0000
0010
0000
1000
0000
0001
0000
0010
0000
0100
0000
,
0010
0000
0001
0000
1000
0000
0100
0000
0010
0000
1000
0000
0001
0000
0000
0001
0000
0000
0010
0000
0000
0010
0000
0000
,
0100
0100
0010
0010
0001
0001
1000
1000
,
0010
0010
0100
0000
0010
0010
1000
1000
,
0001
0001
0010
0010
1000
1000
0010
0010
,
0001
0001
0100
0000
0010
0010
1000
1000
,
0001
0001
0010
0010
0001
0001
1000
1000
,
0001
0001
0100
0000
0000
0000
0000
0000
,
0000
0000
0000
0000
,
0000
0000
1001
0201
,
0010
0310
0000
0000
1010
0000
2100
0000
,
0001
3001
0000
0000
0101
0000
0120
0000
,
0100
0130
0000
0000
0011
0000
1002
0000
,
0103
0000
0100
0010
0200
0000
0001
0000
,
0310
1000
0000
0000
2000
0000
0001
0000
,
3001
1000
0001
0100
1000
0000
1100
0000
,
0100
0010
1000
0000
1100
0000
0110
0000
,
0011
0000
0001
0100
0010
1000
0001
0010
,
0100
0010
0000
0000
0010
0001
0100
0010
,
1000
0100
0000
0000
1000
0001
0100
0001
,
0010
0100
0000
0000
0100
1000
0010
0100
,
0001
1000
0100
0001
0100
1000
0010
0100
,
0001
1000
0000
0000
1000
0001
0010
0100
,
0010
0001
0000
0000
0001
1000
0100
0010
,
0100
1000
0000
0000
1100
1100
0011
0011
,
0001
0100
0010
1000
0100
0010
0100
1000
,
0001
0100
0001
0010
0100
0010
0001
1000
,
0100
0010
0100
1000
0001
0100
0001
0010
,
0001
1000
0100
0010
0100
1000
0001
0100
,
0001
0010
0100
1000
0010
1000
0010
0001
,
0100
0010
1000
0001
0010
0001
0100
0010
,
1000
0100
0010
0100
1000
0001
0010
0100
,
1000
0010
0001
0100
0010
1000
0100
1000
,
0020
0000
1000
0000
0100
0130
0000
0000
,
0200
0000
0001
0000
0010
0310
0000
0010
,
1000
0000
0100
0000
0010
0001
0000
0000
,
1000
0000
0100
0000
1000
0000
0010
0100
,
0001
0000
1000
0000
0001
0100
0000
0000
,
0010
0000
1000
0000
0100
0100
0010
0001
,
0200
0300
0000
0000
0200
0300
0000
0000
0200
0300
0000
0000
0200
0300
0000
0000
,
0200
0300
0000
0000
0200
0300
0000
0000
0200
0300
0000
0000
0200
0300
0000
0000
;

//---------------dance-single - ----------------
#NOTES:
     dance-single:
     :
     Medium:
     7:
     0.450,0.542,0.185,0.000,0.000:
0000
0000
0000
0000
,
0000
0000
0000
0000
,
0000
0000
0000
0000
,
0000
0000
0000
0000
,
0000
0000
0000
0000
,
0000
0000
0000
0000
,
0000
0000
0000
0000
,
0000
0000
0000
0000
,
0001
0001
1000
1000
,
0010
0100
0010
0010
,
0100
0001
0100
1000
,
0100
0010
1000
1000
,
0010
0100
0001
0100
,
0010
1000
0100
0010
,
0000
0100
1000
0001
,
0000
1000
0001
0100
,
0101
0000
1100
0000
1000
0100
0010
0000
,
0100
0000
1000
0000
0010
0100
0001
0000
,
1000
0000
1000
0000
1000
0010
0100
0000
,
0010
0000
0010
0000
0100
0001
1000
0000
,
0001
1000
0001
0000
1000
0001
1000
0000
,
0110
0110
1001
1001
,
0001
0000
0100
0000
0010
0000
1000
0100
,
0010
0000
0110
0000
1100
0000
0100
1000
,
0100
0000
1000
0000
0010
0000
0100
0001
,
0100
0000
0001
0000
1000
0000
0010
0100
,
0001
0000
0010
0000
0100
0000
0010
0001
,
1000
0000
0010
0100
0010
0000
0100
0010
,
0100
0000
0010
0000
0100
0000
0010
1000
,
0001
0000
1000
0100
,
0010
0011
1100
1000
,
0001
0000
0000
0100
0000
0001
0000
1000
,
0010
0000
0100
0010
0100
0000
0010
0000
,
1000
0000
0000
0100
0000
1000
0000
1000
,
0100
0001
0100
1000
0010
0000
0100
0000
,
0010
0000
0000
0100
0000
0100
0000
0010
,
1000
0000
0001
0010
0100
0000
0010
0000
,
0001
0000
0000
1000
0000
0010
0000
0100
,
0010
0001
0010
0000
1000
0000
0010
0000
,
0000
0100
0000
0010
0000
1000
0001
0000
,
0010
0100
1000
0000
0100
0000
1000
0000
,
0000
0010
0000
0100
0000
1000
0100
0001
,
0100
1000
0010
0000
0100
0000
0000
0001
,
0000
0000
1000
0000
0000
0100
0000
0000
,
0010
0001
0010
0100
,
1000
0000
0001
0000
0100
0001
0100
0001
,
0100
0001
0100
0001
0100
0000
0101
0000
,
0001
0101
0100
0101
,
0001
0100
0010
0000
1000
0000
1010
0000
,
0010
1010
1000
1010
,
0010
1000
0100
0000
0010
0000
0110
0000
,
0100
1100
1000
1001
,
0001
1000
0010
0000
0000
0000
0100
0000
,
0100
0100
0000
0000
,
0010
0010
0100
0010
,
1000
0010
0000
0000
0100
0000
0001
0000
,
0010
0100
0000
0100
1000
0000
0100
0000
,
1000
0010
0000
0000
0100
0000
0100
0000
,
0100
0000
0010
1000
0001
0000
0010
0000
,
0100
0010
0000
0000
0001
0000
0010
0000
,
0100
0010
0000
0010
0001
0000
1000
0000
,
0001
0100
0000
0000
0001
0000
1000
0000
,
0010
0000
0100
0001
0100
0000
0010
0000
,
1000
0100
0000
0000
1000
0000
0010
0000
,
0100
0010
0000
0010
1000
0000
0001
0000
,
0010
0001
0000
0000
0010
0000
0100
0000
,
1000
0000
0100
1000
0010
0000
0100
0000
,
0001
1000
0000
0000
0100
0000
1000
0000
,
0010
0100
0000
0100
0010
0000
0100
0000
,
0001
1000
0000
0000
1001
0000
0110
0000
,
0010
0000
0110
0000
0100
0001
1000
0000
,
0001
0000
0001
1000
0010
1000
0010
0000
,
0100
0000
0010
0000
1000
0100
0010
0000
,
0100
0000
1000
0000
0010
0100
0001
0000
,
1000
0001
0100
0000
0001
1000
0100
0000
,
1000
0000
0010
0000
0100
0010
0001
0000
,
0000
0000
0001
0010
1000
0000
0100
0000
,
0000
0000
0100
0010
0001
0000
0010
0000
,
0100
0000
1000
0000
0010
0100
0000
0000
,
0010
0000
1000
0000
0001
1000
0000
1000
,
0001
0000
0100
0000
0010
1000
0000
0000
,
1000
0000
0100
0000
0010
0001
0010
0100
,
1000
0000
0100
0000
1000
0010
0000
0000
,
0100
0000
0010
0000
1000
0001
0000
0001
,
0010
0010
0010
0010
,
0010
0010
0010
0010
;

//---------------dance-single - ----------------
#NOTES:
     dance-single:
     :
     Easy:
     5:
     0.385,0.650,0.295,0.017,0.000:
0000
0000
0000
0000
,
0000
0000
0000
0000
,
0000
0000
0000
0000
,
0000
0000
0000
0000
,
0000
0000
0000
0000
,
0000
0000
0000
0000
,
0000
0000
0000
0000
,
0000
0000
0000
0000
,
1000
0001
1000
0001
,
1000
0001
1000
1000
,
0010
0100
0010
0100
,
0010
0100
0010
0010
,
1000
0010
0100
0001
,
0010
0100
1000
1000
,
0000
0001
0001
0001
,
0000
1000
1000
1000
,
1001
0001
0100
0010
,
1010
0010
0100
0100
,
1010
0010
0100
0001
,
0101
0001
1000
0100
,
1100
0100
0110
0010
,
0011
0000
0001
0000
0100
0001
0100
0000
,
0000
0001
0100
1000
,
0000
0100
0110
0010
,
1000
0001
1001
0001
,
0010
0100
0110
0100
,
1000
0010
0110
0010
,
1000
0101
0010
0101
,
0010
1100
0101
1100
,
0101
0000
0001
1000
,
0010
0100
0010
0100
,
0001
0000
0100
0010
,
1000
0001
0001
1000
,
0100
1000
0010
0100
,
0010
0000
1000
0010
1000
0000
0010
0000
,
0100
0001
0010
1000
,
0010
0100
1000
0001
,
0100
1000
0010
0100
,
0001
0100
0010
0000
0100
0000
0100
0000
,
0010
0010
1000
0001
,
0010
0100
0010
0000
0100
0000
1000
0000
,
0010
0100
0001
1000
,
0100
0010
0001
0000
0010
0000
0000
0100
,
0000
0000
1000
0000
0000
0001
0000
0000
,
0100
0001
0010
0100
,
1000
0001
0200
0000
,
0000
0300
0101
0101
,
1100
1100
0101
1100
,
0101
1100
1010
1010
,
0011
0011
1010
0011
,
1010
0011
1000
1000
,
0001
0001
0100
0100
,
0010
0010
0000
0000
,
0000
0000
0000
0000
,
0000
0000
1000
0100
,
0010
0000
0010
0001
,
0100
0010
1000
0001
,
0010
0000
0100
0100
,
0010
0001
1000
0010
,
0100
0000
0010
1000
,
0001
0010
0100
0010
,
0001
0000
1000
1000
,
0001
0100
0010
1000
,
0100
0000
0100
0010
,
0001
0010
0100
0010
,
0001
0000
0100
0100
,
0010
1000
0001
0010
,
1000
0000
1000
0010
,
0100
1000
0010
0001
,
0010
0000
0110
1001
,
0001
0000
0100
0000
0010
0100
0010
0000
,
0100
0000
0010
0000
1000
0010
1000
0000
,
0010
0000
1000
0000
0100
1000
0100
0000
,
1000
0000
0100
0000
0010
0001
0010
0000
,
0001
0000
0100
0000
0010
0100
0010
0000
,
0100
0000
0001
0000
1000
0001
1000
0000
,
0000
0001
0100
1000
,
0000
1000
0100
0010
,
1000
1000
1000
0000
,
0001
0001
0001
0000
,
0010
0010
0010
0000
,
0100
0100
0100
1000
,
0010
0100
0001
0000
,
0001
0010
0100
1000
,
0002
0000
0000
0000
,
0000
0000
0000
0003
;

//---------------dance-single - ----------------
#NOTES:
     dance-single:
     :
     Beginner:
     2:
     0.158,0.248,0.034,0.000,0.000: // measure 1
0000
0000
0000
0000
,  // measure 2
0000
0000
0000
0000
,  // measure 3
0000
0000
0000
0000
,  // measure 4
0000
0000
0000
0000
,  // measure 5
0000
0000
0000
0000
,  // measure 6
0000
0000
0000
0000
,  // measure 7
0000
0000
0000
0000
,  // measure 8
0000
0000
0000
0000
,  // measure 9
0001
0000
0000
0000
,  // measure 10
1000
0000
0000
0000
,  // measure 11
0100
0000
0000
0000
,  // measure 12
1000
0000
0000
0000
,  // measure 13
0001
0000
0000
0000
,  // measure 14
0100
0000
0000
0000
,  // measure 15
0000
0000
0000
0000
,  // measure 16
0000
0000
0000
0000
,  // measure 17
1001
0000
0000
0000
,  // measure 18
0001
0000
0000
0000
,  // measure 19
0100
0000
0000
0000
,  // measure 20
0001
0000
0000
0000
,  // measure 21
1000
0000
0000
0000
,  // measure 22
0100
0000
0000
0000
,  // measure 23
1000
0000
0000
0000
,  // measure 24
0000
0010
0000
0000
,  // measure 25
0000
0100
0000
0000
,  // measure 26
0000
0001
0000
0000
,  // measure 27
0000
1000
0000
0000
,  // measure 28
0000
0100
0000
0100
,  // measure 29
0000
0010
0000
0001
,  // measure 30
0001
0000
1000
1000
,  // measure 31
1000
0000
0000
0001
,  // measure 32
0001
0001
0000
0100
,  // measure 33
0000
0010
0000
0100
,  // measure 34
0100
0100
0000
0000
,  // measure 35
0010
0010
0010
1000
,  // measure 36
0000
0000
0000
1000
,  // measure 37
0000
0000
0000
0001
,  // measure 38
0001
0000
0000
1000
,  // measure 39
0000
0000
0110
0000
,  // measure 40
0000
0000
0100
0000
,  // measure 41
1000
0000
0001
0001
,  // measure 42
0000
0100
0000
0001
,  // measure 43
0001
1000
0001
0000
,  // measure 44
0000
1000
0000
0000
,  // measure 45
0010
0000
0100
0000
,  // measure 46
0001
0000
1000
0000
,  // measure 47
0000
0000
1001
0000
,  // measure 48
0001
0000
1000
0000
,  // measure 49
0010
0000
1000
0000
,  // measure 50
0001
0000
0100
0000
,  // measure 51
0001
0000
1000
0000
,  // measure 52
1000
0000
0001
0000
,  // measure 53
0100
0100
0000
0010
,  // measure 54
0000
0000
0000
0000
,  // measure 55
0000
0000
1001
0000
,  // measure 56
0000
0000
0001
0000
,  // measure 57
1000
0000
0100
0000
,  // measure 58
0000
0000
1000
0000
,  // measure 59
0001
0000
0001
0000
,  // measure 60
0000
0000
0100
0000
,  // measure 61
0001
0000
1000
0000
,  // measure 62
0000
0000
0100
0100
,  // measure 63
0100
0000
1000
0000
,  // measure 64
0000
0000
0001
0000
,  // measure 65
0000
0000
0100
0000
,  // measure 66
0000
0000
0001
0001
,  // measure 67
0001
0000
1000
0000
,  // measure 68
0000
0000
0100
0000
,  // measure 69
0000
0000
1000
1000
,  // measure 70
1000
0000
0010
0100
,  // measure 71
0010
0010
0010
0000
,  // measure 72
0100
0100
0100
0000
,  // measure 73
0001
0001
0001
0000
,  // measure 74
1000
1000
1000
0000
,  // measure 75
0100
0000
0010
0000
,  // measure 76
0001
0001
1000
1000
,  // measure 77
0000
0001
0100
0001
,  // measure 78
0000
0100
0010
0100
,  // measure 79
0010
0000
0000
0000
,  // measure 80
1000
0000
0000
0000
,  // measure 81
0100
0000
0000
0000
,  // measure 82
1000
0000
0000
0000
,  // measure 83
0001
0000
0000
0000
,  // measure 84
0100
0000
0000
0000
,  // measure 85
0010
0000
0000
0000
;
