#TITLE:Dawn;
#SUBTITLE:;
#ARTIST:Darren Tate;
#TITLETRANSLIT:;
#SUBTITLETRANSLIT:;
#ARTISTTRANSLIT:;
#CREDIT:;
#BANNER:Dawn.png;
#BACKGROUND:Dawn-background.png;
#JACKET:Dawn-jacket.png;
#LYRICSPATH:;
#CDTITLE:cdtitle.png;
#MUSIC:Dawn.mp3;
#OFFSET:-0.063;
#SAMPLESTART:0.020;
#SAMPLELENGTH:12.000;
#SELECTABLE:YES;
#BPMS:0.000=137.060;
#STOPS:;
#BGCHANGES:;

//---------------dance-single - ----------------
#NOTES:
     dance-single:
     :
     Hard:
     6:
     0.323,0.507,0.334,0.150,0.000:
0000
0000
0000
0000
,
0000
0000
0000
0000
,
0000
0000
0000
0000
,
0000
0000
0000
0000
,
0000
0000
0000
0000
,
0000
0000
0000
0000
,
0000
0000
0000
0000
,
0000
0000
0000
0000
,
1000
0001
0100
0000
0001
1000
0001
0010
,
0100
0010
0001
1000
,
0001
0000
0100
0000
0100
0010
1000
0001
,
0000
0001
0000
0000
1000
0000
1000
0000
,
0001
0000
0100
0000
0010
1000
0100
0010
,
0001
0010
0001
0100
,
0001
0000
1000
0000
0001
0100
0010
0100
,
0000
0100
0010
1000
0010
1000
0010
1000
,
1001
0001
0000
0001
0000
1000
0100
0010
,
0000
0001
0010
0001
0000
0000
0000
0000
,
0000
0001
0010
0100
0000
0100
1000
0010
,
0000
0100
0010
0100
0000
0000
0000
0000
,
0000
0010
0100
0001
0000
0000
0000
0000
,
0000
0001
0100
0100
0000
0000
0000
0000
,
0000
0010
1000
1000
0000
1000
0100
0010
,
0000
0100
0000
0000
0000
0000
0000
0000
,
1001
0000
0000
0000
0000
0001
0100
1000
,
0000
0000
0000
0000
,
0000
0000
0000
0000
0000
1000
0100
0010
,
0000
1000
0000
0000
0000
0000
0000
0000
,
0000
0000
0000
0000
0000
1000
0100
0001
,
0000
0000
0000
0000
,
0200
0000
0000
0000
,
0020
0000
0000
0330
,
1002
1000
1000
1000
,
1000
1000
1000
1000
,
0100
0100
0100
0100
,
0010
0010
0010
0013
,
2001
0001
0001
0001
,
0001
0001
0001
0001
,
0100
0100
0100
0100
,
0010
0010
0010
3010
,
0210
0000
0000
0000
,
0320
0000
0000
0000
,
2030
0000
0000
0000
,
3200
0000
0000
0000
,
2300
0000
3002
0000
,
0203
0000
0302
0000
,
0103
0001
0100
0001
,
0200
0302
2003
3020
0200
0000
0000
0030
,
0310
1000
0000
0001
0000
1000
0000
0100
,
0000
0001
0000
0100
0000
1000
0000
0010
,
0000
0110
0000
0110
0000
0110
0000
0110
,
0000
1001
0000
1001
0000
1001
0000
1001
,
0000
0001
0000
0001
0000
1000
0000
1000
,
0000
0010
0000
0010
0000
0100
0000
0100
,
0000
0110
0000
1010
0000
0110
0000
1010
,
0000
0110
0000
0101
0000
0110
0000
0101
,
0000
0001
0000
1000
0000
0001
0000
0001
,
0000
0100
0000
0100
0000
0010
0000
0100
,
0000
0110
0000
1001
0000
0101
0000
1001
,
0000
0011
0000
0110
0000
1100
0000
0110
,
0000
0100
0000
0010
0000
0001
0000
0010
,
0000
1000
0000
0100
0000
0001
0000
0100
,
0000
0110
0000
0011
0000
0110
0000
1100
,
0000
1001
0000
0101
0000
1001
0000
1001
,
0110
0000
0000
0000
;

//---------------dance-single - ----------------
#NOTES:
     dance-single:
     :
     Medium:
     4:
     0.232,0.310,0.009,0.070,0.000:
0000
0000
0000
0000
,
0000
0000
0000
0000
,
0000
0000
0000
0000
,
0000
0000
0000
0000
,
0000
0000
0000
0000
,
0000
0000
0000
0000
,
0000
0000
0000
0000
,
0000
0000
0000
0000
,
0100
0010
0001
0000
0010
0000
0100
0000
,
1000
0100
1000
0010
,
0100
0001
0100
0000
0010
0000
1000
0000
,
0010
0001
0010
0100
,
0010
1000
0100
0000
1000
0000
0010
0000
,
0100
0001
0010
0000
0100
0000
1000
0000
,
0100
1000
0010
0000
0100
0000
0001
0000
,
1000
0001
0100
0000
0001
0010
0100
0000
,
0000
1000
0100
0000
0000
0000
0000
0000
,
0000
0000
0000
0000
,
0000
0010
0001
0010
0000
0000
0000
0000
,
0000
0000
0000
0000
,
0000
0100
1000
0010
0100
0000
0000
0000
,
0000
0010
0100
0001
0100
0000
0000
0000
,
0000
0001
1000
0100
1000
0000
0000
0000
,
0000
0000
0000
0000
,
0110
0000
0000
0000
0000
0010
1000
0001
,
0000
0000
0000
0000
,
0000
0000
0000
0000
0000
0001
0010
0100
,
0000
0100
0000
0000
0000
0000
0000
0000
,
0000
0000
0000
0000
0000
1000
0100
0010
,
0000
0000
0000
0000
,
0001
0000
0000
0000
,
1000
0000
0000
0000
,
0020
0000
0000
0000
,
2030
0000
0000
0000
,
3200
0000
0000
0000
,
0320
0000
0000
0000
,
0032
0000
0000
0000
,
0000
0000
0000
0000
,
0203
0000
0000
0000
,
2300
0000
0000
0000
,
3100
0100
0100
0100
,
0010
0010
0010
0010
,
1000
1000
1000
1000
,
0001
0001
0001
0001
,
1000
0001
0010
0100
,
0010
1000
0001
0010
,
0100
1000
0100
0010
,
0001
0100
0001
0100
0002
0000
0000
0000
,
0013
0100
0000
0100
0000
0100
0000
0100
,
0000
0100
0000
0100
0000
0100
0000
0100
,
0000
0010
0000
0010
0000
0010
0000
0010
,
0000
0001
0000
0001
0000
0001
0000
0001
,
0000
1000
0000
1000
0000
1000
0000
1000
,
0000
1000
0000
1000
0000
1000
0000
1000
,
0000
0010
0000
0010
0000
0010
0000
0010
,
0000
0100
0000
0100
0000
0100
0000
0100
,
0010
1000
0000
0001
0000
0010
0000
0100
,
0000
1000
0000
0100
0000
0001
0000
0100
,
0000
1000
0000
0010
0000
0100
0000
0001
,
0000
1000
0000
0100
0000
0010
0000
0100
,
0000
1000
0000
0010
0000
0001
0000
0010
,
0000
0100
0000
0010
0000
1000
0000
0001
,
0000
0010
0000
0100
0000
1000
0000
0100
,
0000
1000
0000
0010
0000
0100
0000
0001
,
0010
0000
0000
0000
;

//---------------dance-single - ----------------
#NOTES:
     dance-single:
     :
     Easy:
     2:
     0.142,0.281,0.026,0.070,0.000:
0000
0000
0000
0000
,
0000
0000
0000
0000
,
0000
0000
0000
0000
,
0000
0000
0000
0000
,
0000
0000
0000
0000
,
0000
0000
0000
0000
,
0000
0000
0000
0000
,
0000
0000
0000
0000
,
1000
0100
0000
0000
,
0000
0000
0000
0000
,
0100
0010
0000
0000
,
0000
0000
0000
0000
,
0010
0001
0001
0000
,
0000
0100
0100
0000
,
0000
1000
1000
0000
,
0000
0000
0000
0000
,
0110
0000
0000
0010
,
0000
0000
0000
0000
,
0000
0000
0000
0100
,
0001
1000
0000
0000
,
0100
1000
0000
0000
,
0000
1000
1000
0000
,
0000
0001
0001
0000
,
0000
0000
0000
0000
,
1001
0000
0000
0001
,
0000
0000
0000
0000
,
0000
0000
0000
1000
,
0010
0100
0000
0000
,
0010
0000
0000
1000
,
0000
0000
0000
0000
,
0002
0000
0000
0000
,
0000
0000
0000
0003
,
0200
0000
0000
0000
,
0000
0000
0000
0300
,
0020
0000
0000
0030
,
2000
0000
0000
3000
,
0020
0000
0000
0000
,
0000
0000
0000
0030
,
0200
0000
0000
0300
,
0002
0000
0000
0003
,
1000
0000
0000
0000
,
0001
0000
0000
0000
,
1000
0000
0000
0000
,
0001
0000
0000
0000
,
1000
0000
0010
0000
,
0100
0000
0001
0000
,
1000
0100
0010
0001
,
0010
0010
0020
0000
,
0130
0000
1000
0000
,
0001
0000
0100
0000
,
0010
0000
1000
0000
,
0010
0000
0100
0001
,
1000
0000
0100
0000
,
1000
0000
0010
0000
,
0001
0000
0010
0000
,
0100
0000
0010
1000
,
0001
1000
0100
1000
,
0100
0010
0001
0001
,
0010
0100
1000
1000
,
0100
1000
0010
0010
,
0100
0001
1000
1000
,
0001
1000
0100
0100
,
1000
0010
0100
0100
,
0010
1000
0001
0010
,
1001
0000
0000
0000
;

//---------------dance-single - ----------------
#NOTES:
     dance-single:
     :
     Beginner:
     1:
     0.087,0.281,0.053,0.026,0.000: // measure 1
0000
0000
0000
0000
,  // measure 2
0000
0000
0000
0000
,  // measure 3
0000
0000
0000
0000
,  // measure 4
0000
0000
0000
0000
,  // measure 5
0000
0000
0000
0000
,  // measure 6
0000
0000
0000
0000
,  // measure 7
0000
0000
0000
0000
,  // measure 8
0000
0000
0000
0000
,  // measure 9
0001
0001
0000
0000
,  // measure 10
0000
0000
0000
0000
,  // measure 11
1000
1000
0000
0000
,  // measure 12
0000
0000
0000
0000
,  // measure 13
0000
0010
0010
0000
,  // measure 14
0000
0100
0100
0000
,  // measure 15
0000
0001
0001
0000
,  // measure 16
1000
0000
0001
0000
,  // measure 17
1001
0000
0000
0000
,  // measure 18
0000
0000
0000
0000
,  // measure 19
0000
0000
0010
0000
,  // measure 20
0000
0000
0000
0000
,  // measure 21
0000
0100
0000
0000
,  // measure 22
0000
0001
0000
0000
,  // measure 23
0000
1000
0000
0000
,  // measure 24
0000
0000
0000
0000
,  // measure 25
0110
0000
0000
0100
,  // measure 26
0000
0000
0000
0000
,  // measure 27
0000
0000
0000
0010
,  // measure 28
0000
1000
0000
0000
,  // measure 29
0000
0000
0000
0001
,  // measure 30
0000
0000
0000
0000
,  // measure 31
0200
0000
0000
0000
,  // measure 32
0000
0000
0000
0300
,  // measure 33
0010
0000
0000
0000
,  // measure 34
0010
0000
0000
0000
,  // measure 35
1000
0000
0000
0000
,  // measure 36
1000
0000
0000
0000
,  // measure 37
0001
0000
0000
0000
,  // measure 38
0010
0000
0000
0000
,  // measure 39
0100
0000
0000
0000
,  // measure 40
1000
0000
0000
0000
,  // measure 41
1001
0000
0000
0000
,  // measure 42
0001
0000
0000
0000
,  // measure 43
1000
0000
0000
0000
,  // measure 44
0001
0000
0000
0000
,  // measure 45
1000
0000
0001
0000
,  // measure 46
1000
0000
0001
0000
,  // measure 47
1000
0001
1000
0001
,  // measure 48
2002
0000
0000
3003
,  // measure 49
0110
0000
0000
0000
,  // measure 50
0010
0000
0000
0000
,  // measure 51
0100
0000
0000
0000
,  // measure 52
0001
0000
0000
0000
,  // measure 53
1000
0000
0000
0000
,  // measure 54
0100
0000
0000
0000
,  // measure 55
1000
0000
0000
0000
,  // measure 56
0001
0000
0000
0000
,  // measure 57
0100
0000
0000
0000
,  // measure 58
0010
0000
0000
0000
,  // measure 59
0100
0000
0000
0000
,  // measure 60
0001
0000
0000
0000
,  // measure 61
1000
0000
0000
0000
,  // measure 62
0000
0000
0000
0000
,  // measure 63
0100
0000
0000
0000
,  // measure 64
0010
0000
0000
0000
,  // measure 65
1001
0000
0000
0000
;
