#TITLE:DOES NOT COMPUTE;
#SUBTITLE:;
#ARTIST:フレディ波多江とエレハモニカ feat.ALT;
#TITLETRANSLIT:;
#SUBTITLETRANSLIT:;
#ARTISTTRANSLIT:Freddie Hatae to Eleharmonica feat. ALT;
#CREDIT:;
#BANNER:DOES NOT COMPUTE.png;
#BACKGROUND:DOES NOT COMPUTE-background.png;
#JACKET:DOES NOT COMPUTE-jacket.png;
#LYRICSPATH:;
#CDTITLE:;
#MUSIC:DOES NOT COMPUTE.mp3;
#OFFSET:-0.901;
#SAMPLESTART:37.540;
#SAMPLELENGTH:12.000;
#SELECTABLE:YES;
#BPMS:0.000=190.001,200.000=95.001,216.000=190.001,289.000=180.001,290.000=170.001,292.000=160.001,294.000=150.001,296.000=130.001,298.000=110.001,300.000=80.001,301.000=60.001;
#STOPS:8.000=0.040
,8.125=0.040
,8.250=0.040
,8.375=0.040
,8.500=0.040
,8.625=0.040
,8.750=0.040
,8.875=0.040
,9.000=0.040
,9.125=0.040
,9.250=0.040
,9.375=0.040
,9.500=0.040
,9.625=0.040
,9.750=0.040
,9.875=0.040
,10.000=2.206
,126.500=0.158
,127.000=0.158
,127.500=0.158
,157.000=0.158
,157.500=0.158
,158.000=0.158
,216.000=0.947
,236.500=0.158
,237.000=0.158
,237.500=0.158
,267.000=0.158
,267.500=0.158
,268.000=0.158
;
#BGCHANGES:;

//---------------dance-single - ----------------
#NOTES:
     dance-single:
     :
     Hard:
     9:
     0.620,0.693,0.122,0.384,0.039: // measure 1
0000
0000
0000
0000
,  // measure 2
0000
0000
0000
0000
0000
0000
0001
1000
,  // measure 3
0200
0000
0300
0101
,  // measure 4
0001
0100
0001
0000
0100
0010
0100
0000
,  // measure 5
0010
1000
0010
0000
1000
0100
1000
0000
,  // measure 6
0100
0010
0100
0000
0010
0001
0010
0000
,  // measure 7
0001
1000
0010
0100
0010
0000
0100
0000
,  // measure 8
0010
1000
0010
0000
0100
0010
0100
0000
,  // measure 9
0010
1000
0010
0000
0100
0010
1000
0000
,  // measure 10
0100
0010
0001
0010
0001
1000
0100
0000
,  // measure 11
0001
0100
0010
0001
,  // measure 12
1000
0100
0010
0000
0100
1000
0010
0000
,  // measure 13
0100
0010
1000
0000
0010
0100
0001
0000
,  // measure 14
0100
0010
1000
0001
0010
0100
1000
0000
,  // measure 15
0000
0000
1000
0100
,  // measure 16
0010
0001
0010
0000
0001
0100
0010
0100
,  // measure 17
0001
1000
0010
0000
0100
0010
0100
0000
,  // measure 18
0010
0100
0001
0010
1000
0010
0002
0000
,  // measure 19
0000
0000
0003
0000
0000
0000
1000
0001
,  // measure 20
0100
0001
1000
0100
1000
0001
0100
0001
,  // measure 21
1000
1000
0000
1000
0000
0000
1000
0001
,  // measure 22
0010
0001
1000
0010
1000
0001
0010
0001
,  // measure 23
1000
1000
0000
1000
0000
0000
0100
0010
,  // measure 24
0100
1000
0010
0100
0001
0010
0100
0010
,  // measure 25
0001
1000
0010
0100
0001
0010
0200
0000
,  // measure 26
0000
0000
0000
0000
0000
0010
0310
0001
,  // measure 27
1000
0002
0000
0000
0003
0000
1001
0000
,  // measure 28
0101
0000
0001
0100
0000
0100
0000
0010
,  // measure 29
1000
0000
1000
0100
0010
0100
1000
0000
,  // measure 30
0010
0000
0100
0001
0000
0010
0000
0100
,  // measure 31
0010
0000
0001
0010
0100
1000
0001
0100
,  // measure 32
0001
1000
0100
0010
0100
1000
0001
0100
,  // measure 33
0100
0001
0010
0100
0010
0001
1000
0010
,  // measure 34
0000
1000
0010
0000
0100
0001
0000
0001
,  // measure 35
0010
0000
0000
0110
0000
1100
0000
0100
,  // measure 36
0010
0000
0011
0000
0001
0200
0000
0010
,  // measure 37
0000
0310
0000
0110
0000
1010
0000
0001
,  // measure 38
0100
0000
1010
0000
0010
0200
0000
0001
,  // measure 39
0000
0310
0000
0100
0001
0010
0100
0010
,  // measure 40
0001
1000
0001
1000
0010
0100
0100
0010
,  // measure 41
2000
3200
0320
0032
,  // measure 42
0023
0230
2300
3002
,  // measure 43
0103
0010
0100
0001
0010
0100
1000
0100
,  // measure 44
1000
0100
1000
0010
0100
0001
0010
0100
,  // measure 45
1000
0001
0010
0100
1000
0100
0001
0100
,  // measure 46
1000
0010
0100
1000
0100
0010
0100
0001
,  // measure 47
1000
0010
0100
0001
0010
0100
1000
0001
,  // measure 48
0010
0100
0010
0001
1000
0010
0100
0010
,  // measure 49
0100
0001
0010
0100
1000
0100
0001
0100
,  // measure 50
0010
0010
0100
0100
1000
1000
0100
0100
,  // measure 51
2000
3100
0020
0130
,  // measure 52
0020
0031
0002
1003
,  // measure 53
0001
0000
0100
0010
1000
0000
1000
0001
0010
0001
0100
0010
1000
0010
1000
0000
,  // measure 54
0001
1000
0100
0010
0100
0000
1000
0000
0020
0000
0000
0000
0000
0000
0000
0000
,  // measure 55
0030
0000
1002
0000
0203
0000
0010
0320
,  // measure 56
0000
0230
0000
0301
2000
0000
0100
0000
,  // measure 57
0100
0000
3002
0000
0103
0000
0100
0020
,  // measure 58
0000
2000
0030
0100
0200
3000
0010
0000
,  // measure 59
1000
0000
1300
0100
0010
0100
1000
0001
,  // measure 60
0100
0001
0001
1000
1000
0100
1000
0001
,  // measure 61
0100
0001
0010
0100
0000
0010
0001
0000
,  // measure 62
0000
1001
0000
1000
0001
0000
0000
2010
,  // measure 63
0000
3002
0000
0100
0203
0000
0302
0000
,  // measure 64
0013
0020
0000
0001
0000
0100
0000
0230
,  // measure 65
0000
1300
0000
1000
0200
0000
0020
0300
,  // measure 66
0001
0002
0030
1000
0000
1000
0000
0103
,  // measure 67
0001
0010
0100
0010
0001
1000
0100
0010
,  // measure 68
0001
1000
1000
0001
0100
0001
0010
0001
,  // measure 69
1000
0100
0010
0100
0100
1000
0100
1000
,  // measure 70
0001
1000
0010
0100
0001
0010
0100
1000
,  // measure 71
0001
1000
0010
0100
0010
0100
0001
0100
,  // measure 72
1000
0100
0001
0010
0110
0110
0100
0000
,  // measure 73
1000
0000
0000
0000
0001
0000
0000
0000
1000
0000
0000
0000
0000
0000
0001
0100
,  // measure 74
0001
0000
0100
0010
2000
0000
0000
0000
,  // measure 75
3200
0000
0000
0000
0000
0000
0000
0000
2300
0000
0000
0000
0000
0000
3020
0230
,  // measure 76
0302
2000
3003
0000
;

//---------------dance-single - ----------------
#NOTES:
     dance-single:
     :
     Medium:
     7:
     0.468,0.594,0.183,0.192,0.000:
0000
0000
0000
0000
,
0000
0000
0000
0000
0000
0000
0001
1000
,
0002
0000
0003
1000
,
0001
0100
0001
0000
0100
0000
0010
0000
,
1000
0010
1000
0000
0010
0000
0100
0000
,
0001
0100
0010
1000
0100
0010
0001
0000
,
0000
0000
1000
0001
,
0100
0010
0100
0000
0010
0000
1000
0000
,
0100
0010
0100
0000
0010
0000
0001
0000
,
1000
0001
1000
0000
0001
0000
0100
0000
,
0100
0010
0010
0100
,
0001
0100
0010
0000
0100
0000
0010
0000
,
1000
0001
0010
0000
0100
0000
0010
0000
,
0001
1000
0010
0000
0100
0000
0010
0000
,
1000
0010
0100
0001
0010
0100
1000
0000
,
0001
0100
0001
0000
0100
0000
0010
0000
,
1000
0010
1000
0000
0010
0000
0100
0000
,
0010
0100
0001
1000
1000
0100
0010
0000
,
0000
0000
0000
0010
,
0001
0000
0100
0000
0010
0000
1000
0010
,
1000
0010
0000
1010
0000
0000
0001
0000
,
0100
0000
0010
0000
1000
0000
0001
0100
,
0001
0100
0000
0101
0000
0000
0001
0000
,
0001
1000
1000
0010
,
0010
0100
0100
2002
,
0000
0000
3003
0000
0000
0001
0100
0010
,
1000
0020
0000
0000
0030
0000
1000
0000
,
0100
0000
0100
1000
0000
0100
0000
0010
,
0001
0000
0001
0100
,
0010
0000
1000
0010
0000
0100
0000
0001
,
1000
0000
0000
1000
,
0100
0000
0010
0000
0001
0010
0001
0100
,
0010
0100
0010
0100
0000
0010
0000
1000
,
0000
0010
0100
0000
0000
0010
0000
1000
,
0100
0000
0000
0010
0000
0001
0000
0010
,
0001
0000
0010
0000
0100
2000
0000
0000
,
3000
0000
0000
0100
0000
1000
0000
0010
,
0100
0000
0010
0000
1000
0002
0000
0000
,
0003
0000
0000
0100
0000
0001
0000
0100
,
0000
0010
1000
1000
0001
1000
0001
1000
,
0001
0100
1000
0100
,
0001
0010
0100
0010
,
0001
0010
0001
0000
0010
0100
0010
0000
,
0100
1000
0100
0000
1000
0100
1000
0000
,
0100
0010
0001
0000
0010
0100
1000
0000
,
0100
0010
0001
0010
0100
0010
1000
0000
,
0001
1000
0001
0000
0100
0001
0100
0000
,
0010
0100
0010
0000
0100
0001
0100
0000
,
0001
0100
0010
1000
0001
0100
0010
1000
,
0001
0010
0100
1000
0100
0010
0001
1000
,
0002
0003
2000
3000
,
0020
0030
0200
0300
,
0010
0000
0100
0000
0001
0010
0001
1000
,
0100
0100
1000
0010
0200
0000
0000
0000
,
0300
0000
0010
0000
0100
0000
0010
0100
,
0000
0001
0000
1000
0200
0000
0000
0000
,
1300
0000
1000
0000
0100
0000
0010
0010
,
0000
0100
0000
1000
0200
0000
0000
0000
,
0300
1000
0100
0010
,
0001
1000
0001
0100
0001
0100
0001
0100
,
0000
0010
0000
1000
0000
0010
0100
0000
,
0000
0010
0000
0100
0001
0000
0000
0001
,
0000
1000
0000
0100
1000
0000
0020
0000
,
0000
0200
0000
0330
0000
0010
0000
0100
,
0000
0001
0000
1000
0100
0000
0020
0000
,
0000
0002
0000
0033
0000
0000
0000
0001
,
0000
0010
0000
0100
0000
0010
0001
1000
,
0010
0100
0010
0100
0101
0000
0101
0000
,
1100
1100
0011
0011
,
1010
1010
1100
0011
,
0101
1010
1100
0011
,
1100
0000
1010
0000
1001
1001
0001
0000
,
1000
0100
0010
0000
,
0001
0000
0010
0100
2000
0000
0000
0000
,
3002
0000
0203
0000
,
0302
0020
0033
0000
;

//---------------dance-single - ----------------
#NOTES:
     dance-single:
     :
     Easy:
     5:
     0.331,0.297,0.026,0.201,0.000:
0000
0000
0000
0000
,
0000
0000
0000
0000
,
0020
0000
0030
0100
,
0001
0000
0001
1000
,
0100
0000
0100
1000
,
0010
0000
0010
0100
,
0001
0000
0001
0100
,
0010
0000
0010
0100
,
0001
0000
0001
1000
,
0100
0000
0100
1000
,
1000
0001
0001
0100
,
0001
0100
0001
0100
,
0010
0100
0010
1000
,
0010
0010
0100
0001
,
0000
0000
1000
0100
,
1000
0001
0100
1000
,
0100
0010
1000
0010
,
0001
0010
0100
0002
,
0000
0003
0000
1000
,
0100
0010
0001
1000
,
0001
0100
0001
0001
,
0010
0100
1000
0100
,
1000
0010
0100
0001
,
0010
0100
1000
1000
,
0100
0010
0001
2002
,
0000
3003
0000
1001
,
0000
1001
0000
0000
0000
0000
0001
0000
,
0100
0010
1000
0100
,
0200
0000
0300
1000
,
0010
0100
0001
1000
,
2000
0000
3000
0001
,
1000
0000
0010
0000
0000
1000
0010
0100
,
0000
0010
0000
0100
0000
0001
0000
1000
,
0000
0000
0001
0000
0000
0100
0000
0001
,
0000
0000
0000
0001
0000
0100
0000
0010
,
0000
1000
0000
0010
0000
0200
0000
0000
,
0300
0000
0000
0010
0000
1000
0000
0100
,
0000
0010
0000
0100
0000
2000
0000
0000
,
3000
0000
0000
0001
0000
0100
0000
0010
,
0000
0000
0100
0010
1000
0000
0001
0000
,
1000
1000
0100
0100
,
0010
0010
0001
0001
,
1000
0000
0001
0000
,
0100
0000
0001
0000
,
1000
0000
0100
0000
,
0010
0100
1000
0010
,
0100
0100
0010
0010
,
1000
1000
0001
0001
,
1000
0100
0010
0100
,
1000
0010
0001
0010
,
0200
0000
0000
0300
0020
0000
0000
0030
,
0200
0000
0000
0300
0020
0000
0000
0030
,
0100
0001
1000
0100
,
0010
0002
2000
0000
,
3003
0001
0100
0001
,
0010
1000
0020
0030
,
0100
0010
0001
0100
,
1000
0100
0020
0030
,
0000
0100
0010
1000
,
0000
0001
1000
0001
0000
1000
0000
0100
,
0000
0100
0000
1000
0000
0000
0010
0000
,
0000
0100
0000
0010
0000
0000
0000
0100
,
0000
0001
0000
1000
0000
0100
0000
0010
,
0000
0200
0000
0000
0300
0000
0000
0100
,
0000
0010
0000
0001
0000
1000
0000
0001
,
0000
2000
0000
0000
3000
0000
0000
0001
,
0000
0100
0000
0010
0000
0000
0100
0001
,
1000
0001
0100
0100
,
0010
0010
1000
1000
,
0001
0001
0010
0100
,
1000
0100
0010
0001
,
1000
0000
0010
0000
0100
0001
0000
0000
,
0000
0000
1000
0000
,
0100
0000
2000
0000
,
3002
0000
0203
0000
,
0320
2000
3030
0000
;

//---------------dance-single - ----------------
#NOTES:
     dance-single:
     :
     Beginner:
     3:
     0.206,0.296,0.017,0.000,0.000:
0000
0000
0000
0000
,
0000
0000
0000
0000
,
0000
0000
0000
0001
,
0000
0000
0000
1000
,
0000
0000
0000
0001
,
0000
1000
0000
0010
,
0000
0000
0100
0100
,
0000
0000
0000
0001
,
0000
0000
1000
1000
,
0000
0001
0000
0100
,
0100
0100
0000
0010
,
0000
0010
0000
0100
,
0000
0100
0000
0001
,
0000
1000
0000
0100
,
0000
0000
1000
1000
,
0000
0001
0000
0100
,
0100
0100
0000
0001
,
0000
1000
1000
1000
,
0000
0000
0000
0010
,
0000
0100
0000
0001
,
1000
0001
0000
1000
,
0000
0010
0000
0100
,
0001
0100
0000
0010
,
0000
0100
0000
0001
,
0000
1000
0000
0100
,
0000
0000
0000
0010
,
0000
0000
0000
0001
,
0001
0001
0000
1000
,
0000
0000
1000
0010
,
0010
0010
0000
0100
,
0000
0000
0000
0100
,
0000
0000
0010
0000
0000
1000
0000
0000
,
0000
0000
0000
0001
0000
0000
0000
1000
,
0000
0000
0000
0010
0000
0000
0000
0100
,
0000
0000
0000
0001
0000
0001
0000
0001
,
0000
0000
0000
1000
0000
0000
0000
0000
,
0000
1000
0000
0010
0000
0010
0000
0010
,
0000
0100
0000
0000
,
0000
0000
0000
0010
0000
0000
0000
1000
,
0000
0001
0000
0000
,
1000
0000
0100
0000
,
0010
0000
0001
0000
,
1001
0000
0001
0000
,
1000
0000
0001
0000
,
0100
0000
0001
0000
,
0100
0000
0001
0000
,
1000
0000
0100
0000
,
1000
0000
0010
0000
,
0100
0000
0001
0000
,
1000
1000
0001
0001
,
0010
0000
0100
0000
,
1000
0000
0001
0000
,
1000
1000
0001
0001
,
0100
0100
0010
0000
,
0000
0100
0000
0100
,
0000
0010
0010
0000
,
0000
1000
0000
0001
,
0000
1000
1000
0000
,
0000
0001
0000
1000
,
0000
1000
0000
0000
0000
0001
0000
0001
,
0000
0000
0000
0100
0000
0000
0000
0010
,
0000
0000
0000
0100
0000
0000
0000
0001
,
0000
0001
0000
0001
0000
0000
0000
1000
,
0000
0000
0000
0000
0000
1000
0000
0100
,
0000
0100
0000
0100
0000
0000
0000
0010
,
0000
0010
0000
0000
0000
0000
0000
0100
,
0000
0000
0000
1000
0000
0000
0001
0000
,
0000
1000
0001
0001
,
0001
0001
1000
1000
,
1000
1000
0010
0010
,
0010
0010
0100
0100
,
0100
0100
1001
0000
,
0001
0000
1000
0000
,
0100
0000
1000
0000
,
0100
0000
0010
0000
,
0001
1000
0000
0000
;
