#TITLE:DEEP ROAR;
#SUBTITLE:;
#ARTIST:NAOKI & Tatsh;
#TITLETRANSLIT:;
#SUBTITLETRANSLIT:;
#ARTISTTRANSLIT:;
#CREDIT:;
#BANNER:DEEP ROAR.png;
#BACKGROUND:DEEP ROAR-background.png;
#LYRICSPATH:;
#CDTITLE:;
#MUSIC:51 - DEEP ROAR.mp3;
#OFFSET:-6.157;
#SAMPLESTART:63.580;
#SAMPLELENGTH:12.000;
#SELECTABLE:YES;
#BPMS:0.000=165.000;
#STOPS:;
#BGCHANGES:;

//---------------dance-single - ----------------
#NOTES:
     dance-single:
     :
     Hard:
     9:
     0.569,0.773,0.418,0.067,0.284:
0000
0000
0000
0000
,
0000
0000
0000
0000
0000
0000
0000
0001
,
1000
0000
0000
1000
0001
0000
0000
0001
,
0100
0000
0100
0000
0010
1000
0100
0001
,
0200
0000
0000
0000
,
0300
0000
0000
0000
0000
0000
0000
0000
0010
0000
0000
0010
0000
0000
0001
0000
,
1000
0000
0000
0100
0000
0000
1000
0000
0010
0000
0000
0100
0000
0000
0001
0000
,
0010
0000
0000
0001
0000
0000
0100
0000
0010
0000
0000
0000
1000
0000
0000
0000
,
0001
0000
0010
0100
0000
0000
1000
0000
0010
0100
0000
0000
0001
0000
0010
0100
,
0000
0000
1000
0000
0010
0100
0000
0000
0001
0000
1000
0000
0100
0000
1000
0000
,
0010
0100
0001
0000
0100
0000
0010
0000
,
1000
0000
0010
0000
0100
0000
0000
0000
0010
0000
0100
0000
0100
0000
0001
1000
,
0001
0000
0000
0000
0000
0000
0001
0100
0001
0000
0000
0000
0000
0000
0010
1000
,
0010
0000
0000
0000
0100
0000
0000
0000
0010
0100
0010
0100
0010
0000
1000
0000
,
0100
0000
0000
0010
0000
0000
0001
0000
1000
0000
0000
0010
0000
0000
1000
0000
,
0001
0000
0000
0100
0000
0000
0001
0000
1000
0000
0000
0000
1100
0000
0000
0000
,
0100
0000
0010
0001
0000
0000
0100
0000
0010
1000
0000
0000
0010
0000
0100
0001
,
0000
0000
0010
0000
0100
1000
0000
0000
0100
0000
0010
0000
0001
0000
1000
0000
,
0001
0000
0001
0000
0001
0000
0000
1001
0000
0000
1000
0000
0100
0000
0001
0000
,
0100
0000
0100
0000
0100
0000
0000
0110
0000
0000
0100
0000
1000
0000
0010
0100
,
0001
0000
0000
0000
0100
0000
0001
1000
0100
0000
0000
0000
1000
0000
0100
0010
,
0001
0000
0000
0000
1000
0000
0000
0000
0001
0100
0010
1000
0001
0000
1000
0000
,
0100
0000
0010
0001
0010
0001
0010
0001
,
1000
0001
1000
0000
0001
1000
0001
1000
0001
0000
0100
0000
0001
0000
0100
0000
,
0001
0100
0000
0000
0010
0100
0010
0100
,
0010
0100
0000
0000
0010
1000
0010
0000
,
1000
0010
1000
0000
0010
0100
1000
0100
,
0001
0010
0000
0000
0010
0100
1000
0100
,
0010
0100
0000
0000
0010
0001
0010
0001
,
1000
0001
0000
0000
0001
0100
0001
0000
,
0100
0010
0100
0000
0010
0100
0001
1000
,
0020
0000
0130
0001
,
0100
0001
0100
0010
,
1000
0010
1000
0100
,
0010
0100
1000
0010
,
0100
0000
0001
0000
1001
0000
0001
0100
,
0010
0100
0010
1000
,
0001
0000
0100
0010
1000
0000
0100
0000
,
0001
0000
0100
0010
0001
0000
1000
0000
,
0001
0000
0000
0000
0100
0000
0001
0000
0010
0000
0000
0100
0000
0000
1000
0000
,
0100
0000
0000
0001
0000
0000
0100
0000
0010
0000
0000
0010
0000
0000
0001
0000
,
0000
0000
0000
0000
0000
0000
0000
0000
1000
0000
0000
0001
0000
0000
0100
0000
,
0001
0000
0000
0010
0000
0000
0100
0000
0010
0000
0000
0100
0000
0000
1000
0000
,
0000
0000
0100
0000
1000
0000
0010
0000
0100
0000
0000
0001
0000
0000
0100
0000
,
0101
0000
0000
0000
0000
0000
0000
0000
0001
0000
0000
1000
0000
0000
0100
0000
,
1100
0000
0000
0000
0000
0000
0000
0000
1100
0000
0000
0100
0000
0000
0010
0000
,
0011
0000
0000
0001
0000
0000
0100
0000
1010
0000
0000
0101
0000
0000
0010
0000
,
2002
0000
3003
0000
,
0000
0000
0000
0000
,
0010
0000
0000
0010
0000
0000
0010
0000
1000
0000
0000
0001
0000
0000
0010
0000
,
0100
0000
0000
0010
0000
0000
0001
0000
1000
0000
0000
0010
0000
0000
0100
0000
,
0010
0000
0000
0000
0110
0000
0000
0000
0001
0000
0000
1000
0000
0000
0100
0000
,
0010
0000
0000
0100
0000
0000
1000
0000
0001
0000
0000
0100
0000
0000
0010
0000
,
0110
0000
0000
0000
1000
0000
0000
0001
0010
0000
0100
0000
0010
0000
0000
0001
,
0100
0000
0010
0000
1000
0000
0000
0001
0100
0000
0010
0000
0100
0000
0000
0000
,
0110
0000
0000
0000
0110
0000
0001
0000
1000
0000
0000
1010
0000
0000
1000
0000
,
0001
0000
0000
0011
0000
0000
0100
0000
1000
0000
0001
0000
1000
0000
0000
0000
,
0011
0000
0000
0000
1100
0000
0000
0000
0001
0000
0000
0101
0000
0000
0100
0000
,
0010
0000
0000
0110
0000
0000
0010
0000
1000
0000
0000
1010
0000
0000
1000
0000
,
0001
0000
0000
0000
0110
0000
0000
0000
1000
0000
0000
1100
0000
0000
0100
0000
,
0010
0000
0000
0110
0000
0000
0010
0000
0001
0000
0000
0011
0000
0000
0001
0000
,
1000
0000
0000
0000
0110
0000
0000
0000
1001
0000
0000
1010
0000
0000
1000
0000
,
1001
0000
0000
1100
0000
0000
0001
0000
0011
0000
0000
0110
0000
0000
1100
0000
,
2002
0000
0000
0000
3003
0000
0110
0000
1001
0000
0000
1100
0000
0000
0011
0000
,
1001
0000
0000
1010
0000
0000
0101
0000
0110
0000
0000
0000
1001
0000
0000
0000
,
0110
0000
1001
0000
0110
0100
1000
0100
,
0001
0010
0100
0000
0010
0001
0100
0010
,
1000
1000
0001
0000
0010
0100
0010
0001
,
1000
0010
0100
0000
1000
0100
0010
1000
,
0001
0001
0010
0000
0100
0010
0001
0100
,
0010
0000
1000
0010
0000
0010
1000
0000
0100
0000
0010
0000
0001
0000
0010
0000
,
0001
0100
1000
0100
0001
0010
0100
1000
,
0001
0000
0010
0100
0000
0100
0010
0000
0001
0000
1000
0000
0010
0000
0100
0000
,
0101
1100
2002
0000
,
3003
0000
0000
0000
;

//---------------dance-single - ----------------
#NOTES:
     dance-single:
     :
     Medium:
     7:
     0.460,0.495,0.251,0.033,0.188:
0000
0000
0000
0000
,
0000
0000
0000
0000
0000
0000
0000
0001
,
1000
0000
0000
0001
1000
0000
0000
0001
,
0100
0000
0100
0000
0010
1000
0100
0010
,
0002
0000
0000
0000
,
0003
0000
1000
0001
,
0100
0000
0000
0100
0000
0000
0010
0000
1000
0000
0000
1000
0000
0000
0010
0000
,
0100
0000
0000
0100
0000
0000
0010
0000
1000
0000
0000
0000
0001
0000
0000
0000
,
0100
0010
1000
0010
,
0100
0000
0001
0000
1000
0001
0100
0000
,
0010
1000
0100
0001
,
0100
0000
0010
0000
0001
0010
0100
1000
,
1010
0000
0000
0100
0110
0000
0000
0010
,
1010
0000
0101
0000
0001
0010
0100
1000
,
0001
0000
0000
0100
0000
0000
0001
0000
1000
0000
0000
0100
0000
0000
1000
0000
,
0010
0000
0000
0100
0000
0000
1000
0000
0100
0000
0000
0000
0010
0000
0000
0000
,
0100
0000
0000
0010
0000
0000
0010
0000
0000
1000
0000
0000
0010
0000
0000
0100
,
0000
0000
0010
0000
0000
1000
0000
0000
0001
0000
0010
0000
0100
0000
1000
0000
,
0001
0000
1000
0000
0001
0000
0000
1000
0000
0000
0001
0000
0100
0000
0010
0000
,
1000
0000
1000
0000
0100
0000
0000
0010
0000
0000
0100
0000
1000
0000
0010
0000
,
0110
0000
0000
0100
0101
0000
0000
0001
,
0011
0000
0000
0000
0010
0100
1000
0001
,
1001
0000
0000
0000
,
1001
0000
0110
0000
0001
0100
0010
1000
,
0010
0100
0000
0000
0010
0100
0010
1000
,
0010
1000
0000
0000
0010
0000
0100
0000
,
0001
0000
1000
0000
0100
1000
0010
0100
,
0001
0010
0000
0000
0100
0010
0001
0010
,
0001
0010
0000
0000
0100
1000
0100
1000
,
0100
1000
0000
0000
1000
0000
0100
0000
,
0010
0000
0001
0000
1000
0001
0100
0001
,
0010
0000
0100
0010
,
0001
1000
0100
1000
,
0010
0100
0010
1000
,
0010
0100
0001
1000
,
0100
0000
0010
0000
0100
1000
0010
0100
,
0001
0000
1000
0000
0001
0100
0001
1000
,
0100
0000
0010
0000
0100
0010
0001
1000
,
0010
0000
0100
0000
0100
0010
1000
0001
,
1000
0000
0000
0000
0001
0000
0000
0000
0100
0000
0000
0001
0000
0000
0100
0000
,
0010
0000
0000
1000
0000
0000
0010
0000
0100
0000
0000
0001
0000
0000
1000
0000
,
0000
0000
0000
0000
0000
0000
0000
0000
0100
0000
0000
1000
0000
0000
0010
0000
,
0100
0000
0000
0001
0000
0000
1000
0000
0100
0000
0000
0100
0000
0000
0100
0000
,
0000
0000
0010
0000
0001
0000
0100
0000
0010
0000
0000
1000
0000
0000
0010
0000
,
0100
0000
0000
0000
0000
0000
0000
0000
0010
0000
0000
1000
0000
0000
0100
0000
,
0010
0000
0000
0000
0000
0000
0000
0000
0100
0000
0000
1000
0000
0000
0010
0000
,
0100
0000
0000
0001
0000
0000
1000
0000
0100
0000
0000
1000
0000
0000
0010
0000
,
0200
0000
0300
0000
,
0000
0000
0010
1000
,
1001
0000
0000
0000
0000
0000
0000
0000
0101
0000
0000
0001
0000
0000
0100
0000
,
0010
0000
0000
1000
0000
0000
0010
0000
0001
0000
0000
0010
0000
0000
0100
0000
,
0001
0000
0000
0000
0000
0000
0000
0000
1000
0000
0000
0100
0000
0000
1000
0000
,
0010
0000
0000
0001
0000
0000
0010
0000
0100
0000
0000
0010
0000
0000
1000
0000
,
0001
0000
1000
0000
1000
0000
0000
0000
1001
0000
0000
0001
0000
0000
0100
0000
,
0001
0000
0000
1000
0000
0000
0100
0000
1000
0000
0000
0010
0000
0000
0100
0000
,
0010
0000
0000
0000
0000
0000
1000
0000
0010
0000
0000
0100
0000
0000
0010
0000
,
1000
0000
0000
0001
0000
0000
0100
0000
0010
0000
0010
0000
0010
0000
0000
0000
,
0100
0000
0000
0000
0000
0000
0000
0000
0110
0000
0000
0100
0000
0000
0010
0000
,
1000
0000
0000
0001
0000
0000
0010
0000
0001
0000
0000
0100
0000
0000
0010
0000
,
1000
0000
1010
0000
1010
0000
0000
0000
0010
0000
0000
0100
0000
0000
0001
0000
,
1000
0000
0000
0100
0000
0000
1000
0000
0010
0000
0000
0001
0000
0000
0010
0000
,
0100
0000
0000
0000
0000
0000
0000
0000
0110
0000
0000
0010
0000
0000
0100
0000
,
0001
0000
0000
1000
0000
0000
0001
0000
0100
0000
0000
0001
0000
0000
0010
0000
,
0100
0000
0000
0000
0000
0000
0000
0000
0110
0000
0000
0100
0000
0000
0000
0000
,
1001
0000
0000
1000
0000
0000
0001
0000
0100
0000
0100
0000
0001
0000
0000
0000
,
1000
0010
1010
0101
,
1010
0101
0001
1000
,
0100
0010
0011
1100
,
0011
1100
0100
1000
,
0010
0100
0010
0000
0100
0000
0010
0000
,
1000
0001
1000
0000
0001
0000
0010
0000
,
0100
0010
0001
1000
0010
0000
0100
0000
,
0010
1000
0010
0000
0100
0000
0010
0000
,
1010
0101
2002
0000
,
3003
0000
0000
0000
;

//---------------dance-single - ----------------
#NOTES:
     dance-single:
     :
     Easy:
     4:
     0.355,0.464,0.401,0.159,0.000:
0000
0000
0000
0000
,
0000
0000
0000
0000
,
0010
0000
0100
0000
,
0010
1000
0100
0010
,
2002
0000
0000
0000
,
3003
0000
0000
0000
,
0001
0100
0010
0100
,
0001
1000
0100
1000
,
0010
0010
0100
0100
,
0010
0010
0100
0010
,
1001
0001
1000
0100
,
1000
0010
0100
0010
,
1001
0000
0101
0000
,
0011
0000
0010
0100
,
1000
0001
0100
0001
,
0010
0010
0010
0010
,
0110
0100
0110
0010
,
0110
0100
0110
1001
,
0110
0010
1000
0010
,
0101
0001
0010
0100
,
1100
0000
0101
0000
,
1100
0000
1100
0110
,
0011
0001
0100
0010
,
1000
0010
0100
0010
,
1000
0000
0001
1000
,
0100
0000
1000
1000
,
0001
0001
0100
0001
,
0010
0100
0010
0001
,
1000
0010
0100
0010
,
1000
0001
0100
0100
,
0001
0001
1000
0010
,
0200
0000
0310
1000
,
0010
1000
0010
0100
,
0001
0100
0001
0010
,
0100
1000
0001
1000
,
0001
0100
0020
0000
,
0230
0000
0000
0300
,
0001
1000
0200
0000
,
0300
1000
0020
0000
,
0030
0100
0010
1000
,
0010
0001
0010
0010
,
0010
0000
0100
1000
,
0100
0001
0010
0010
,
0010
0100
0010
0001
,
1000
0000
0001
0100
,
0010
0000
0100
0010
,
1000
0100
1000
0002
,
0200
0000
0303
0000
,
0000
0000
0000
0000
,
0000
0000
1001
0001
,
0100
0001
0010
0100
,
1000
1100
0011
0001
,
0100
0010
1000
0010
,
0110
1001
0110
0010
,
0001
0100
0001
1000
,
0100
1000
1100
0000
,
0011
0000
0101
1010
,
0101
0000
1001
0001
,
0100
0001
0010
0100
,
1000
1100
0011
0001
,
0010
0001
0101
1100
,
0101
0000
1001
0001
,
0100
0010
1010
0010
,
0100
0010
1001
0010
,
0101
1001
0101
1100
,
0101
1100
2002
0000
,
0000
3003
0002
0000
,
1003
0000
2000
0000
,
3010
0000
0020
0000
,
0130
0000
0020
0000
,
1030
0000
2000
0000
,
3001
0000
0002
0000
,
0103
0000
0001
0010
,
1100
0011
2002
0000
,
3003
0000
0000
0000
;

//---------------dance-single - ----------------
#NOTES:
     dance-single:
     :
     Beginner:
     2:
     0.152,0.307,0.142,0.000,0.000: // measure 1
0000
0000
0000
0000
,  // measure 2
0000
0000
0000
0000
,  // measure 3
0010
0000
0010
0000
,  // measure 4
0100
0100
0100
0000
,  // measure 5
1001
0000
0000
0000
,  // measure 6
0000
0000
0000
0000
,  // measure 7
0001
0000
0000
0000
,  // measure 8
1000
0000
1000
0000
,  // measure 9
0010
0000
0000
0000
,  // measure 10
0010
0000
0100
0100
,  // measure 11
0100
0000
0000
0000
,  // measure 12
0010
0000
0000
0000
,  // measure 13
1000
0000
0001
0000
,  // measure 14
1000
0000
0010
0100
,  // measure 15
1001
0000
0000
0000
,  // measure 16
0001
0000
1000
0000
,  // measure 17
0010
0000
0000
0000
,  // measure 18
0100
0000
0000
0000
,  // measure 19
0001
0000
0000
0000
,  // measure 20
1000
0000
0000
0000
,  // measure 21
0001
0000
1000
0000
,  // measure 22
0001
0000
0100
0100
,  // measure 23
0100
0000
0000
0000
,  // measure 24
0010
0000
1001
0000
,  // measure 25
0000
0000
0001
0000
,  // measure 26
0000
0000
1000
0000
,  // measure 27
1000
0000
0010
0000
,  // measure 28
0000
0000
1001
0000
,  // measure 29
0000
0000
0010
0000
,  // measure 30
0000
0000
0110
0000
,  // measure 31
0110
0000
0100
0100
,  // measure 32
0100
0000
1001
0000
,  // measure 33
0000
0000
0001
0000
,  // measure 34
0001
0000
1000
0000
,  // measure 35
0000
0000
0010
0000
,  // measure 36
0000
0000
0100
0000
,  // measure 37
0000
0000
0000
0000
,  // measure 38
0000
0010
0010
0000
,  // measure 39
0000
0000
0100
0000
,  // measure 40
0000
0000
0001
0000
,  // measure 41
0001
0000
0001
0000
,  // measure 42
0000
0000
1000
0000
,  // measure 43
1000
0000
1000
0000
,  // measure 44
0000
0000
0010
0000
,  // measure 45
0000
0000
0010
0000
,  // measure 46
0000
0000
0100
0000
,  // measure 47
0100
0000
0010
0000
,  // measure 48
0100
0000
0000
0000
,  // measure 49
0000
0000
0000
0000
,  // measure 50
0000
0000
1001
0000
,  // measure 51
0001
0000
1000
0000
,  // measure 52
0000
0000
0001
0000
,  // measure 53
1000
0000
0010
0000
,  // measure 54
0000
0000
0100
0000
,  // measure 55
0010
0000
1000
0000
,  // measure 56
0000
0000
1001
0000
,  // measure 57
1001
0000
0010
0010
,  // measure 58
0010
0000
0100
0000
,  // measure 59
0100
0000
0010
0000
,  // measure 60
0010
0000
1000
0000
,  // measure 61
0001
0000
0100
0000
,  // measure 62
0001
0000
1000
0000
,  // measure 63
1000
0000
0010
0000
,  // measure 64
0010
0000
0110
0000
,  // measure 65
0110
0000
1001
1001
,  // measure 66
1001
0000
0110
0000
,  // measure 67
0000
0000
0100
0000
,  // measure 68
0000
0000
0001
0000
,  // measure 69
0000
0000
1000
0000
,  // measure 70
0000
0000
0010
0000
,  // measure 71
0000
0000
1000
0000
,  // measure 72
0000
0000
0001
0000
,  // measure 73
0100
0000
0010
0000
,  // measure 74
0100
0010
1001
0000
;
