#TITLE:Data Super Highway;
#SUBTITLE:;
#ARTIST:MACHO ROBOT;
#TITLETRANSLIT:;
#SUBTITLETRANSLIT:;
#ARTISTTRANSLIT:;
#CREDIT:;
#BANNER:DATA SUPER HIGHWAY.png;
#BACKGROUND:DATA SUPER HIGHWAY-background.png;
#JACKET:DATA SUPER HIGHWAY-jacket.png;
#LYRICSPATH:;
#CDTITLE:cdtitle.png;
#MUSIC:Data Super Highway.mp3;
#OFFSET:-13.963;
#SAMPLESTART:85.200;
#SAMPLELENGTH:12.000;
#SELECTABLE:YES;
#BPMS:0.000=69.000,18.000=138.000,74.000=105.240,77.000=69.000,79.000=138.000;
#STOPS:203.500=0.020
;
#BGCHANGES:;

//---------------dance-single - ----------------
#NOTES:
     dance-single:
     :
     Hard:
     7:
     0.404,0.407,0.214,0.321,0.279:
0002
0000
0000
0000
0000
0000
0000
0003
,
2000
0000
0000
3000
0200
0000
0000
0300
,
2000
0000
0000
0000
0000
0000
0000
0000
0000
0000
0000
0000
0000
0000
0000
0000
0000
0000
0000
0000
0000
3000
0000
0000
0000
0000
0010
0000
0000
0000
0000
0000
0010
0000
0000
0000
0000
0000
0010
0000
0000
0000
0000
0000
0010
0000
0000
0000
,
0000
0100
0000
0000
0100
0000
0000
0100
0000
0000
0100
0000
0000
0001
0000
0000
0001
0000
0000
0001
0000
0000
0001
0000
,
0000
0001
0000
0000
0001
0000
0000
0002
0000
0000
0000
0000
1003
0000
0000
0010
0000
0000
0000
0000
0000
0200
0000
0000
,
0000
0000
0300
0000
0000
0000
0000
0000
0001
0000
0000
1000
0000
0000
0100
0000
,
0000
0000
0100
0000
0000
0100
0000
0000
1000
0000
0010
0000
0000
0000
0200
0000
,
0000
0000
0300
0000
0000
0000
0000
0000
0010
0000
0000
0010
0000
0000
0010
0000
,
0000
0000
0100
0000
0000
0100
0000
0000
0001
0000
1000
0000
0000
0000
2000
0000
,
0000
0000
3000
0000
0000
0000
0000
0000
0100
0000
0000
0100
0000
0000
0100
0000
,
0000
0000
0010
0000
0000
0001
0000
0000
0010
0000
0100
0000
0000
0000
0020
0000
,
0000
0000
0030
0000
0000
0000
0000
0000
0100
0000
0000
0100
0000
0000
0010
0000
,
0000
0000
0010
0000
0000
0001
0000
0000
0010
0000
0000
0000
0010
0000
0000
0000
,
0001
0000
0000
0000
0010
0000
0000
0000
0100
0000
0000
0100
0000
0000
0100
0000
,
0000
0000
0010
0000
0000
0010
0000
0000
0001
0000
0000
0000
1000
0000
0000
0000
,
0010
0000
0000
0000
0100
0000
0000
0000
0001
0000
0000
0001
0000
0000
0001
0000
,
0000
0000
0100
0000
0000
0010
0000
0000
1000
0000
0000
0000
0010
0000
0000
0000
,
0100
0010
1000
0001
,
0010
0100
1000
0001
,
0100
0000
0010
0000
0000
0000
0100
0001
,
0000
0000
1001
0000
0000
0000
0001
0000
1000
0000
0100
0000
1000
0000
0000
0100
,
0000
0000
1000
0000
0000
0000
1001
0000
0000
0101
0000
0000
0001
0000
0010
0000
,
0000
0000
0011
0000
0000
0000
1000
0000
0100
0000
1000
0000
0010
0000
0000
0010
,
0000
0000
0010
0000
0000
0000
0100
0000
0000
0100
0000
0000
0100
0000
0001
0000
,
0101
0000
1000
0100
1100
0000
1000
0010
,
1010
0000
0010
0001
0011
0000
0102
0000
,
0100
0000
0010
0000
1003
0000
1000
0100
,
0001
0010
1000
0001
1001
0000
0001
0001
,
1000
0000
0000
0100
0000
0000
1000
0000
0010
0000
0000
0100
0000
0000
0010
0000
,
1000
0000
0000
0001
0000
0000
0010
0000
0100
0000
1000
0000
0001
0000
0001
0000
,
0100
0000
0000
0010
0000
0000
0100
0000
0001
0000
0000
0010
0000
0000
0100
0000
,
0010
0000
0000
0010
0000
0000
0010
0000
0100
0000
1000
0000
0001
0000
1000
0000
,
0010
0000
0000
0100
0000
0000
0010
0000
1000
0000
0000
0100
0000
0000
0010
0000
,
0100
0000
0000
0100
0000
0000
0100
0000
1000
0000
0001
0000
0100
0000
0010
0000
,
1000
0000
0000
0010
0000
0000
0001
0000
0010
0000
0000
0100
0000
0100
0000
0000
,
0001
0000
0000
2000
0000
0000
0002
0000
3003
0000
0000
0000
0001
0000
0101
0000
,
0000
0000
0000
2010
0000
0000
3100
0000
0000
0000
0000
0012
0000
0000
0103
0000
,
0000
0000
0000
2001
0000
0000
3100
0000
0000
0000
0000
0000
0010
0000
0110
0000
,
0000
0000
0000
0012
0000
0000
1003
0000
0000
0000
0000
2001
0000
0000
3100
0000
,
0000
0000
0000
0012
0000
0000
0103
0000
0000
0000
0000
0000
0001
0000
1010
0000
,
0000
0000
0000
0102
0000
0000
0013
0000
0000
0100
2000
0000
0000
3020
0000
0000
,
0130
0001
2200
0000
3300
0000
1000
0001
,
0100
0000
0000
0002
0000
0000
0103
0000
1000
0000
0000
0200
0000
0000
0310
0000
,
1000
0000
0000
0020
0000
0000
0130
0000
0110
0000
0000
0000
0010
0000
0100
0000
,
0100
0000
0000
0002
0000
0000
1003
0000
0100
0000
0000
2000
0000
0000
3010
0000
,
0001
0000
0000
0020
0000
0000
0130
0000
0101
0000
0000
0000
0001
0000
0001
0000
,
1000
0000
0000
0200
0000
0000
1300
0000
0010
0000
0000
0200
0000
0000
0301
0000
,
0001
0000
0000
0000
1000
0010
0000
0010
0000
0010
0000
0010
1000
0000
0100
0000
,
0010
0000
0000
0002
0000
0000
0103
0000
0010
0000
0000
0200
0000
0000
0301
0000
,
1000
0000
0000
0200
0000
0000
0301
0000
0010
0000
0100
0000
1000
0000
0010
0000
,
0001
0000
0000
0020
0000
0000
0130
0000
0001
0000
0000
1000
0000
0000
2000
0000
,
0000
0000
0000
0000
0000
3010
0100
0001
,
0000
2000
0000
0100
0100
0000
3001
0010
,
0000
0020
0000
0001
0001
0000
0130
1000
,
0000
0000
0020
0000
0000
0000
0100
0000
0100
0000
0000
0000
1030
0000
0000
1000
,
0000
0000
2000
0000
0000
0000
0001
0000
0000
3001
0000
0000
0100
0000
0001
0000
,
0000
2000
0000
0100
0100
0000
3001
0010
,
0000
0200
0000
0010
0010
0000
1300
0001
,
0100
0000
0000
0000
0101
0000
0000
0000
1100
0000
0000
0000
1010
0000
0000
0101
,
0000
1100
0000
0000
0000
0000
0000
0000
;

//---------------dance-single - ----------------
#NOTES:
     dance-single:
     :
     Medium:
     6:
     0.285,0.316,0.107,0.053,0.130:
1000
0000
0000
0000
,
0001
0000
0100
0000
,
0001
0000
0020
0000
,
0230
0000
2000
0000
,
0000
0000
0000
3300
1001
0000
0000
0000
,
0000
0000
0000
0000
0000
0000
0000
0000
0010
0000
0000
0010
0000
0000
0010
0000
,
0000
0000
0110
0000
,
0000
0000
0000
0000
0000
0000
0000
0000
0100
0000
0000
0100
0000
0000
0100
0000
,
0000
0000
0101
0000
,
0000
0000
0000
0000
0000
0000
0000
0000
0001
0000
0000
0001
0000
0000
0001
0000
,
0000
0000
1100
0000
,
0000
0000
0000
0000
0000
0000
0000
0000
0100
0000
0000
0100
0000
0000
0100
0000
,
0000
0000
1100
0100
,
1000
0000
0000
0000
0010
0000
0000
0000
0100
0000
0000
0001
0000
0000
1000
0000
,
0000
1000
0000
1000
0001
0000
0100
0000
,
0010
0000
0000
0000
0010
0000
0000
0000
0100
0000
0000
0001
0000
0000
1000
0000
,
0000
0000
1000
0000
0000
0100
0000
0000
0010
0000
0000
0000
0100
0000
0000
0000
,
1000
0000
0000
0000
0010
0000
0000
0000
0001
0000
0000
0010
0000
0000
0100
0000
,
0000
0100
0000
0010
1000
0000
0010
0000
,
0100
0000
0001
0000
0000
0000
1000
0001
,
0000
0100
0000
0001
0100
0000
0010
1000
,
0000
0010
0000
0100
0010
0000
1000
0001
,
0000
0010
0000
0100
1000
0000
0100
1000
,
0000
0010
0000
0100
0010
0000
1000
0001
,
0101
0000
0001
0000
1001
0000
0001
0010
,
0110
0100
1100
2000
,
0100
0010
3001
0101
,
1010
0000
0011
0000
1100
0000
1000
0001
,
0100
0000
0001
0100
0010
0000
0100
0010
,
1000
0000
0010
0100
0001
0000
1000
0100
,
0010
0000
0010
0100
1000
0000
0100
0010
,
0001
0000
0001
0010
0100
0000
0100
1000
,
0010
0000
0100
0001
1000
0000
0001
0010
,
1000
0000
1000
0010
0100
0000
0100
1000
,
0010
0000
0100
0010
1000
0000
0002
0000
,
0000
0000
2000
0000
3003
0000
0001
0100
,
0000
0000
0000
0010
0000
0000
0010
0000
0000
0000
0000
0100
0000
0000
0100
0000
,
0000
0000
0000
0001
0000
0000
0001
0000
0000
0000
0000
0000
1000
0000
0010
0000
,
0000
0000
0000
0100
0000
0000
0100
0000
0000
0000
0000
0010
0000
0000
0010
0000
,
0000
0000
0000
1000
0000
0000
1000
0000
0000
0000
0000
0000
1000
0000
0100
0000
,
0000
0000
0000
1000
0000
0000
0010
0000
0000
0000
0000
0100
0000
0000
0010
0000
,
0000
0000
0100
0000
1001
0000
0010
0100
,
0000
0000
0000
0010
0000
0000
0010
0000
0000
0000
0000
0100
0000
0000
0001
0000
,
0000
0000
0000
1000
0000
0000
0100
0000
0000
0000
0000
0000
1000
0000
0010
0000
,
0100
0000
0000
0010
0000
0000
1000
0000
0000
0000
0000
0010
0000
0000
0100
0000
,
0000
0000
0000
0010
0000
0000
0100
0000
0000
0000
0000
0000
0001
0000
1000
0000
,
0000
0000
0000
1000
0000
0000
0100
0000
0000
0000
0000
0100
0000
0000
0010
0000
,
0000
0000
0000
0000
0001
1000
0000
0001
0000
1000
0000
0001
1000
0000
0100
0000
,
0000
0000
0000
1000
0000
0000
0010
0000
0000
0000
0000
0100
0000
0000
0001
0000
,
0000
0000
0000
0100
0000
0000
0010
0000
0000
0000
0000
0000
0100
0000
0001
0000
,
0000
0000
0000
1000
0000
0000
0010
0000
0000
0000
0000
0100
0000
0000
0020
0000
,
0000
0000
0000
0130
,
0001
0000
1000
0100
1000
0000
1000
0000
,
0010
0000
0100
0010
0100
0000
0010
0000
,
1000
0000
0001
0010
0100
0000
0010
0000
,
0001
0000
0010
0001
0010
0000
0001
0000
,
0100
0000
0010
0100
0010
0000
1000
0000
,
0010
0000
0100
0001
1000
0000
0001
0001
,
1000
0000
0000
0000
0010
0000
0000
0000
0100
0000
0000
0000
0001
0000
0000
0001
,
0000
1000
0000
0000
0000
0000
0000
0000
;

//---------------dance-single - ----------------
#NOTES:
     dance-single:
     :
     Easy:
     3:
     0.219,0.249,0.084,0.359,0.000:
0001
0000
0000
0000
,
1000
0000
0010
0000
,
0100
0000
0002
0000
,
2000
0000
0000
0000
,
0000
0000
3003
0000
0010
0000
0000
0100
,
0000
0000
0010
0000
,
0000
0000
0000
0000
1000
0000
0000
0001
,
0000
0000
1000
0000
,
0000
0000
0000
0000
0001
0000
0000
0100
,
0000
0000
0100
0000
,
0000
0000
0000
0000
0010
0000
0000
1000
,
0000
0000
0010
0000
,
0000
0000
1000
0001
,
0100
0001
1000
1000
,
1000
0000
1000
0001
,
0010
0001
0100
0100
,
0100
0000
0010
1000
,
0010
0100
0010
1000
,
0001
0010
0200
0000
,
0000
0300
0000
1000
,
0001
0100
0101
0001
,
1000
0100
1100
1000
,
0001
0100
0101
0001
,
1000
0100
1100
0000
,
0110
0000
1010
0000
,
0101
0000
0011
0020
,
0000
0000
0000
0230
,
2300
0002
3003
0001
,
0001
1000
1000
0001
,
1000
0001
1000
0010
,
0010
0100
0100
0010
,
0100
0010
0100
0001
,
0001
1000
1000
0100
,
0010
0100
0010
0100
,
0100
0010
0010
0200
,
0000
0000
0300
2000
,
3000
0002
0003
0200
,
0300
0020
0030
2000
,
3000
0002
0003
0020
,
0030
0200
0300
2000
,
3000
0020
0030
0200
,
0300
0001
1001
0002
,
0003
2000
3000
0020
,
0030
0200
0300
0020
,
0030
2000
3000
0200
,
0300
2000
3000
0002
,
0003
0200
0300
0002
,
0003
0000
0202
0000
0000
0303
0002
0000
,
0003
0200
0300
0020
,
0030
2000
3000
0200
,
0300
2000
3000
0002
,
0000
0000
0000
2003
,
0000
3010
0000
0000
0000
0000
0200
0000
,
0000
0301
0000
0000
0000
0000
0002
0000
,
0000
0013
0000
0000
0000
0000
0020
0000
,
0000
0130
0000
0000
0000
0000
0200
0000
,
0000
1300
0000
0000
0000
0000
2000
0000
,
0000
3010
0000
0000
0000
0000
0100
0000
,
0010
1000
0001
2002
,
0000
3003
0000
0000
0000
0000
0000
0000
;

//---------------dance-single - ----------------
#NOTES:
     dance-single:
     :
     Beginner:
     1:
     0.094,0.157,0.038,0.000,0.000: // measure 1
0010
0000
0000
0000
,  // measure 2
0100
0000
0001
0000
,  // measure 3
1000
0000
0000
0000
,  // measure 4
0000
0000
0000
0000
,  // measure 5
0000
0000
0001
0000
,  // measure 6
0000
0000
0100
0000
,  // measure 7
0000
0000
0001
0000
,  // measure 8
0000
0000
1000
0000
,  // measure 9
0000
0000
0100
0000
,  // measure 10
0000
0000
1000
0000
,  // measure 11
0000
0000
0001
0000
,  // measure 12
0000
0000
0100
0000
,  // measure 13
0000
0000
0001
0000
,  // measure 14
0000
0000
1000
0000
,  // measure 15
0000
0000
0001
0000
,  // measure 16
0000
0000
0100
0000
,  // measure 17
0000
0000
0001
0000
,  // measure 18
0000
0000
1000
0000
,  // measure 19
0000
0000
0100
0000
,  // measure 20
0000
0000
0000
0110
,  // measure 21
0000
0000
0000
0010
,  // measure 22
0000
0000
0000
0001
,  // measure 23
0000
0000
0000
1000
,  // measure 24
0000
0000
0000
0000
,  // measure 25
0010
0000
0100
0000
,  // measure 26
0001
0000
1000
1000
,  // measure 27
0000
0000
0000
1001
,  // measure 28
0110
1001
0000
0010
,  // measure 29
0000
0000
0000
0100
,  // measure 30
0000
0000
0000
0001
,  // measure 31
0000
0000
0000
1000
,  // measure 32
0000
0000
0000
0100
,  // measure 33
0000
0000
0000
1000
,  // measure 34
0000
0000
0000
0001
,  // measure 35
0000
0000
0000
0100
,  // measure 36
0000
0100
0000
0110
,  // measure 37
0000
0010
0000
0100
,  // measure 38
0000
0001
0000
0100
,  // measure 39
0000
0010
0000
0100
,  // measure 40
0000
1000
0000
0100
,  // measure 41
0000
0010
0000
1000
,  // measure 42
0000
0001
0001
0001
,  // measure 43
0000
1000
0000
0100
,  // measure 44
0000
1000
0000
0010
,  // measure 45
0000
0100
0000
0001
,  // measure 46
0000
1000
0000
0100
,  // measure 47
0000
1000
0000
0010
,  // measure 48
0000
0100
0000
0100
,  // measure 49
0000
0010
0000
1000
,  // measure 50
0000
0001
0000
1000
,  // measure 51
0000
0100
0000
0010
,  // measure 52
0000
0000
0000
0100
,  // measure 53
0000
0000
0000
0010
,  // measure 54
0000
0000
0000
0001
,  // measure 55
0000
0000
0000
1000
,  // measure 56
0000
0000
0000
0001
,  // measure 57
0000
0000
0000
0100
,  // measure 58
0000
0000
0000
0010
,  // measure 59
0010
0000
0000
0100
;
