#TITLE:D.C.fish;
#SUBTITLE:;
#ARTIST:DJ MURASAME;
#TITLETRANSLIT:;
#SUBTITLETRANSLIT:;
#ARTISTTRANSLIT:;
#CREDIT:;
#BANNER:D.C.fish.png;
#BACKGROUND:D.C.fish-background.png;
#JACKET:D.C.fish-jacket.png;
#LYRICSPATH:;
#CDTITLE:;
#MUSIC:D.C.fish.mp3;
#OFFSET:-3.205;
#SAMPLESTART:31.040;
#SAMPLELENGTH:12.000;
#SELECTABLE:YES;
#BPMS:0.000=155.000;
#STOPS:;
#BGCHANGES:;

//---------------dance-single - ----------------
#NOTES:
     dance-single:
     :
     Hard:
     8:
     0.488,0.548,0.243,0.185,0.063:
0001
1000
0001
1000
,
0001
0000
1000
0000
0001
0000
1000
0001
,
0010
0000
0100
0000
0010
0000
0100
0010
,
0100
0000
0010
0000
0100
0000
0010
0001
,
1000
0000
0000
1000
0000
0000
1000
0000
0000
1000
0000
0000
1000
0000
0000
1000
,
0000
0000
1000
0000
0000
1000
0000
0000
1000
0000
0000
0000
1010
0000
0010
0000
,
0110
0010
0000
1000
0000
0010
0000
1000
,
0000
0010
0010
0100
0000
0001
0000
1000
,
0000
0100
0000
0100
0000
0010
0000
0010
,
0000
0100
0100
1000
0000
0010
0000
0100
,
0001
0100
0000
0100
0010
1000
0001
0000
,
0001
1000
0000
1000
0100
0010
0001
0000
,
0001
0010
0000
0010
0100
1000
0100
0000
,
0100
1000
0000
1000
0100
0010
0001
0000
,
0001
1000
0000
1000
0001
0100
0001
0000
,
0001
0100
0000
0100
0010
1000
0010
0000
,
0100
0100
0100
0100
,
0100
0100
0100
0100
,
0001
0100
1000
0100
0000
0010
0000
0001
,
0000
0010
0100
1000
0000
0100
0000
1000
,
0000
0100
0000
0001
0000
1000
0000
0010
,
0000
1000
0100
0010
0000
0100
0000
1000
,
0000
0010
0000
0001
0000
0010
0000
0100
,
0000
0100
0010
1000
0000
0001
0000
1000
,
0100
0010
0001
0000
0010
0000
0100
0000
,
1000
0100
0010
0000
0100
0000
1000
0000
,
1020
0230
0302
0023
,
0130
0010
0001
0000
1000
0000
1001
0000
,
0001
0100
0010
0000
1000
0000
1010
0000
,
0010
0100
0001
0000
1000
0000
1001
0000
,
1000
0100
0010
0000
0100
0000
1100
0000
,
1000
0100
0001
0100
0010
0001
0010
0000
,
0001
0100
1000
0100
0010
1000
0001
0000
,
0001
0001
0010
0100
0010
0001
1000
0000
,
2002
0000
0000
3003
,
0102
0103
2100
3100
,
0102
0103
2100
3100
,
0012
0013
2010
3010
,
0012
0013
2010
3010
,
1000
0010
0100
0000
0100
0010
1001
0000
,
0001
0100
0010
0000
0010
1000
1001
0000
,
0001
1000
0010
0100
0001
0100
1000
0100
,
0010
1000
0001
0010
0001
0010
0100
1000
,
2002
0000
0000
0000
,
0000
0000
0000
0000
0000
0000
0000
3003
,
0000
0002
0000
0103
0000
0200
0000
0310
,
0000
0100
0010
2000
0000
3100
0000
1000
,
0010
0000
0100
0010
0000
0000
0000
0000
0000
0100
0000
0100
0000
0000
0010
0000
,
1000
0000
0001
0010
0000
0000
0000
0000
0000
0000
0000
0000
0011
0000
0000
0000
,
1100
0000
0100
0010
0000
0000
0000
0000
1100
0000
0100
0010
0000
0000
0000
0000
,
0100
1000
0010
0001
,
0010
0100
0010
1000
,
0001
0010
0100
1000
,
0000
1000
0000
1000
,
0000
0000
0000
0220
0000
0000
0000
0330
,
1001
0001
0000
0100
0000
0001
0000
0010
,
0000
0100
0100
0010
0000
0100
0000
1000
,
0000
0010
0000
0100
0000
0001
0000
1000
,
0000
0100
0100
1000
0000
0100
0000
0001
,
0000
0100
0000
0010
0000
0001
0000
0010
,
0001
0010
0100
1000
0001
0010
0100
1000
,
0001
0010
0100
1000
0001
0010
0100
1000
,
1001
0000
0000
0000
,
0001
0100
0010
0000
1000
0000
1010
0000
,
0010
0100
0001
0000
1000
0000
1001
0000
,
0001
0100
0010
0000
1000
0000
1010
0000
,
0010
0100
0001
0000
0100
0000
0101
0000
,
0001
0100
0010
0000
0100
0010
1000
0000
,
1000
0100
0001
0000
0001
0100
0010
0000
,
0001
1000
0001
0100
0001
0010
0100
1000
,
0100
0000
0000
0100
0010
0000
0000
0100
0010
0000
0000
0100
0010
0000
0000
0100
,
0010
0000
0001
0000
0010
0000
0100
0020
0000
0000
0000
0000
0000
0000
0000
0000
,
0000
0000
0030
0000
;

//---------------dance-single - ----------------
#NOTES:
     dance-single:
     :
     Medium:
     6:
     0.363,0.548,0.168,0.109,0.000:
0001
1000
0000
0100
,
1000
0010
0000
0100
,
0001
0010
0000
0100
,
0010
0001
0000
1000
,
0020
0000
0000
0000
,
0000
0000
0000
0000
0030
0000
0100
0100
,
0001
1000
0100
0010
,
0001
0010
0001
0100
,
0010
0100
0010
0000
0100
0010
0100
0000
,
0001
1000
0100
1000
,
0010
0000
0101
0000
0001
0010
0100
0000
,
1000
0000
1100
0000
0100
0010
0001
0000
,
0010
0000
0011
0000
0001
0100
0010
0000
,
1000
0000
1010
0000
1000
0010
0100
0000
,
0010
0000
1010
0000
0010
0100
0001
0000
,
0010
0000
1010
0000
1000
0010
0001
0000
,
0100
0100
0100
0100
,
0100
0100
0100
0100
,
0010
1000
0000
0100
0000
0010
0000
0001
,
0000
0010
0001
0010
0000
0001
0000
0100
,
0000
0010
0000
0010
0000
0100
0000
0100
,
0000
0010
0100
0010
0000
1000
0000
1000
,
0000
0001
0000
0001
0000
0100
0000
0100
,
0000
0001
0010
0001
0000
0001
0000
1000
,
0000
0100
0000
0100
0000
1000
0000
1000
,
0000
0010
0100
0010
0000
0100
0000
0010
,
2000
0000
0000
3000
,
0001
1000
0001
1000
,
0100
1000
0010
0100
,
0001
0010
0100
0010
,
0001
0100
1000
0100
,
0010
1000
0010
1000
0010
1000
0010
0000
,
0100
0001
0010
0100
,
1000
0100
1000
0100
1000
0100
1000
0000
,
0200
0000
0000
0300
,
0020
0000
0000
0031
,
0002
0000
0000
0103
,
0200
0000
0000
0310
,
0020
0000
0000
1030
,
2000
0001
0000
3001
,
0002
1000
0000
1003
,
0200
0301
0002
0013
,
0000
0010
0000
0100
0000
1000
0000
0001
,
0200
0000
0000
0000
,
0000
0000
0000
0000
,
0300
0010
0000
0010
0000
0010
0000
0010
,
0000
0010
0100
0010
0000
0010
0000
0010
,
1001
0000
0000
0000
0000
0100
0000
0000
,
0100
0000
0000
1001
,
0110
0000
0110
0000
,
0100
0000
0100
0000
,
0100
0000
0100
0000
,
0100
0010
1000
0001
,
0000
0001
0000
0001
,
0000
0000
0000
1001
0000
0000
0000
0000
,
0001
1000
0010
0000
1000
0000
0010
0000
,
0100
0010
0100
0000
0010
0000
1000
0000
,
0001
0010
0100
0000
0010
0000
0001
0000
,
1000
0100
0010
0000
0100
0000
1000
0000
,
0010
0100
0001
1000
,
0101
0101
0101
0101
,
0101
0101
0101
0101
,
1001
0000
0000
0000
,
0001
1000
0000
0100
0000
0010
0000
0001
,
0000
0001
0010
1000
0000
0010
0000
0100
,
0000
1000
0000
0010
0000
0001
0000
0010
,
0000
0100
0001
0010
0000
0100
0000
0010
,
0000
0001
0000
1000
0000
0100
0000
0010
,
0000
0100
1000
0010
0000
0100
0000
0001
,
1000
0001
0100
0000
0001
0100
0001
0010
,
0001
0010
0100
1000
,
0001
0010
0100
1000
0020
0000
0000
0000
,
0000
0000
0030
0000
;

//---------------dance-single - ----------------
#NOTES:
     dance-single:
     :
     Easy:
     3:
     0.229,0.274,0.025,0.076,0.000:
0001
1000
0000
0001
,
1000
0010
0000
1000
,
0001
0010
0000
0001
,
1000
0010
0000
0010
,
0200
0000
0000
0000
,
0000
0000
0000
0300
,
0010
0000
1000
0000
,
0001
0000
1000
0000
,
0100
0000
1000
0000
,
0010
0000
0100
0000
,
0001
0000
1000
1000
,
0001
0000
0100
0100
,
0001
0000
0010
0010
,
0100
0000
0010
0010
,
0001
0000
1000
1000
,
0010
0000
0010
0010
,
0200
0000
0000
0000
,
0000
0000
0000
0300
,
0010
0000
1000
0000
,
0001
1000
0100
0000
,
1000
0000
0010
0000
,
0100
0010
1000
0000
,
0001
0000
0100
0000
,
0001
0010
0100
0000
,
0010
0010
0000
0000
,
0100
0100
0000
0000
,
2002
0000
0000
3003
,
0001
0000
1000
0000
,
0010
0000
0100
0000
,
0010
0000
1000
0000
,
0100
0000
1000
0000
,
0001
1000
0100
0001
,
0000
0000
0000
0000
,
0001
0010
1000
0010
,
0200
0000
0000
0300
,
0010
0001
0100
0001
,
1000
0100
0010
0010
,
0100
1000
0010
0100
,
0001
1000
0100
0010
,
0100
0010
0001
1000
,
0001
0100
0001
1000
,
0010
1000
0010
0100
,
0001
0010
0100
1000
,
2002
0000
0000
0000
,
0000
0000
0000
0000
,
0000
0000
0000
0000
,
0000
0000
0000
0000
,
3000
0000
0000
0000
,
0000
0000
0000
0000
,
0003
0000
0001
0000
,
0001
0000
1000
0000
,
1000
0000
0010
0000
,
0010
0000
0100
0000
,
0200
0000
0000
0000
,
0000
0000
0000
0300
0000
0000
0000
0000
,
0110
0010
1000
0001
,
0010
0010
0001
1000
,
0100
1000
0010
0100
,
0001
0001
0100
0001
,
1000
0000
0000
0000
,
1000
0100
1000
0100
,
1000
0100
1000
0100
,
0010
0000
0000
0000
,
0100
0010
0001
1000
,
0010
0100
0001
1000
,
0100
1000
0010
0100
,
0010
1000
0001
0010
,
0001
1000
0001
0100
,
0001
0010
0001
1000
,
1000
0001
1000
0010
,
0100
0100
0100
0100
,
0010
1000
0002
0000
,
0000
0000
0003
0000
;

//---------------dance-single - ----------------
#NOTES:
     dance-single:
     :
     Beginner:
     1:
     0.107,0.183,0.042,0.034,0.000: // measure 1
0001
0000
0000
0000
,  // measure 2
1000
0000
0000
0000
,  // measure 3
0001
0000
0000
0000
,  // measure 4
1000
0000
0000
0000
,  // measure 5
0020
0000
0000
0000
,  // measure 6
0000
0000
0030
0000
,  // measure 7
0100
0000
0000
0000
,  // measure 8
0001
0000
0000
0000
,  // measure 9
1000
0000
0000
0000
,  // measure 10
0100
0000
0000
0000
,  // measure 11
1000
0000
0000
0000
,  // measure 12
1000
0000
0000
0000
,  // measure 13
0001
0000
0000
0000
,  // measure 14
0001
0000
0000
0000
,  // measure 15
0100
0000
0000
0001
,  // measure 16
0000
1000
0000
0100
,  // measure 17
0020
0000
0000
0000
,  // measure 18
0000
0000
0000
0030
,  // measure 19
0100
0100
0000
0000
,  // measure 20
0000
0000
0000
1000
,  // measure 21
0001
0001
0000
0000
,  // measure 22
0000
0000
0000
0000
,  // measure 23
0100
0001
0000
0000
,  // measure 24
0000
0000
0000
0000
,  // measure 25
0100
0001
0000
0000
,  // measure 26
0001
0100
0000
0000
,  // measure 27
0020
0000
0000
0030
,  // measure 28
0100
0000
0000
0000
,  // measure 29
0001
0000
0000
0000
,  // measure 30
1000
0000
0000
0000
,  // measure 31
0001
0000
0000
0000
,  // measure 32
0100
0000
0100
0000
,  // measure 33
0001
0000
0000
0000
,  // measure 34
1000
0000
1000
0000
,  // measure 35
0010
0000
0000
0000
,  // measure 36
1001
0000
0000
0000
,  // measure 37
0001
0000
0000
0000
,  // measure 38
0100
0000
0000
0000
,  // measure 39
0001
0000
0000
0000
,  // measure 40
1000
0000
0000
0000
,  // measure 41
0010
0000
0000
0000
,  // measure 42
1000
0000
0001
0000
,  // measure 43
0100
0000
0010
0000
,  // measure 44
0110
0000
0000
0000
,  // measure 45
0000
0000
0000
0000
,  // measure 46
0000
0000
0000
0000
,  // measure 47
0000
0000
0000
0000
,  // measure 48
0100
0000
0000
0000
,  // measure 49
0000
0000
0000
0010
,  // measure 50
0010
0000
0010
0000
,  // measure 51
0000
0000
0000
0000
,  // measure 52
0000
0000
0000
0000
,  // measure 53
0000
0000
0000
0000
,  // measure 54
0000
0000
0000
0000
,  // measure 55
0000
0000
0000
0000
,  // measure 56
1001
0000
0000
0000
,  // measure 57
0001
0000
0000
0000
,  // measure 58
1000
0000
0000
0000
,  // measure 59
0010
0000
0010
0000
,  // measure 60
0100
0000
0000
0000
,  // measure 61
0001
0000
1000
0000
,  // measure 62
0010
0000
0100
0000
,  // measure 63
1001
0000
0000
0000
,  // measure 64
1001
0000
0000
0000
,  // measure 65
0001
0000
0000
0000
,  // measure 66
0100
0000
0000
0000
,  // measure 67
0001
0000
0000
0000
,  // measure 68
1000
0000
1000
0000
,  // measure 69
0001
0000
0001
0000
,  // measure 70
0100
0000
0100
0000
,  // measure 71
0010
0000
0010
0000
,  // measure 72
0010
0000
0200
0000
,  // measure 73
0000
0000
0300
0000
;
