#TITLE:Clarity feat. Foxes;
#SUBTITLE:(DJ Noriken Remix);
#ARTIST:Zedd;
#TITLETRANSLIT:;
#SUBTITLETRANSLIT:;
#ARTISTTRANSLIT:;
#CREDIT:;
#BANNER:Clarity feat. Foxes (DJ Noriken Remix).png;
#BACKGROUND:Clarity feat. Foxes (DJ Noriken Remix)-background.png;
#JACKET:Clarity feat. Foxes (DJ Noriken Remix)-jacket.png;
#LYRICSPATH:;
#CDTITLE:;
#MUSIC:Clarity feat. Foxes (DJ Noriken Remix).mp3;
#OFFSET:-13.745;
#SAMPLESTART:109.720;
#SAMPLELENGTH:12.000;
#SELECTABLE:YES;
#BPMS:0.000=140.000;
#STOPS:;
#BGCHANGES:;

//---------------dance-single - ----------------
#NOTES:
     dance-single:
     :
     Hard:
     7:
     0.418,0.429,0.284,0.213,0.000: // measure 1
1100
0100
0010
0001
,  // measure 2
0100
0000
1000
0000
0100
0000
0010
1000
,  // measure 3
0010
0100
0001
1000
,  // measure 4
0100
0000
1000
0000
0001
0100
0010
0100
,  // measure 5
0001
1000
0100
1000
,  // measure 6
0010
0000
0100
0000
0001
0000
0010
0100
,  // measure 7
0010
0001
0100
0010
,  // measure 8
2002
0000
0000
0000
0000
3000
0003
0000
,  // measure 9
0101
0000
0001
0000
0100
0000
0010
1000
,  // measure 10
0001
0000
0010
0000
0010
0000
0001
0100
,  // measure 11
1000
0000
0100
0000
0010
0000
1000
0010
,  // measure 12
0000
0000
0000
0000
0100
0001
1000
0010
,  // measure 13
1010
0000
1000
0000
0100
0000
1000
0001
,  // measure 14
0100
0000
0100
0000
0001
0000
0010
0001
,  // measure 15
0100
0000
0010
0000
0100
0000
0010
1000
,  // measure 16
0001
0010
0100
1000
0100
0010
0001
0010
,  // measure 17
0011
0000
0010
0000
0100
0000
0100
1000
,  // measure 18
0010
0000
0100
0000
0010
0000
1000
0010
,  // measure 19
1000
0000
0100
0000
0010
0000
0100
1000
,  // measure 20
0001
0000
0000
0000
1000
0100
0010
0001
,  // measure 21
0010
0000
0100
0000
0100
0000
1000
0010
,  // measure 22
0100
0000
0100
0000
0100
0000
0001
1000
,  // measure 23
0100
0000
0100
0000
0100
0000
0010
0001
,  // measure 24
1000
0100
0010
0100
1000
0100
0010
0001
,  // measure 25
1000
0000
0101
0000
1010
0000
0010
0100
,  // measure 26
0110
2001
0200
0000
,  // measure 27
3300
0000
1001
0000
1010
0000
1000
0010
,  // measure 28
0110
0201
0020
0000
,  // measure 29
0330
0000
0101
0000
1010
0000
0010
0100
,  // measure 30
0101
1002
0200
0000
,  // measure 31
0303
0000
1001
0000
1010
0000
0010
0100
,  // measure 32
0101
1100
0011
1010
,  // measure 33
1001
0000
0001
1000
0010
0001
0010
2000
,  // measure 34
0000
0000
0000
3100
,  // measure 35
1100
0100
0100
0000
0010
0000
0001
0000
,  // measure 36
0100
0000
1000
0000
0100
0010
1000
0000
,  // measure 37
1001
0000
0001
0000
1000
0000
0010
0100
,  // measure 38
0101
0000
0000
1001
,  // measure 39
0001
0001
1000
0000
0110
0000
1001
0000
,  // measure 40
0110
0000
1001
0000
0110
0100
0001
0000
,  // measure 41
0001
1000
0100
0000
0010
0001
0000
0010
,  // measure 42
0100
0000
0100
1000
0000
1000
0001
0010
,  // measure 43
0100
0010
0001
0000
0002
0000
0203
0000
,  // measure 44
2300
0000
3200
0000
0310
1000
0100
0000
,  // measure 45
1000
0001
0100
0000
0100
0010
0000
0010
,  // measure 46
1000
0000
1000
0100
0000
1000
0010
0100
,  // measure 47
0001
1000
0010
0000
0200
0000
0302
0000
,  // measure 48
0023
0000
0032
0000
1003
0001
0100
0000
,  // measure 49
0101
0001
0010
0000
0010
0100
0000
0100
,  // measure 50
1000
0000
1000
0001
0000
0001
0100
0010
,  // measure 51
0100
0001
0010
0000
0200
0000
1300
0000
,  // measure 52
0200
0000
0310
0000
0100
0010
0001
0000
,  // measure 53
0001
1000
0010
0000
0010
0100
0001
0000
,  // measure 54
0001
0010
0100
0000
0100
1000
0010
0000
,  // measure 55
0100
0010
1000
0001
,  // measure 56
0200
0000
0000
0300
,  // measure 57
0110
0000
0010
0000
1000
0001
1000
0020
,  // measure 58
0000
0000
0000
1030
,  // measure 59
1000
0100
0010
0001
0010
0100
1000
0100
,  // measure 60
0010
0001
0010
0100
1000
0100
0010
0000
,  // measure 61
0110
0000
0100
0000
0100
1000
0002
0200
,  // measure 62
0000
0000
0000
0000
0000
0303
0001
0000
,  // measure 63
0001
0100
1000
0100
0010
1000
0001
0010
,  // measure 64
0200
0000
2300
0000
3001
0200
0020
0000
,  // measure 65
0330
0000
0000
0000
;

//---------------dance-single - ----------------
#NOTES:
     dance-single:
     :
     Medium:
     5:
     0.347,0.404,0.323,0.071,0.000:
1001
0001
1000
0100
,
1000
0000
0001
0000
0100
0000
0001
0100
,
0001
0100
0010
0010
,
0100
0000
0001
0000
1000
0100
0010
0001
,
0010
0100
0010
0001
,
1000
0000
0010
0000
0100
0000
0001
0100
,
0001
0100
0010
1000
,
0101
0000
0000
0000
,
1001
0000
0001
0000
1000
0000
0100
0010
,
0001
0000
0010
0000
0001
0000
0100
0010
,
1000
0000
0001
0000
0010
0000
0001
0100
,
0000
0000
0000
0000
0010
0100
0010
0100
,
0010
0000
0100
0000
0001
0000
1000
0100
,
0010
0000
0100
0000
1000
0000
0010
0100
,
0001
0000
1000
0000
0010
0000
0100
0001
,
0010
0000
0000
0000
,
0110
0000
0100
0000
1000
0000
0001
0100
,
0010
0000
0010
0000
0100
0000
0001
1000
,
0100
0000
1000
0000
0100
0000
0100
1000
,
0100
0000
0000
0000
0100
0010
0001
0010
,
0100
0000
1000
0000
0001
0000
0100
0001
,
0010
0000
0001
0000
0100
0000
0100
0010
,
0100
0000
0001
0000
1000
0000
0100
0010
,
0001
0000
0000
0000
,
1000
0000
0001
0000
0100
0000
0001
0100
,
0010
0010
0200
0000
,
0300
0000
0001
0000
1000
0000
0000
0100
,
1000
0100
0020
0000
,
0030
0000
0100
0000
1000
0000
0000
0001
,
0100
0010
2000
0000
,
3000
0000
1000
0000
0100
0000
1000
0001
,
0100
0001
0020
0030
,
0100
0000
1000
0000
0100
0010
0001
2000
,
0000
0000
0000
3001
,
1001
0010
0110
0100
,
1001
0110
1001
0110
,
1001
0000
0001
0000
1000
0000
0100
0010
,
0001
0010
0100
1000
,
1001
0010
0110
0100
,
1001
0110
1001
0110
,
0001
0100
1000
0100
,
0001
0100
1000
0100
,
0010
0100
0101
0101
,
1010
1010
0110
0110
,
0100
0001
1000
0100
,
1000
0100
0001
0100
,
1000
0010
0110
0101
,
0011
0110
1100
0110
,
0010
0010
0100
0100
,
1000
1000
0001
0001
,
1000
0010
0110
0110
,
1001
1001
0110
0110
,
0001
1000
0100
1000
,
0001
0100
0001
1000
,
0100
0010
0001
0010
,
0200
0000
0000
0300
,
0110
0000
0010
0000
0001
0100
1000
0200
,
0000
0000
0000
0000
0000
0300
0010
0000
,
0100
0100
0001
0000
1000
0000
0100
0000
,
1000
0000
0001
0000
0100
0010
1000
0000
,
1010
0000
0010
0000
0100
0001
0010
0200
,
0000
0000
0000
0000
0000
0300
0010
0000
,
0100
1000
1000
0000
1100
0000
0011
0000
,
0101
0000
1010
0000
0010
0100
0002
0000
,
0003
0000
0000
0000
;

//---------------dance-single - ----------------
#NOTES:
     dance-single:
     :
     Easy:
     3:
     0.237,0.353,0.110,0.158,0.000:
1000
0000
0001
0000
,
1000
0000
0100
0010
,
0001
0000
0010
0000
,
0001
0000
0100
0110
,
0010
0000
0100
0000
,
0001
0000
1000
0000
,
0100
0000
0010
0000
,
0200
0000
0000
0300
,
0000
1000
0100
1000
,
0010
0010
1000
0001
,
0010
0010
0001
0100
,
0001
0000
0000
0000
,
0000
1000
0001
0100
,
0001
0001
0001
1000
,
0010
0010
0100
0001
,
1000
0000
0000
0000
,
0000
1000
0001
0100
,
0001
0001
0001
0010
,
0100
0100
1000
0010
,
0100
0000
0000
0000
,
0000
0100
0001
1000
,
1000
0001
0001
0100
,
0001
0001
0010
0100
,
2000
0000
0000
3000
,
0000
1000
0100
0000
,
1000
0010
0200
0000
,
0300
0001
0001
0000
,
1000
0001
0020
0000
,
0030
0100
1000
0000
,
0100
0010
0002
0000
,
0003
0010
0100
1000
,
0001
0100
0002
0000
,
0003
1000
0001
0200
,
0020
0000
0330
0010
,
0100
0100
0001
1000
,
0100
0010
0001
0001
,
0000
0001
0100
0010
,
2000
0000
0000
3010
,
0100
0010
1000
0001
,
0010
0100
1000
1000
,
0001
0200
0000
0000
,
0000
0000
0000
0310
,
1000
0200
0000
0000
,
0000
0000
0310
0001
,
0020
0000
0000
0000
,
0000
0000
0000
0130
,
1000
0002
0000
0000
,
0000
0000
0000
0003
,
1000
0001
1000
0001
,
1000
0010
0100
0010
,
0000
0000
0110
0110
,
1001
0110
1001
1001
,
1000
0100
1000
0001
,
0100
0001
0100
0010
,
0100
0000
0001
0000
,
2000
0000
0000
3000
,
1000
0100
0020
0032
,
0020
0000
0033
0001
,
0101
0001
0100
0010
,
1000
0000
0001
0000
0010
0100
0010
0000
,
0100
0000
1000
0000
0010
0000
0100
0001
,
0200
0000
0000
0310
,
0110
0000
1001
0000
,
0110
1001
0110
2002
,
3003
0000
0000
0000
;

//---------------dance-single - ----------------
#NOTES:
     dance-single:
     :
     Beginner:
     1:
     0.127,0.277,0.103,0.000,0.000:
0010
0000
0000
0000
,
0000
0000
0000
0000
,
0100
0000
0000
0000
,
0000
0000
0000
0001
,
0001
0000
0000
0000
,
0000
0000
0000
0000
,
1000
0000
0000
0000
,
0110
0000
0000
0000
,
1001
0000
0000
0000
,
1000
1000
1000
0000
,
0001
0000
0100
0000
,
0010
0000
0000
0000
,
0100
0000
0000
0000
,
0010
0010
0010
0000
,
1000
0000
0001
0000
,
0100
0000
0000
0000
,
1001
0000
0000
0000
,
0001
0000
0000
0000
,
1000
0000
1000
0000
,
1000
0000
0000
0000
,
0010
0000
0000
0000
,
0100
0100
0100
0000
,
0010
0000
0000
0000
,
0100
0000
0000
0000
,
0000
0001
0001
0000
,
1000
1000
1000
0000
,
0000
0010
0010
0000
,
0100
0100
0100
0000
,
0000
0001
0001
0000
,
1000
1000
1000
0000
,
0010
0000
0100
0000
,
0001
0001
0001
0000
,
1001
0000
0000
0000
,
0000
0000
0000
0000
,
0010
0000
0000
0000
,
0100
0000
0010
0000
,
1001
0000
0000
0000
,
0010
0000
0000
0000
,
0010
0000
0010
0000
,
1001
1001
1001
1001
,
0010
0000
0000
0000
,
0000
0000
0000
0000
,
0000
0000
0100
0000
,
0001
0000
1000
0000
,
0000
0000
0000
0000
,
0000
0000
0000
0000
,
0000
0000
0100
0000
,
0010
0000
0001
0000
,
1000
0000
0000
0000
,
0000
0000
0000
0001
,
0001
0000
0100
0000
,
0010
0000
1000
0000
,
1001
0000
0000
0000
,
0010
0000
0000
0000
,
0100
0000
0001
0000
,
1000
0000
0000
0000
,
1001
0000
0001
0000
,
1000
0000
0000
0010
,
0010
0000
0100
0000
,
0001
0001
0001
0001
,
1001
0000
0000
0000
,
0110
0000
0000
0000
,
0010
0000
1000
1000
,
1000
1000
1000
1000
;
