#TITLE:City Lights;
#SUBTITLE:;
#ARTIST:Fantastic Plastic Machine;
#TITLETRANSLIT:;
#SUBTITLETRANSLIT:;
#ARTISTTRANSLIT:;
#CREDIT:;
#BANNER:citylightsbn.png;
#BACKGROUND:citylightsbg.png;
#LYRICSPATH:;
#CDTITLE:cdtitle.png;
#MUSIC:City Lights.mp3;
#OFFSET:-0.005;
#SAMPLESTART:46.340;
#SAMPLELENGTH:12.000;
#SELECTABLE:YES;
#BPMS:0.000=124.020;
#STOPS:;
#BGCHANGES:;

//---------------dance-single - ----------------
#NOTES:
     dance-single:
     :
     Hard:
     7:
     0.345,0.406,0.039,0.180,0.055: // measure 1
0000
0000
0000
0000
,  // measure 2
0000
0000
0000
0000
,  // measure 3
0000
0000
0000
0000
,  // measure 4
0000
0000
0000
0000
,  // measure 5
1000
0000
0000
0000
,  // measure 6
0010
0000
0000
0000
,  // measure 7
0100
0000
0000
0000
,  // measure 8
0001
0000
0100
1001
,  // measure 9
0001
0100
0010
1000
0001
0010
0100
0010
,  // measure 10
0100
0010
0001
0000
1000
0001
0100
0000
,  // measure 11
0001
1000
0010
0000
1000
1000
0001
0000
,  // measure 12
0001
0010
0100
0000
0100
1000
0010
0000
,  // measure 13
0100
0001
1000
0100
0010
0100
1000
0010
,  // measure 14
0100
0001
1000
0000
1000
0001
0100
0000
,  // measure 15
0001
1000
0100
0000
0010
0001
0100
0000
,  // measure 16
0010
1000
0001
0010
0001
0100
1000
0000
,  // measure 17
0010
0010
0100
0001
1000
1000
0100
0100
,  // measure 18
0010
0001
0100
0001
1000
0100
1000
0000
,  // measure 19
1000
1000
0001
0100
0001
0001
0010
0100
,  // measure 20
0010
0010
0100
1000
0010
0000
0100
0000
,  // measure 21
0001
0100
0000
0001
0000
1000
0100
0010
,  // measure 22
0001
0000
0000
0010
0000
0000
0000
0000
0100
0000
1000
0000
0001
0000
0100
0000
,  // measure 23
0001
0000
0000
1000
0000
0000
0000
0000
0100
0000
0010
0000
0001
0000
0000
0000
,  // measure 24
0001
1000
0100
1000
0001
0100
0001
0010
,  // measure 25
0100
0000
0000
1000
0000
0000
0002
0000
0000
0000
0000
0000
0003
0000
1000
0000
,  // measure 26
0020
0130
0020
1030
,  // measure 27
0002
0023
0230
2300
,  // measure 28
3200
0000
0000
0300
,  // measure 29
0100
0000
0000
1000
0000
0000
0020
0000
0000
0000
0000
0000
0030
0000
0100
0000
,  // measure 30
0002
1003
0020
1030
,  // measure 31
0002
0023
0230
0320
,  // measure 32
0032
0000
0000
0003
,  // measure 33
1000
0000
0001
0000
0100
0000
1000
0000
0100
0000
0000
0100
0000
0000
0010
0000
,  // measure 34
2000
3020
0200
0330
,  // measure 35
0100
0000
0001
0000
1000
0000
0100
0000
1000
0000
0000
0010
0000
0000
0100
0000
,  // measure 36
0000
0000
0001
0000
0010
0000
0100
0000
0010
0000
0000
0010
0000
0000
0000
0000
,  // measure 37
0100
0000
1000
0000
0001
0000
1000
0000
0001
0000
0000
0010
0000
0000
0000
0000
,  // measure 38
0000
0000
0100
0000
0010
0000
0100
0000
0010
0000
0000
0100
0000
0000
0000
0000
,  // measure 39
0000
0000
0100
0000
1000
0000
0100
0000
1000
0000
0000
0100
0000
0000
0000
0000
,  // measure 40
0000
0010
0100
1000
0002
0000
0003
0000
,  // measure 41
1001
1000
0001
0101
,  // measure 42
1001
0001
0010
0100
,  // measure 43
1100
0000
0010
0000
0001
0000
0100
0010
,  // measure 44
0010
0000
0100
0001
0001
0000
1000
0100
,  // measure 45
0010
0100
0010
0000
0000
0000
0000
0100
,  // measure 46
1000
0001
1000
0000
0000
0000
0000
0001
,  // measure 47
0100
0010
0010
0000
0000
0000
0000
0100
,  // measure 48
0001
1000
0100
0001
,  // measure 49
0100
0000
0000
0000
0100
0000
1000
0000
0001
0000
0000
0001
0000
0000
0100
0000
,  // measure 50
0000
0000
0000
0000
0010
0000
1000
0000
0001
0000
0000
0010
0000
0000
0010
0000
,  // measure 51
0200
0000
0000
0000
1000
0000
0000
0010
,  // measure 52
0310
0000
0010
0001
0001
0000
0001
1000
,  // measure 53
1000
0000
0000
0000
0010
0000
0100
0000
0001
0000
0000
0001
0000
0000
1000
0000
,  // measure 54
0000
0000
0000
0000
1000
0000
0001
0000
0100
0000
0000
0001
0000
0000
0010
0000
,  // measure 55
0200
0000
0000
0000
0010
0000
0000
1000
,  // measure 56
1300
0100
0010
0001
0010
0100
1000
0100
,  // measure 57
0010
0000
0100
1000
,  // measure 58
0100
0000
1000
0001
,  // measure 59
0100
0000
0000
0000
,  // measure 60
0001
0100
1000
0010
,  // measure 61
0100
0000
0001
1000
,  // measure 62
0100
0000
1000
0001
,  // measure 63
0100
0000
0000
0000
,  // measure 64
0001
0010
0100
1000
,  // measure 65
0200
0000
0000
0000
,  // measure 66
0300
0000
0000
0000
;

//---------------dance-single - ----------------
#NOTES:
     dance-single:
     :
     Medium:
     5:
     0.276,0.330,0.078,0.117,0.000: // measure 1
0000
0000
0000
0000
,  // measure 2
0000
0000
0000
0000
,  // measure 3
0000
0000
0000
0000
,  // measure 4
0000
0000
0000
0000
,  // measure 5
1000
0000
0000
0000
,  // measure 6
0010
0000
0000
0000
,  // measure 7
0100
0000
0000
0000
,  // measure 8
0001
0000
0000
1001
,  // measure 9
0001
0000
0100
0000
0010
0100
0010
0000
,  // measure 10
0100
0000
0001
0000
1000
0100
1000
0000
,  // measure 11
0100
0000
0010
0000
0001
0010
0001
0000
,  // measure 12
0010
0000
0100
0000
1000
0001
1001
0000
,  // measure 13
0001
0100
0001
0000
0100
0000
0010
0000
,  // measure 14
0100
0010
1000
0000
0001
0000
0010
0000
,  // measure 15
0001
0100
0010
0000
0100
0000
0001
0000
,  // measure 16
0001
0010
0100
0000
0100
1000
0010
0000
,  // measure 17
0100
0001
0100
0000
0001
0100
0001
0000
,  // measure 18
0100
0000
0010
0000
1000
1000
0010
0000
,  // measure 19
0100
0010
0100
0000
0010
0100
0010
0000
,  // measure 20
0100
0001
1001
0110
,  // measure 21
0010
0100
0100
0000
0010
0000
1000
0000
,  // measure 22
0001
0010
0100
0000
0010
0000
0001
0000
,  // measure 23
1000
0010
0100
0000
0001
0000
0100
0000
,  // measure 24
1000
0100
0010
0000
0100
0010
1000
0000
,  // measure 25
0001
0010
0200
0000
,  // measure 26
1300
0100
0001
0100
,  // measure 27
1000
0010
0001
0010
,  // measure 28
0200
0000
0000
0300
,  // measure 29
0010
1000
0002
1003
,  // measure 30
2000
3100
2000
3001
,  // measure 31
0001
0100
1000
0100
,  // measure 32
0020
0000
0000
0030
,  // measure 33
0100
0001
0100
0001
0100
0000
0010
0000
,  // measure 34
0110
0110
0110
0000
,  // measure 35
0010
1000
0010
1000
0010
0000
1000
0000
,  // measure 36
0001
0000
0100
0000
0001
0010
0100
0000
,  // measure 37
1000
0100
0010
0100
0020
0000
0030
0000
,  // measure 38
0000
0010
0001
0100
0020
0000
0030
0000
,  // measure 39
0000
0100
0010
1000
0002
0000
0003
0000
,  // measure 40
0000
1000
0100
0010
0002
0000
0000
0000
,  // measure 41
1003
0000
0000
0001
,  // measure 42
0100
0000
0010
1000
,  // measure 43
0100
0000
0000
0000
0000
0000
0000
0010
,  // measure 44
0100
0000
0000
0100
1000
0000
0000
0001
,  // measure 45
0100
0000
0000
0010
,  // measure 46
1000
0000
1000
0100
,  // measure 47
0010
0000
0000
0000
0000
0000
0000
0001
,  // measure 48
0001
1000
0100
1000
,  // measure 49
0010
0000
0100
0001
0100
0000
0010
0000
,  // measure 50
1000
0000
0010
0100
0010
0000
2000
0000
,  // measure 51
0002
0000
0000
3003
,  // measure 52
1001
0000
0110
0000
,  // measure 53
0010
1000
0010
0001
,  // measure 54
0010
0100
0001
1000
,  // measure 55
0220
0000
0000
0330
,  // measure 56
0100
0100
0001
0001
,  // measure 57
1000
0001
1000
0000
0000
0000
0000
0000
,  // measure 58
1000
0001
1000
0000
0000
0000
0000
0000
,  // measure 59
0010
0100
0010
0000
0000
0000
0000
0000
,  // measure 60
0100
0010
0100
0000
0000
0000
0000
0000
,  // measure 61
0010
0000
1000
0100
,  // measure 62
0010
0000
0010
0100
,  // measure 63
1000
0000
0000
0000
,  // measure 64
0001
0010
0100
1000
,  // measure 65
0002
0000
0000
0000
,  // measure 66
0003
0000
0000
0000
;

//---------------dance-single - ----------------
#NOTES:
     dance-single:
     :
     Easy:
     3:
     0.210,0.254,0.055,0.117,0.000: // measure 1
0000
0000
0000
0000
,  // measure 2
0000
0000
0000
0000
,  // measure 3
0000
0000
0000
0000
,  // measure 4
0000
0000
0000
0000
,  // measure 5
1000
0000
0000
0000
,  // measure 6
0001
0000
0000
0000
,  // measure 7
0100
0000
0000
0000
,  // measure 8
0001
0000
0000
0000
,  // measure 9
1000
0001
1000
1000
,  // measure 10
0001
1000
0001
0001
,  // measure 11
0100
0010
0100
0100
,  // measure 12
0010
0000
0010
0000
,  // measure 13
1000
0000
0001
0010
,  // measure 14
0100
0000
0010
0001
,  // measure 15
1000
0000
1000
0000
,  // measure 16
0001
0100
0100
0001
,  // measure 17
1000
1000
0001
1000
,  // measure 18
1000
0001
1000
1001
,  // measure 19
0010
0100
0010
0010
,  // measure 20
0100
0010
0010
0100
,  // measure 21
0001
0000
1000
0000
,  // measure 22
0010
1000
0100
0100
,  // measure 23
1000
0000
0001
0000
,  // measure 24
0100
0001
1000
0100
,  // measure 25
0010
0010
0020
0030
,  // measure 26
0001
1000
0100
1000
,  // measure 27
0001
0010
0100
2000
,  // measure 28
0200
0000
0000
3300
,  // measure 29
1000
1000
0001
0000
,  // measure 30
1000
0010
0100
0010
,  // measure 31
1000
0001
0010
0200
,  // measure 32
0020
0000
0000
0330
,  // measure 33
0100
0000
1000
0000
,  // measure 34
1001
1001
1001
0000
,  // measure 35
0001
0000
0100
0000
,  // measure 36
0110
0110
0110
0000
,  // measure 37
0100
0001
2000
3000
,  // measure 38
1000
0001
0020
0030
,  // measure 39
0001
1000
0200
0300
,  // measure 40
1000
0010
0200
0300
,  // measure 41
0001
0000
0000
1000
,  // measure 42
0100
0000
1000
1000
,  // measure 43
0001
0000
0000
0000
,  // measure 44
0100
0000
0010
0000
,  // measure 45
1000
0000
1000
0100
,  // measure 46
0010
0000
0100
0100
,  // measure 47
0010
0000
0000
0000
,  // measure 48
0001
0000
1000
0000
,  // measure 49
0001
1000
0020
0000
,  // measure 50
0030
0100
0001
2000
,  // measure 51
0020
0000
0000
3030
,  // measure 52
0010
0100
0001
1000
,  // measure 53
0100
0100
0000
0010
,  // measure 54
0001
1000
0000
1000
,  // measure 55
0002
0000
0000
0003
,  // measure 56
0100
0001
0010
0100
,  // measure 57
1000
0000
0001
1000
,  // measure 58
1000
0000
1000
0001
,  // measure 59
0100
0000
0000
0000
,  // measure 60
0100
0001
0100
1000
,  // measure 61
0100
0000
0100
0010
,  // measure 62
1000
0000
1000
0010
,  // measure 63
0200
0000
0000
0300
,  // measure 64
0001
0010
0100
1000
,  // measure 65
0002
0000
0000
0000
,  // measure 66
0003
0000
0000
0000
;

//---------------dance-single - ----------------
#NOTES:
     dance-single:
     :
     Challenge:
     8:
     0.441,0.609,0.226,0.469,0.211:
0000
0000
0000
0000
,
0000
0000
0000
0000
,
0000
0000
0000
0000
,
0000
0000
0000
0000
,
1000
0000
0000
0000
,
0010
0000
0000
0000
,
1000
0000
0000
0000
,
0100
0000
0000
0000
0000
0000
0000
0000
0000
0000
0000
0000
0000
0000
0000
0000
1000
0000
0000
0001
0000
0000
0000
0000
1001
0000
0000
0000
0000
0000
0000
0000
,
0001
0000
0100
0010
0000
0000
0010
0000
1000
0000
0001
0000
0100
0000
0001
0000
,
0010
0000
0010
0100
0000
0000
0000
0100
1000
0000
0001
0000
1000
0000
0100
0000
,
0010
0000
0100
1000
0000
0000
0000
0000
1000
0000
0001
0000
0100
0000
0000
0000
,
0001
0000
0100
0000
0000
0010
0000
0000
1000
0000
0000
0001
0100
0000
0010
0000
,
1000
0000
0001
0010
0000
0000
0100
1000
0000
0000
0100
0000
0010
0000
0001
0000
,
1000
0000
0001
0100
0000
0000
0000
0100
0010
0000
0100
0000
0001
0000
1000
0000
,
0100
0000
0010
0001
0000
0000
0000
0000
0001
0000
0010
0000
0100
0000
0010
0000
,
0001
0000
0100
0000
0000
0010
0000
0000
1000
0000
0000
0001
0100
0000
0010
0000
,
0100
1000
0100
0010
1000
0001
0010
0100
,
0010
0000
0001
0000
0100
0000
0010
0000
1000
0000
0001
0100
0000
0000
0000
0000
,
0001
1000
0010
1000
0010
0100
0001
0010
,
0100
0010
0001
1000
0101
0000
1100
0000
,
1000
0000
0100
1000
0000
0000
0100
1000
0000
1000
0100
0000
0100
0000
0010
0000
,
0001
0000
0010
0001
0000
0000
0000
0001
0100
0000
0010
0000
0100
0000
0010
0000
,
1000
0000
0001
0100
0000
0000
0000
0001
0100
0000
0010
0000
1000
0000
0010
0000
,
0100
0000
0010
0100
0000
0001
1000
0000
0010
0100
0000
0001
1000
0000
0001
0000
,
0020
0000
0000
0200
0000
0030
2000
0000
0000
0000
0000
0000
0300
0000
3002
0000
,
2003
3200
2300
3200
,
0302
0203
2300
3020
,
0230
0000
0000
0000
,
0320
0000
0000
2030
0000
0000
3002
0000
0000
0000
0000
0000
0000
0000
2003
0000
,
3200
0320
0032
0023
,
0032
0203
2300
3020
,
0032
0000
0000
0000
0000
0000
0000
0000
0000
0000
0000
0000
0000
0000
0000
0000
0000
0000
0000
0000
0000
0000
0000
0000
0000
0000
0000
0000
0000
0000
0000
0000
0000
0000
0000
0000
0000
0000
0000
0000
0000
0000
0000
0000
0000
0000
0000
0000
0000
0000
0000
0000
0000
0000
0000
0000
0000
0000
0000
0000
0000
0000
0000
0000
0000
0000
0000
0000
0000
0000
0000
0000
0000
0000
0000
0000
0000
0000
0000
0000
0000
0000
0000
0000
0000
0000
0000
0000
0000
0000
0000
0000
0000
0000
0000
0000
0000
0000
0000
0000
0000
0000
0000
0000
0000
0000
0000
0000
0000
0000
0000
0000
0000
0000
0000
0000
0000
0000
0000
0000
0000
0000
0000
0000
0000
0000
0000
0000
0000
0000
0000
0000
0000
0000
0000
0000
0000
0000
0000
0000
0000
0000
0000
0000
0000
0000
0000
0000
0000
0000
0000
0000
0000
0000
0000
0000
0000
0000
0000
0000
0000
0000
0000
0000
0000
0000
0000
0000
0000
0003
0000
0000
0000
0000
0000
0000
0000
0000
0000
0000
0000
0000
0000
0000
0000
0000
0000
0000
0000
0000
0000
0000
,
0001
0000
0100
0000
1000
0000
0100
0000
0010
0000
0000
0010
0000
0000
0100
0000
,
0002
0203
0020
0330
,
0100
0000
0001
0000
1000
0000
0100
0000
1100
0000
0000
1100
0000
0000
1001
0000
,
0000
0000
0001
0000
0100
0000
0010
0000
1010
0000
0000
0101
0000
0000
0000
0000
,
0001
0000
0010
0100
0010
0100
0010
0100
1000
0000
0000
0011
0000
0000
0000
0000
,
0000
0000
0001
0100
0001
0100
0001
0100
0001
0000
0000
1010
0000
0000
0000
0000
,
0000
0000
0010
0100
0001
1000
0100
0010
0001
0000
0000
1100
0000
0000
0000
0000
,
0000
0000
1000
0001
0100
0010
1000
0100
2000
0000
0000
0000
0000
0000
0000
0000
,
3001
0000
0100
0000
0100
0000
0000
0000
0000
0000
0000
0000
0010
1000
0010
1000
,
0010
0100
0100
0000
0000
0000
0000
0000
,
0001
1000
1000
0000
0000
0000
0000
1100
,
0011
0000
0000
0011
1100
0000
1001
0000
,
0001
0000
0010
0000
0010
0000
0000
0000
0000
0000
0000
0000
0010
0100
0010
0100
,
0010
0100
0100
0000
0000
0000
0000
0000
,
1000
0100
0100
0000
0000
0000
0000
1100
,
0110
0110
0011
0110
,
0021
0000
0000
0000
0002
0030
2000
0003
0200
0000
3000
0020
0000
0300
2000
0000
,
0000
0000
0000
0030
3002
0000
0200
0003
0320
0000
0000
0002
0000
0030
0020
0003
,
2030
0000
0000
0000
0000
0000
0000
0001
,
3002
0000
0000
0100
0103
0000
0110
0000
,
0102
0000
0000
0000
0200
0003
0320
0000
2000
0000
0030
0002
0000
3000
0020
0000
,
0000
0000
0003
0000
0002
0030
2000
0003
0200
0000
3000
0320
0000
0000
0002
0030
,
2000
0000
0000
0000
0000
0000
0000
3003
,
0001
0010
0100
1000
0001
0010
0100
1000
,
0002
0000
0100
0100
,
0100
0000
0010
0010
,
2000
0000
0000
3003
,
0101
1001
1100
1001
,
2001
0000
0100
0100
,
0010
0000
0001
0001
,
0002
0000
0000
3003
,
0001
0100
1000
0010
,
0002
0000
0000
0000
,
0003
0000
0000
0000
;

//---------------dance-single - ----------------
#NOTES:
     dance-single:
     :
     Beginner:
     1:
     0.098,0.150,0.008,0.016,0.000:
0000
0000
0000
0000
,
0000
0000
0000
0000
,
0000
0000
0000
0000
,
0000
0000
0000
0000
,
1000
0000
0000
0000
,
0001
0000
0000
0000
,
0100
0000
0000
0000
,
0001
0000
0000
0000
,
1001
0000
0000
0000
,
0010
0000
0000
0000
,
0100
0000
0000
0000
,
0001
0000
0001
0000
,
0100
0000
0000
0000
,
0010
0000
0000
0000
,
1000
0000
0000
0000
,
0100
0000
0000
0000
,
1000
0000
0000
0000
,
0001
0000
0000
0000
,
0100
0000
0000
0000
,
0001
0000
1000
1000
,
0100
0000
0000
0000
,
1000
0000
0000
0000
,
0010
0000
0000
0000
,
0100
0000
0000
0000
,
0001
0000
0000
0000
,
1000
0000
0000
0000
,
0100
0000
0000
0000
,
1000
0000
0000
0000
,
0001
0000
0000
0000
,
0100
0000
0000
0000
,
0001
0000
0000
0000
,
1000
0000
0000
0000
,
1000
0000
0001
0000
,
0100
0100
0100
0000
,
0001
0000
1000
0000
,
0010
0010
0010
0000
,
0000
0100
0100
0000
,
0000
0001
0001
0000
,
0000
1000
1000
0000
,
0000
0100
0100
0000
,
0010
0000
0000
0001
,
0001
0000
1000
0000
,
0100
0000
0000
0000
,
1000
0000
1000
0000
,
0010
0000
0000
0100
,
0001
0000
0000
0001
,
1000
0000
0000
0000
,
0100
0000
1000
0000
,
0010
0000
0000
0000
,
0100
0000
0001
0000
,
2000
0000
0000
3000
,
0001
0000
1000
0000
,
0001
0000
0000
0000
,
0100
0000
0000
0000
,
0020
0000
0000
0030
,
0000
0000
0000
0000
,
0001
0000
0000
0000
,
0010
0000
0000
0000
,
0100
0000
0000
0000
,
1000
0000
0100
0000
,
0010
0000
0000
0000
,
0001
0000
0000
0000
,
1000
0000
0000
0000
,
1000
1000
0001
0001
,
0100
0000
0000
0000
;
