#TITLE:CROSSROAD;
#SUBTITLE:;
#ARTIST:jun with TAHIRIH;
#TITLETRANSLIT:;
#SUBTITLETRANSLIT:;
#ARTISTTRANSLIT:;
#CREDIT:;
#BANNER:CROSSROAD.png;
#BACKGROUND:CROSSROAD-bg.png;
#JACKET:CROSSROAD-jacket.png;
#LYRICSPATH:;
#CDTITLE:;
#MUSIC:16 - jun with TAHIRIH - CROSSROAD.ogg;
#OFFSET:-6.064;
#SAMPLESTART:48.400;
#SAMPLELENGTH:12.000;
#SELECTABLE:YES;
#BPMS:0.000=170.000;
#STOPS:;
#BGCHANGES:;

//---------------dance-single - ----------------
#NOTES:
     dance-single:
     :
     Hard:
     7:
     0.483,0.568,0.329,0.240,0.049:
0000
0000
0001
0000
0000
0100
0000
0000
0001
0000
0000
0100
0000
0000
0010
0000
,
0000
0000
0000
0000
,
0000
0000
1000
0000
0000
0010
0000
0000
1000
0000
0000
0010
0000
0000
0100
0000
,
0001
0000
0000
0010
0000
0000
0100
0000
1000
0000
0000
0010
0000
0000
0001
0000
,
1001
0000
0001
0100
0000
0100
0010
0000
,
0100
0010
0000
0100
0001
0000
1001
0000
,
1000
0000
0100
0010
0000
0100
1000
0000
,
0100
0010
0000
0100
1000
0000
1001
0000
,
0001
0000
0100
0010
0000
1000
0010
0000
,
0100
0001
1000
0001
0010
0000
1100
0000
,
0100
0000
1000
0010
0000
0100
0010
0000
,
1000
0001
1000
0010
0100
0000
0100
0000
,
1001
0000
0010
0000
0010
0000
0010
0100
,
0101
0100
0010
1000
,
1010
1000
0100
0010
,
0011
0010
0100
1000
,
1001
0001
0100
0010
,
1010
0010
0100
0001
,
0011
0010
0100
1000
,
1100
0000
0110
0000
0011
0000
0000
0001
,
2000
0000
0000
0000
0020
0000
0000
3030
,
0100
0000
0010
1000
0000
0010
0100
0000
,
0010
1000
0000
1000
0010
0000
0110
0000
,
0100
0000
0001
0010
0000
0010
0100
0000
,
0100
0010
0000
0010
0001
0000
1001
0000
,
0001
0100
0010
0000
1000
0000
0010
0000
,
0100
0010
1000
0000
0001
0000
0010
0000
,
0100
0010
0001
0000
1000
0000
0010
0000
,
0100
0010
1000
0001
2000
0000
0000
0000
,
3010
0010
0100
0100
,
2002
0000
0000
3003
0000
0000
0000
0001
,
0100
0000
0010
1000
0000
0000
1000
0100
,
0001
0000
0000
0000
0100
0000
0000
0000
0010
0000
0000
0001
0000
0000
1000
0000
,
0010
0000
0100
0001
1000
0000
0001
0000
,
0201
0310
1020
0130
,
0010
1000
0001
0010
0100
0000
0010
0001
,
1002
0103
2001
3100
,
1000
0100
1000
0001
0100
0001
0010
0100
,
0220
0000
0000
0330
0000
0000
0000
0100
,
1000
0000
1000
0001
0000
0000
1000
0100
,
0010
0000
0000
0000
0010
0000
0000
0000
0100
0000
0000
1000
0000
0000
0001
0000
,
1000
0000
0000
0010
0000
0000
0100
0000
0001
0000
0000
0000
0100
0000
0000
0000
,
0120
1030
1002
1003
,
0001
0010
0100
0010
0001
0000
0100
0010
,
2010
3010
0201
0301
,
1000
0001
0010
0100
1000
0010
0100
0001
,
0010
0100
1000
0001
0000
1000
0000
0010
,
0000
0100
0010
0100
0000
0010
0000
1000
,
0000
0001
0010
0001
0000
0010
0000
0100
,
0000
1000
0100
1000
0000
0010
0000
0100
,
0000
0001
0100
0001
0000
0100
0000
0010
,
0000
1000
0010
1000
0000
0010
0000
0100
,
0000
0010
1000
0001
0000
0010
0000
0100
,
1100
0011
0101
1010
,
2002
0000
0000
3003
,
0001
0000
1000
0000
,
0010
0000
1000
0000
,
0010
0000
0100
0000
,
0001
0000
0010
0100
,
1000
0000
0100
1000
,
0010
0000
0100
0010
,
2000
0000
0002
3003
,
0220
0000
0000
0000
0330
0000
0000
0100
,
0010
0000
0010
1000
0000
0000
0010
0100
,
0001
0000
0000
0000
1000
0000
0000
0000
0100
0000
0000
1000
0000
0000
0010
0000
,
0100
0000
0000
0010
0000
0000
1000
0000
0001
0000
0000
0000
1000
0000
0000
0000
,
0102
0000
0000
0000
0013
0000
0000
0000
0102
0000
0000
0003
1000
0000
0000
0000
,
1000
0100
0010
0100
1000
0000
0010
1000
,
1020
1030
2010
3010
,
1000
0010
0100
0001
0010
0100
1000
0001
,
2002
0000
0000
0000
,
3003
0000
0000
0000
;

//---------------dance-single - ----------------
#NOTES:
     dance-single:
     :
     Medium:
     6:
     0.384,0.442,0.284,0.196,0.036:
0000
0000
0001
0000
0000
1000
0000
0000
0001
0000
0000
1000
0000
0000
0001
0000
,
0000
0000
0000
0000
,
0000
0000
0001
0000
0000
0100
0000
0000
0010
0000
0000
1000
0000
0000
0010
0000
,
2002
0000
0000
0000
0000
0000
0000
3003
,
1001
0000
0000
0000
0000
0000
0000
0001
,
0100
0000
0100
0010
0000
0000
0010
1000
,
0010
0000
0000
0000
0100
0000
0000
0000
0010
0000
0000
1000
0000
0000
0010
0000
,
0100
0000
0000
0010
1000
0000
0000
0000
,
0001
0000
0000
1000
0000
0000
0100
0000
,
0000
1000
0000
0000
0010
0000
0100
0000
,
0001
0000
0000
1000
0000
0000
0100
0000
,
0000
1000
0000
0000
0010
0000
0100
0000
,
1001
0000
0000
0000
,
0110
0000
0010
0100
,
0001
0100
0010
1000
,
1001
0000
0000
0001
0010
0000
0000
0000
,
0100
0000
0100
0000
,
0110
0000
0010
0001
,
1100
0101
0001
1000
,
0010
0000
0100
0001
0100
0000
0010
0100
,
1000
0000
0100
0000
,
0001
1000
0100
1000
,
0010
0100
0001
1000
,
0100
1000
0001
0100
,
0001
0000
0010
0100
1000
0000
0100
0000
,
0010
0000
0001
0100
,
0010
1000
0010
0100
,
0001
1000
0100
1000
,
0010
0000
0100
0000
0001
1000
0010
1000
,
0001
1000
0001
0100
,
2002
0000
3003
0000
0000
0000
0000
0001
,
0100
0000
0001
0100
0000
0000
0001
0100
,
0010
0000
0000
0000
1000
0000
0000
0000
0010
0000
0000
0100
0000
0000
0010
0000
,
2000
0000
0000
3100
0010
0000
0000
0000
,
0200
0300
1000
0001
,
0200
0000
0300
0010
1000
0000
0010
0100
,
0002
0003
1000
0100
,
1100
1100
0101
0101
,
2002
0000
0000
0000
3003
0000
0000
0001
,
0010
0000
0010
0100
0000
0000
0010
0001
,
1000
0000
0000
0000
0010
0000
0000
0000
0100
0000
0000
0010
0000
0000
1000
0000
,
0010
0000
0000
0100
0000
0000
0100
0000
0001
0000
0000
0000
0000
0000
0000
0000
,
0200
0300
0010
1000
,
0002
0000
0003
0010
0100
0000
0010
0001
,
2000
3000
0001
1000
,
0110
0110
1001
1001
,
0101
0000
0000
0000
,
0010
0000
1000
0000
,
0100
0000
1000
0000
,
0010
0100
0001
0000
,
0000
1000
0100
0010
0000
0001
0000
1000
,
0000
0001
0010
0100
0000
1000
0000
0100
,
0000
1000
0010
0100
0000
0010
0000
0100
,
0001
0100
0010
1000
,
2002
0000
3003
0000
,
0001
0000
0000
1000
0000
0000
0010
0000
,
1000
0010
0100
0010
,
1000
0100
0010
0000
,
0002
0000
0013
0100
,
2000
0000
0000
0001
3001
0000
0100
0001
,
0010
0000
0100
0010
,
1001
1001
1001
1001
,
0210
0000
0000
0000
0300
0000
0000
0100
,
0010
0000
0010
1000
0000
0000
1000
0010
,
0100
0010
1000
0100
,
0010
0001
0011
0000
,
0201
0000
0000
0300
0100
0000
0010
0000
,
2000
0000
0000
0001
3001
0000
1000
0100
,
0010
0000
0100
1000
,
1010
0101
0011
1100
,
2002
0000
0000
0000
,
3003
0000
0000
0000
;

//---------------dance-single - ----------------
#NOTES:
     dance-single:
     :
     Easy:
     4:
     0.230,0.436,0.124,0.089,0.000:
0000
0000
0000
0000
,
0000
0000
0000
0000
,
0000
0000
0000
0000
,
2002
0000
0000
3003
,
0110
0000
0000
0000
,
0010
1000
0010
0100
,
0001
0001
1000
1000
,
0100
0010
0001
0000
,
0010
0000
0000
0010
0000
0000
0010
0000
,
0000
0100
0000
0000
0010
0000
0001
0000
,
1000
0000
0000
1000
0000
0000
1000
0000
,
0000
0001
0000
0000
0100
0000
0001
0000
,
0022
0000
0000
0033
,
1100
0000
0000
0000
,
0100
0000
0000
0000
,
1000
0000
0010
0000
,
0100
0000
0001
0010
,
0100
0000
0010
0000
,
0001
1000
0100
1000
,
0010
0000
0100
0000
,
2000
0000
0200
3300
,
1100
0000
0100
0000
,
0010
0000
0100
0000
,
0001
0000
1000
0000
,
0100
0010
0001
0000
,
0010
0000
0001
0000
,
1000
0000
0010
0000
,
0100
0000
0010
0000
,
1000
0100
0010
0001
,
1001
1001
1001
1001
,
0110
0000
0000
0000
,
0100
0000
0010
0000
,
1000
0010
0100
0001
,
0010
0100
1000
0000
,
0100
0000
1000
0001
,
0100
0000
0001
1000
,
0010
0000
1000
0100
,
0020
0000
0230
0000
,
1300
0000
0000
0000
,
0100
0000
1000
0000
,
0001
0100
0001
0010
,
0100
0100
0010
0000
,
0100
0000
1000
0010
,
0100
0000
0010
0000
,
1000
0000
0001
0010
,
0100
1000
0010
0100
,
2002
0000
0000
0000
,
3000
0000
0000
0000
,
0003
0000
0000
0000
,
0000
0000
0000
0000
,
0100
0000
0000
0000
,
0010
0000
0000
0000
,
1000
0000
0000
0000
,
0001
0010
0100
1000
,
1001
0000
0000
0000
,
0001
0000
0000
0000
,
0100
0000
0001
0000
,
1000
0000
0100
0000
,
1000
0000
0010
0100
,
0001
0000
0100
0000
,
0001
0000
1000
0100
,
0010
0000
0100
0000
,
1001
0000
0000
0000
,
0001
0000
0100
0000
,
0001
0010
0001
1000
,
0100
1000
0001
0000
,
0100
0000
0010
1000
,
0010
0000
0100
0001
,
1000
0000
0100
0010
,
0001
0010
0100
1000
,
1001
0000
0000
0000
;

//---------------dance-single - ----------------
#NOTES:
     dance-single:
     :
     Beginner:
     1:
     0.104,0.187,0.080,0.000,0.000: // measure 1
0000
0000
0000
0000
,  // measure 2
0000
0000
0000
0000
,  // measure 3
0000
0000
0000
0000
,  // measure 4
0000
0000
0000
0000
,  // measure 5
1001
0000
0000
0000
,  // measure 6
0001
0000
0000
0000
,  // measure 7
1000
0000
1000
0000
,  // measure 8
0100
0000
1000
0000
,  // measure 9
0010
0000
0000
0000
,  // measure 10
0000
0000
0000
0000
,  // measure 11
0100
0000
0000
0000
,  // measure 12
0000
0000
0000
0000
,  // measure 13
1001
0000
0000
0000
,  // measure 14
0010
0000
0000
0000
,  // measure 15
0100
0000
0000
0000
,  // measure 16
0001
0000
0001
0000
,  // measure 17
0000
0000
0000
0000
,  // measure 18
1000
0000
0000
0000
,  // measure 19
0100
0000
0000
0000
,  // measure 20
1000
0000
0000
0000
,  // measure 21
1000
0000
0001
0000
,  // measure 22
0100
0000
0000
0000
,  // measure 23
0010
0000
0000
0000
,  // measure 24
0100
0000
0000
0000
,  // measure 25
0001
0000
0001
0000
,  // measure 26
1000
0000
0000
0000
,  // measure 27
0100
0000
0000
0000
,  // measure 28
1000
0000
0000
0000
,  // measure 29
0010
0000
0000
0000
,  // measure 30
0110
0000
0000
0000
,  // measure 31
1001
0000
0000
0000
,  // measure 32
0001
0000
0000
0000
,  // measure 33
0100
0000
0000
0000
,  // measure 34
0001
0000
0000
0000
,  // measure 35
1000
0000
0000
0000
,  // measure 36
0100
0000
0100
0000
,  // measure 37
1000
0000
0000
0000
,  // measure 38
0001
0000
1000
0000
,  // measure 39
0110
0000
0000
0000
,  // measure 40
0100
0000
0000
0000
,  // measure 41
0010
0000
0100
0000
,  // measure 42
0001
0000
0001
0000
,  // measure 43
1000
0000
0000
0000
,  // measure 44
0001
0000
0000
0000
,  // measure 45
0010
0000
0000
0000
,  // measure 46
0001
0000
0000
0000
,  // measure 47
1001
0000
0000
0000
,  // measure 48
0000
0000
0000
0000
,  // measure 49
0000
0000
0000
0000
,  // measure 50
0000
0000
0000
0000
,  // measure 51
0000
0010
0000
0000
,  // measure 52
0000
0000
0000
0000
,  // measure 53
0000
0010
0000
0000
,  // measure 54
0000
0000
0000
0000
,  // measure 55
1001
0000
0000
0000
,  // measure 56
1000
0000
0000
0000
,  // measure 57
0001
0000
0000
0000
,  // measure 58
0100
0000
0000
0000
,  // measure 59
0001
0000
0000
0000
,  // measure 60
0010
0000
0000
0000
,  // measure 61
0100
0000
0000
0000
,  // measure 62
1000
0000
0001
0000
,  // measure 63
0110
0000
0000
0000
,  // measure 64
0010
0000
0000
0000
,  // measure 65
1000
0000
0000
0000
,  // measure 66
0001
0000
1000
0000
,  // measure 67
0100
0000
0000
0000
,  // measure 68
1000
0000
1000
0000
,  // measure 69
0010
0000
0100
0000
,  // measure 70
0010
0000
0000
0100
,  // measure 71
1001
0000
0000
0000
;
