#TITLE:Bridge Over Lights;
#SUBTITLE:;
#ARTIST:Tucker McClure;
#TITLETRANSLIT:;
#SUBTITLETRANSLIT:;
#ARTISTTRANSLIT:;
#CREDIT:;
#BANNER:Bridge over lights.png;
#BACKGROUND:Bridge over lights-background.png;
#JACKET:Bridge over lights-jacket.png;
#LYRICSPATH:;
#CDTITLE:;
#MUSIC:Bridge Over Lights.mp3;
#OFFSET:-3.892;
#SAMPLESTART:34.360;
#SAMPLELENGTH:12.000;
#SELECTABLE:YES;
#BPMS:0.000=125.990;
#STOPS:;
#BGCHANGES:;

//---------------dance-single - ----------------
#NOTES:
     dance-single:
     :
     Hard:
     8:
     0.453,0.397,0.000,0.000,0.186:
0001
1000
0001
0010
,
0001
1000
0001
0100
,
0001
1000
0001
0010
,
0001
1000
0001
0100
,
0010
0100
0010
1000
,
0010
0100
0010
0001
,
0010
0100
0010
1000
,
0010
0100
0010
0001
,
0010
0100
0000
0010
1000
0100
0010
0100
,
1000
1000
0000
0001
0100
0001
0010
0100
,
0010
0010
0000
0100
1000
0010
0100
0001
,
0010
0010
0000
0001
0100
0001
1000
0100
,
0010
0010
0000
0100
0010
0001
1000
0010
,
0100
0001
0000
0001
1000
0001
1000
0100
,
1000
0001
0000
0001
0100
0001
0001
1000
,
0010
0100
0000
0100
0001
0010
0001
0001
,
0010
0100
0010
0001
1000
0001
0000
0001
,
0010
0001
0100
0010
1000
0100
0000
0010
,
0010
0001
0100
1000
0100
0010
0000
0010
,
0100
0001
1000
0001
0010
0100
0000
0100
,
0010
0100
1000
0010
0001
0100
0000
0100
,
0010
1000
0100
0001
0100
0010
0000
0010
,
0100
1000
0100
0010
0001
1000
0000
1000
,
0010
0001
0010
1000
0001
0100
0000
0010
,
1000
0000
0000
0100
0010
0000
0001
0000
,
1000
0000
0000
0001
0010
0000
0100
0000
,
1000
0000
0000
0100
0010
0000
0001
0000
,
1000
0000
0000
0001
0100
0000
0010
0000
,
1000
0000
0000
1000
1000
0000
0001
0000
,
0100
0000
0000
0010
0010
0000
0100
0000
,
0001
0000
0000
0010
0010
0000
0100
0000
,
1000
0000
0000
1000
1000
0000
0100
0000
,
1000
0000
0000
0001
1000
0000
0001
0000
1000
0000
0000
0001
1000
0000
0001
0000
,
1000
0000
0000
0001
1000
0000
0001
0000
0100
0000
0000
0100
0000
0000
0100
0000
,
0010
0000
0000
1000
0010
0000
1000
0000
0010
0000
0000
1000
0010
0000
1000
0000
,
0010
0000
0000
1000
0010
0000
1000
0000
0010
0000
0000
0010
0000
0000
0010
0000
,
0100
0000
0000
0001
0100
0000
0010
0000
1000
0000
0000
0001
0100
0000
0010
0000
,
1000
0000
0000
0001
0100
0000
0010
0000
1000
0000
0000
1000
0000
0000
1000
0000
,
0001
0000
0000
1000
0100
0000
0010
0000
0001
0000
0000
1000
0100
0000
0010
0000
,
0001
0000
0000
1000
0100
0000
0010
0000
0001
0000
0000
0001
0000
0000
0001
0000
,
1000
0000
0000
0100
0010
0000
0100
0000
1000
0000
0000
0100
1000
0000
0010
0000
,
0100
0000
0000
0010
0100
0000
0010
0000
1000
0000
0000
0100
0000
0000
0010
0000
,
0100
0000
0000
0100
1000
0000
0001
0000
1000
0000
0000
1000
0001
0000
1000
0000
,
0100
0000
0000
0010
0100
0000
1000
0000
0010
0000
0000
0100
0000
0000
0001
0000
,
0010
0000
0000
0100
1000
0000
0100
0000
0010
0000
0000
0100
0010
0000
0100
0000
,
1000
0000
0000
0001
0100
0000
0010
0000
1000
0000
0000
0100
0000
0000
0010
0000
,
0100
0000
0000
1000
0010
0000
0001
0000
0010
0000
0000
1000
0001
0000
0010
0000
,
0100
0000
0000
0100
1000
0000
0100
0000
0010
0000
0000
0010
0000
0000
0010
0000
,
0100
1000
0000
0100
0010
0001
0000
0010
,
0100
1000
0100
0001
0100
1000
0100
0001
,
1000
0010
0000
0100
0001
1000
0000
1000
,
0001
1000
0010
0001
0010
1000
0010
0001
,
0010
0100
0000
0100
0001
0010
0000
0100
,
1000
0010
0100
0001
0100
1000
0100
0001
,
0100
0010
0000
0100
0010
1000
0000
1000
,
0001
1000
0010
0001
0010
1000
0010
0001
,
0010
0000
1000
0000
0100
0000
0000
0000
0100
0000
0000
0010
0000
0001
1000
0000
,
0001
0000
0100
0000
0010
0000
0000
0000
0100
0000
0000
0001
0000
1000
0001
0000
,
0010
0000
0100
0000
0010
0000
0000
0000
0100
0000
0000
1000
0000
0010
0100
0000
,
0010
0000
1000
0000
0001
0000
0000
0000
0001
0000
0000
1000
0000
0010
0100
0000
,
0001
0000
0010
0000
0100
0000
0000
0000
0010
0000
0000
0001
0000
0010
0100
0000
,
1000
0000
0010
0000
0100
0000
0000
0000
0010
0000
0000
0100
0000
0001
1000
0000
,
0100
0000
1000
0000
0010
0000
0000
0000
0100
0000
0000
0001
0000
0100
0010
0000
,
1000
0000
0001
0000
0010
0000
0000
0000
0100
0000
0000
0010
0000
0001
0100
0000
,
0010
0000
0000
0000
;

//---------------dance-single - ----------------
#NOTES:
     dance-single:
     :
     Medium:
     5:
     0.300,0.298,0.000,0.000,0.062:
0001
1000
0001
1000
,
0001
1000
0001
1000
,
0001
1000
0001
1000
,
0001
1000
0001
1000
,
0010
0100
0000
0100
0000
0100
0000
0100
,
0000
0010
0000
0010
0000
0010
0000
0010
,
0000
1000
0000
1000
0000
1000
0000
1000
,
0000
0001
0000
0001
0000
0001
0000
0001
,
1000
0000
0000
0001
0100
0000
0010
0000
,
1000
0000
0000
1000
0010
0000
0100
0000
,
0001
0000
0000
1000
0100
0000
1000
0000
,
0010
0000
0000
0100
0001
0000
1000
0000
,
0100
0000
0000
1000
0010
0000
0100
0000
,
0001
0000
0000
1000
0001
0000
0010
0000
,
0100
0000
0000
0010
0001
0000
0100
0000
,
0001
0000
0000
0100
0010
0000
1000
0000
,
0010
0000
0100
0000
0010
1000
0010
0000
,
0100
0000
0001
0000
1000
0001
1000
0000
,
0001
0000
0100
0000
0010
1000
0010
0000
,
0100
0000
0001
0000
1000
0100
1000
0000
,
0100
0000
0010
0000
0001
0010
0001
0000
,
0010
0000
0100
0000
1000
0100
1000
0000
,
0010
0000
0100
0000
0001
1000
0010
0000
,
0100
0000
0001
0000
1000
0001
1000
0000
,
0001
0000
0000
0000
,
0000
0000
0000
0000
0000
0001
0010
0100
,
1000
0000
0000
0000
,
0000
0000
0000
0000
0000
1000
0100
0010
,
0001
0000
0000
0000
,
0000
0000
0000
0000
0000
0100
0010
1000
,
0001
0000
0000
0000
,
0000
0000
0000
0000
0000
0010
0100
1000
,
0001
1000
0001
1000
,
0001
0000
0000
0000
1000
0000
0000
0000
0010
0000
0000
0010
0000
0000
0010
0000
,
0100
0001
0100
0001
,
0100
0000
0000
0000
0001
0000
0000
0000
1000
0000
0000
1000
0000
0000
1000
0000
,
0100
0010
0100
0010
,
0100
0000
0000
0000
0010
0000
0000
0000
0100
0000
0000
0100
0000
0000
0100
0000
,
0010
0001
0010
0001
,
0010
0000
0000
0000
0001
0000
0000
0000
0010
0000
0000
0010
0000
0000
0010
0000
,
0001
0100
0010
1000
,
0001
0000
0000
0000
0100
0000
0000
0000
0010
0000
0000
1000
0000
0000
0100
0000
,
0010
0100
1000
0010
,
0100
0000
0000
0000
0001
0000
0000
0000
1000
0000
0000
1000
0000
0000
0100
0000
,
1000
0010
0100
0010
,
1000
0000
0000
0000
0001
0000
0000
0000
0010
0000
0000
0100
0000
0000
1000
0000
,
0010
0100
0010
1000
,
0001
0000
0000
0000
0010
0000
0000
0000
0001
0000
0000
0001
0000
0000
0001
0000
,
0100
0010
0000
0100
0010
0100
0000
0010
,
0100
0001
1000
0100
,
0010
0100
0000
0010
0100
0010
0000
0100
,
0010
0001
1000
0100
,
1000
0010
0000
1000
0010
1000
0000
0010
,
1000
0100
0010
0001
,
1000
0001
0000
0100
0001
0010
0000
0100
,
1000
0010
0100
0000
0001
0000
1000
0000
,
0001
0000
0100
0000
0000
0000
0000
0000
0001
0000
0000
1000
0000
0000
0100
0000
,
0000
0000
0100
0000
0000
0000
0000
0000
0010
0000
0000
0100
0000
0000
1000
0000
,
0010
0000
0000
0000
0000
0000
0000
0000
0100
0000
0000
0001
0000
0000
0100
0000
,
0000
0000
0010
0000
0000
0000
0000
0000
0100
0000
0000
0001
0000
0000
1000
0000
,
0100
0000
0010
0000
0000
0000
0000
0000
0100
0000
0000
1000
0000
0000
0010
0000
,
0000
0000
0100
0000
0000
0000
0000
0000
0010
0000
0000
0100
0000
0000
0001
0000
,
1000
0000
0100
0000
0000
0000
0000
0000
1000
0000
0000
1000
0000
0000
0001
0000
,
0100
0000
0001
0000
0000
0000
0000
0000
0100
0000
0000
0010
0000
0000
1000
0000
,
0001
0000
0000
0000
;

//---------------dance-single - ----------------
#NOTES:
     dance-single:
     :
     Easy:
     3:
     0.200,0.223,0.000,0.000,0.000:
1000
0000
0001
0000
,
1000
0000
0001
0000
,
1000
0000
0001
0000
,
1000
0000
0001
0000
,
0100
0000
0010
0000
,
0010
0000
0100
0000
,
0010
0000
0100
0000
,
0100
0000
0010
0000
,
0100
0000
0001
0000
,
1000
0000
0100
1000
,
0010
0000
0100
0000
,
0001
0000
1000
0100
,
0010
0000
0100
0000
,
0010
0000
0001
0010
,
0100
0000
0010
0000
,
0001
0000
1000
0010
,
0100
0001
0000
1000
,
0001
0100
0000
0010
,
1000
0010
0000
0100
,
0001
1000
0000
0100
,
0010
0100
1000
1000
,
0100
0010
0001
0001
,
1000
0001
0100
0100
,
0001
1000
0010
0010
,
1000
0000
0100
0010
,
0001
0000
0001
0010
,
0001
0000
0100
0010
,
1000
0000
0001
1000
,
0001
0000
0100
0001
,
0100
0000
0010
0100
,
0010
0000
1000
0010
,
1000
0000
0010
0100
,
0010
0000
0010
0000
,
0010
0000
0010
0010
,
1000
0000
1000
0000
,
1000
0000
1000
1000
,
0001
0000
0001
0000
,
0001
0000
0001
0001
,
0100
0000
0100
0000
,
0100
0000
0100
0100
,
0010
0000
1000
0000
,
0100
0000
0010
0001
,
0010
0000
0001
0000
,
0100
0000
0001
1000
,
0100
0000
1000
0000
,
0010
0000
0100
0001
,
0100
0000
0010
0000
,
0100
0000
0001
1000
,
0100
1000
0100
1000
,
0100
0010
0010
0010
,
0001
0010
0001
0010
,
0001
1000
1000
1000
,
0001
0100
0001
0100
,
0001
0010
0010
0010
,
0100
1000
0100
1000
,
0100
0010
0010
0010
,
0100
0000
0010
0000
,
0001
0000
1000
0001
,
0100
0000
0001
0000
,
1000
0000
0100
1000
,
0010
0000
0100
0000
,
0001
0000
0010
0100
,
0010
0000
0001
0000
,
1000
0000
0010
0100
,
0001
0000
0000
0000
;

//---------------dance-single - ----------------
#NOTES:
     dance-single:
     :
     Beginner:
     1:
     0.095,0.124,0.000,0.000,0.000: // measure 1
0001
0000
0000
0000
,  // measure 2
0001
0000
0000
0000
,  // measure 3
0001
0000
0000
0000
,  // measure 4
0001
0000
0000
0000
,  // measure 5
1000
0000
0000
0000
,  // measure 6
1000
0000
0000
0000
,  // measure 7
1000
0000
0000
0000
,  // measure 8
1000
0000
0000
0000
,  // measure 9
0010
0000
0000
0000
,  // measure 10
0000
0000
0000
0100
,  // measure 11
0100
0000
0000
0000
,  // measure 12
0000
0000
0000
0001
,  // measure 13
0001
0000
0000
0000
,  // measure 14
0000
0000
0000
1000
,  // measure 15
1000
0000
0000
0000
,  // measure 16
0000
0000
0000
0001
,  // measure 17
0001
0100
0000
0000
,  // measure 18
0000
0010
0000
0000
,  // measure 19
0000
1000
0000
0000
,  // measure 20
0000
0100
0000
0000
,  // measure 21
0000
1000
0000
0000
,  // measure 22
0000
0010
0000
0000
,  // measure 23
0000
0100
0000
0000
,  // measure 24
0000
0001
0000
0000
,  // measure 25
1000
0000
0000
0000
,  // measure 26
0001
0000
0000
0000
,  // measure 27
0100
0000
0000
0000
,  // measure 28
0010
0000
0000
0100
,  // measure 29
0001
0000
0000
0000
,  // measure 30
1000
0000
0000
0100
,  // measure 31
1000
0000
0000
0000
,  // measure 32
0010
0000
0000
0000
,  // measure 33
0100
0000
0100
0000
,  // measure 34
0100
0000
0100
0000
,  // measure 35
0010
0000
0010
0000
,  // measure 36
0010
0000
0010
0000
,  // measure 37
1000
0000
1000
0000
,  // measure 38
1000
0000
1000
0000
,  // measure 39
0001
0000
0001
0000
,  // measure 40
0001
0000
0001
0000
,  // measure 41
1000
0000
0000
0000
,  // measure 42
0100
0000
0010
0000
,  // measure 43
0001
0000
0000
0000
,  // measure 44
0100
0000
0001
0000
,  // measure 45
1000
0000
0000
0000
,  // measure 46
0100
0000
1000
0000
,  // measure 47
0010
0000
0000
0000
,  // measure 48
0100
0000
0000
0000
,  // measure 49
0001
0000
0001
0000
,  // measure 50
0001
0000
0000
0000
,  // measure 51
1000
0000
1000
0000
,  // measure 52
1000
0000
0000
0000
,  // measure 53
0010
0000
0010
0000
,  // measure 54
0010
0000
0000
0000
,  // measure 55
0100
0000
0100
0000
,  // measure 56
0100
0000
0000
0000
,  // measure 57
0001
0000
1000
0000
,  // measure 58
0000
0000
0000
0001
,  // measure 59
0100
0000
0010
0000
,  // measure 60
0000
0000
0000
0010
,  // measure 61
1000
0000
0100
0000
,  // measure 62
0000
0000
0000
1000
,  // measure 63
0001
0000
0100
0000
,  // measure 64
0000
0000
0000
0000
,  // measure 65
0010
0000
0000
0000
;
