#TITLE:Black Swan;
#SUBTITLE:;
#ARTIST:TAK;
#TITLETRANSLIT:;
#SUBTITLETRANSLIT:;
#ARTISTTRANSLIT:;
#CREDIT:;
#BANNER:Black Swan.png;
#BACKGROUND:Black Swan-background.png;
#JACKET:Black Swan-jacket.png;
#LYRICSPATH:;
#CDTITLE:cdtitle.png;
#MUSIC:Black Swan.mp3;
#OFFSET:1.229;
#SAMPLESTART:29.800;
#SAMPLELENGTH:12.000;
#SELECTABLE:YES;
#BPMS:0.000=174.000,133.000=87.000,145.000=174.000,268.000=87.000;
#STOPS:52.000=1.724
;
#BGCHANGES:3.000=[BGA] DJMAX TECHNIKA 3 Black Swan TAK.avi=1.000=0=0=1,
99999=-nosongbg-=1.000=0=0=0 // don't automatically add -songbackground-
;

//---------------dance-single - ----------------
#NOTES:
     dance-single:
     :
     Hard:
     8:
     0.486,0.555,0.142,0.267,0.067:
0000
0000
0000
0000
,
0000
0000
0000
0000
,
0000
0000
0000
0000
,
0000
0000
0000
0000
,
0000
0000
0000
0000
,
0000
0000
0000
0000
,
0000
0000
0000
0000
,
1001
0000
0001
0100
0010
0000
0100
0000
,
0001
0000
1000
0100
0020
0000
0000
0000
,
0000
0031
0020
0000
0000
0000
0000
0031
,
2000
0010
0000
0010
3010
0100
0001
1000
,
0100
0010
0100
1000
0001
0100
0001
0100
,
0001
0100
0001
0001
0000
0001
0000
0001
,
0000
0000
1000
0001
0100
0001
0000
0010
,
1000
0010
0001
0100
0010
1000
0000
1000
,
0100
1000
0000
0100
0010
0010
0100
0000
,
0010
0110
0011
0101
,
1010
0000
1001
0000
0001
0100
0001
1000
,
0001
0010
0100
0010
0001
1000
0010
1000
,
0100
0010
0100
1000
0100
1000
0010
0100
,
0001
0010
0001
0100
1000
0100
0001
0100
,
1000
0100
0020
0000
0000
1030
0000
0001
,
1000
0100
1000
0000
0100
0000
0010
0000
,
0001
0010
0001
0000
0020
0000
0000
0000
0000
0000
0130
0000
0000
0000
0010
0000
,
0001
1000
0010
0000
1000
0000
0010
0000
,
0100
0000
0002
0000
0000
0013
0000
0100
,
1000
0010
0100
0000
0001
0000
1000
0000
,
0100
0010
0100
0000
0020
0000
0000
0000
0000
0000
0130
0000
0000
0000
0010
0000
,
0001
1000
1010
0000
0101
0000
0011
0000
,
0110
0000
1100
0000
0000
0001
0000
0100
,
0000
0000
0000
0010
0000
0100
0010
0100
,
0100
0000
0001
0000
1000
0100
0000
0010
,
0000
0001
0000
0001
0010
0100
1000
0000
,
0001
0000
1000
0000
0100
1000
0010
0100
,
0001
0000
1000
0100
1000
0001
0010
0000
,
0001
0000
0100
0000
0001
0000
1000
0000
0010
0000
0000
0010
0000
0000
0100
0000
,
0001
0000
1000
0100
0020
0000
0000
0000
0000
0000
0000
0000
0230
0000
0000
0000
,
1300
0100
1000
0002
,
0000
0103
0002
0013
,
0100
2000
0000
3100
,
2000
0000
3010
0000
0100
0000
0001
0100
,
0010
1000
0010
1000
0200
0000
0000
0000
,
0310
0001
0010
0100
0010
0001
2000
0000
,
0000
0000
3001
0100
1000
0100
0010
1000
,
0020
0000
0000
0000
0130
0010
1000
0001
,
0010
0000
0000
0100
0000
0000
0010
0000
0001
0000
1000
0000
0001
0000
1000
0000
0001
0000
1000
0000
0001
0000
1000
0000
,
0200
0000
0000
0010
,
0010
0000
0310
0100
0020
0000
0000
0000
,
0130
1000
0020
0000
0000
0000
0130
0001
,
2000
0000
0000
0010
,
0010
0000
3010
0000
0100
0001
0000
0001
,
1000
0010
0100
0001
0000
0001
0010
0100
,
0110
0000
0000
0011
0000
0000
1100
0000
,
0000
0101
0000
0000
0000
0010
1000
0000
,
1000
0001
0100
0010
0001
0100
0010
1000
,
0200
0010
0310
0020
,
0031
0000
0001
0100
0020
0000
0100
0000
,
0130
0001
2000
0000
0100
0000
3100
0100
,
0020
0000
0001
0000
0031
0010
0010
0001
,
0010
0100
0010
0001
2000
0000
0000
0000
,
0000
0000
3000
0000
0000
0001
0100
0010
,
2000
0001
3001
0002
,
0103
0000
0100
0010
2000
0000
0001
0000
,
3001
0100
0020
0000
0100
0000
0130
0010
,
1000
1010
0000
0100
0010
0010
0100
0001
,
0010
0100
1000
0001
1000
0100
0010
0100
,
0010
0100
0010
0001
0000
0001
0000
0001
,
1000
0000
0000
0000
0000
0000
0100
0000
0010
0000
0001
0010
0100
0000
0000
0000
,
0000
0100
1000
0000
0000
0000
0000
0100
0010
0000
0000
0000
0000
0001
0010
0000
,
0100
0000
1000
0000
0001
0000
0000
0100
0000
0000
0000
0000
0000
0000
0000
0000
;

//---------------dance-single - ----------------
#NOTES:
     dance-single:
     :
     Medium:
     6:
     0.349,0.463,0.142,0.178,0.004:
0000
0000
0000
0000
,
0000
0000
0000
0000
,
0000
0000
0000
0000
,
0000
0000
0000
0000
,
0000
0000
0000
0000
,
0000
0000
0000
0000
,
0000
0000
0000
0000
,
2002
0000
3003
0001
,
0100
0000
0010
1000
0010
0000
0000
0000
,
0000
1000
0010
0000
0000
0000
0000
1000
,
0010
0000
0000
0000
0000
0100
0010
0000
,
0100
0001
1000
1000
,
1000
0001
0100
0010
,
0000
0000
0100
0000
0001
0100
0000
0010
,
0100
0010
1000
0000
0010
1000
0000
1000
,
0100
0010
0000
0100
1000
0000
0001
0000
,
1000
1100
1100
0101
,
0101
0000
1001
0000
0001
1000
0010
0000
,
1000
0000
0010
0000
0100
0000
0100
0001
,
1000
0001
1000
0000
0100
0000
1000
0000
,
0010
0000
0110
0000
0100
0000
0010
1000
,
0001
0000
2000
0000
0000
3100
0000
0100
,
0010
0001
0010
0000
0001
0000
1000
0000
,
0010
0000
0200
0000
0000
0310
0000
0000
,
0100
0001
1000
0100
,
1000
0000
2010
0000
0000
3010
0000
0000
,
0100
0001
1000
0010
,
0100
0000
0020
0000
0000
1030
0000
0000
,
0100
0010
0100
0010
,
0001
0000
1001
0000
0000
0001
0000
1000
,
0100
0010
0000
0100
0000
0000
1000
0000
,
1000
0000
0001
0000
0000
0100
0000
0000
,
0001
0000
0000
1000
0001
0000
0100
0000
,
0001
0000
1000
0000
0100
0010
0001
0010
,
0001
0000
0010
0100
1000
0010
1000
0000
,
0010
0100
0001
1000
0002
0000
0000
2000
,
0000
3003
0120
0000
0000
0000
0130
0000
,
0001
0100
0010
2000
,
0000
3100
1000
0100
,
0010
0002
0000
0013
,
0100
0010
0001
1002
,
1000
1000
1003
0000
,
2001
0001
0001
3001
,
0000
0210
0010
0010
,
0310
0000
0120
0100
,
0130
0000
0010
1000
0010
1000
0010
1000
,
0020
0000
0000
0130
,
0001
1000
0200
0000
,
0000
0020
0000
0330
,
1001
0000
0000
0001
,
0100
0001
0020
0000
,
0000
0002
0000
0033
,
0001
0000
0000
0100
0000
0000
0001
0000
,
0000
1000
0000
0000
0100
0000
0000
1000
,
0000
0000
0010
0000
0000
0100
0000
0000
,
0110
0010
0100
0001
,
1000
0000
0001
1000
0010
0000
0000
0000
,
0000
1000
0010
0000
0000
0000
0000
1000
,
0010
0000
0000
0000
0000
0100
0001
0000
,
0000
0100
0000
0000
0010
0000
0000
1000
,
0000
0000
0100
0000
0000
1000
0100
0010
,
0001
0010
0010
0001
,
0010
0000
0100
1000
0010
0000
0000
0000
,
0000
0100
0001
0000
0000
0000
0000
0100
,
0010
0100
0000
0100
0001
0000
1000
0000
,
0100
0000
0010
0000
0001
0010
0001
0010
,
0001
0010
0001
0010
0000
0010
0000
0100
,
1000
0000
0000
0001
0100
0001
1000
0000
,
0000
0100
0000
0000
1000
0000
0000
1000
,
0100
0000
0010
0000
0001
0000
0000
0100
0000
0000
0000
0000
0000
0000
0000
0000
;

//---------------dance-single - ----------------
#NOTES:
     dance-single:
     :
     Easy:
     3:
     0.227,0.277,0.080,0.089,0.000:
0000
0000
0000
0000
,
0000
0000
0000
0000
,
0000
0000
0000
0000
,
0000
0000
0000
0000
,
0000
0000
0000
0000
,
0000
0000
0000
0000
,
0000
0000
0000
0000
,
0110
0000
0000
0100
,
0001
1000
0002
0000
,
0000
1000
0000
0000
,
1003
0000
0000
1000
,
0100
0010
0002
0000
,
0000
0000
0000
0003
,
0000
1000
0000
0010
,
0000
0100
0000
0001
,
0000
1000
0000
0100
,
0000
1000
1000
0001
,
0001
0100
0001
1000
,
0010
1000
0010
0100
,
0001
1000
0100
1000
,
0010
0220
0000
0000
,
0330
0000
0010
0000
0000
0010
0000
0000
,
0100
0001
1000
0100
,
1000
0000
0010
0000
0000
0010
0000
0000
,
0100
0001
0001
1000
,
1000
0000
1001
0000
0000
0001
0000
0000
,
0100
0001
0010
0001
,
1000
0000
0010
0000
0000
1000
0000
0000
,
0010
0100
0001
0010
,
0100
0000
1100
0000
0000
0100
0000
0000
,
1000
0000
0000
0100
0000
0000
0010
0000
,
0001
0010
0000
0000
,
0000
0000
0000
0000
,
1000
0001
0100
0001
,
1000
0000
0100
1000
,
0000
0000
0100
0000
0010
0000
0000
0001
,
0000
1000
0000
0001
,
1000
0001
0010
0200
,
0000
0310
0001
0010
,
1000
0020
0000
1030
,
0010
0100
1000
0001
,
1000
0010
2000
0000
,
3010
1000
0001
0020
,
0000
0031
1000
0010
,
2000
0000
3010
0100
,
0001
2000
0000
0000
,
3100
0000
0000
0100
,
0100
1000
1010
0000
,
0000
0101
0000
0000
,
1001
0000
0000
0001
,
1000
0010
1000
0000
,
0000
0100
0000
0000
,
0110
0000
0000
0010
,
0000
0000
0001
0000
,
0000
1000
0000
0000
,
1001
0000
0000
0001
,
0100
0010
1000
0000
,
0000
1000
0000
0000
,
1000
0000
0000
0010
,
0000
0100
0000
0000
0001
0000
0000
0000
,
0000
0000
0000
1000
,
0100
0000
0000
1000
,
0010
0100
0100
0000
,
0000
0001
0000
0000
,
1000
0000
0000
0100
,
0010
0001
1000
1000
,
1000
1000
0001
0100
,
0001
0000
0000
0010
0000
0000
0100
0000
,
0000
0100
0000
0000
1000
0000
0000
0001
,
0000
0100
0000
0000
;

//---------------dance-single - ----------------
#NOTES:
     dance-single:
     :
     Beginner:
     1:
     0.086,0.123,0.018,0.000,0.000: // measure 1
0000
0000
0000
0000
,  // measure 2
0000
0000
0000
0000
,  // measure 3
0000
0000
0000
0000
,  // measure 4
0000
0000
0000
0000
,  // measure 5
0000
0000
0000
0000
,  // measure 6
0000
0000
0000
0000
,  // measure 7
0000
0000
0000
0000
,  // measure 8
0001
0000
0000
0000
,  // measure 9
0000
0000
0100
0000
,  // measure 10
0000
0100
0000
0000
,  // measure 11
0001
0000
0000
1000
,  // measure 12
0000
0000
1000
0000
,  // measure 13
0000
0000
0000
0000
,  // measure 14
0000
0100
0000
0000
,  // measure 15
0000
0010
0000
0000
,  // measure 16
0000
0000
1000
0000
,  // measure 17
0000
0001
0000
1000
,  // measure 18
0000
0110
0000
0000
,  // measure 19
0000
0100
0000
0000
,  // measure 20
0000
0001
0000
0000
,  // measure 21
0000
1000
0000
0000
,  // measure 22
0000
0100
0000
0000
,  // measure 23
0000
1000
0000
1000
,  // measure 24
0000
1000
0000
0000
,  // measure 25
0000
0001
0000
0100
,  // measure 26
0000
0001
0000
0000
,  // measure 27
0000
1000
0000
0100
,  // measure 28
0000
1000
0000
0000
,  // measure 29
0000
0010
0000
0100
,  // measure 30
0000
0001
0000
0000
,  // measure 31
0000
0000
0000
0000
,  // measure 32
0000
0000
0000
0000
,  // measure 33
0000
0000
0000
0000
,  // measure 34
0000
0100
0000
0000
,  // measure 35
0001
0000
0000
1000
,  // measure 36
0000
0000
0100
0000
,  // measure 37
0000
1000
0000
0000
,  // measure 38
0000
0000
0000
0010
,  // measure 39
0000
0000
0000
0000
,  // measure 40
0000
1000
0000
0000
,  // measure 41
0000
0000
0000
0001
,  // measure 42
0000
0000
0000
0000
,  // measure 43
0100
0000
0000
0000
,  // measure 44
0000
0001
0000
0000
,  // measure 45
0000
0000
1000
0000
,  // measure 46
0000
0100
0000
0000
,  // measure 47
1000
0000
0000
0010
,  // measure 48
0000
0000
0100
0000
,  // measure 49
0000
0000
0000
0000
,  // measure 50
0010
0000
0000
0100
,  // measure 51
0000
0000
0001
0000
,  // measure 52
0000
0000
0000
0000
,  // measure 53
1000
0000
0000
1000
,  // measure 54
0000
0000
0000
0001
,  // measure 55
0000
0000
0000
0000
,  // measure 56
1001
0000
0000
0001
,  // measure 57
0000
0000
0100
0000
,  // measure 58
0000
0000
0000
0000
,  // measure 59
0001
0000
0000
1000
,  // measure 60
0000
0000
0100
0000
,  // measure 61
0000
0000
0000
0000
,  // measure 62
0010
0000
0000
0100
,  // measure 63
0000
0000
1000
0000
,  // measure 64
0000
1000
0000
0000
,  // measure 65
0001
0000
0000
0100
,  // measure 66
0000
0000
0001
0000
,  // measure 67
0000
0000
0000
0000
,  // measure 68
1000
0000
0000
0001
,  // measure 69
0000
0000
0100
0000
,  // measure 70
0000
0001
0000
0000
;
