#TITLE:Black Party;
#SUBTITLE:;
#ARTIST:80KIDZ;
#TITLETRANSLIT:;
#SUBTITLETRANSLIT:;
#ARTISTTRANSLIT:;
#GENRE:;
#CREDIT:;
#BANNER:Black Party.png;
#BACKGROUND:Black Party-bg.png;
#LYRICSPATH:;
#CDTITLE:cdtitle.png;
#MUSIC:Black Party.mp3;
#OFFSET:-0.003000;
#SAMPLESTART:60.480000;
#SAMPLELENGTH:12.000000;
#SELECTABLE:YES;
#BPMS:0.000000=126.999992
;
#STOPS:
;
#BGCHANGES:;
#KEYSOUNDS:;
#ATTACKS:;

//---------------dance-single - ----------------
#NOTES:
     dance-single:
     :
     Hard:
     7:
     0.415867,0.458136,0.214751,0.031815,0.230659,335.000000,27.000000,4.000000,0.000000,0.000000,0.000000,0.415867,0.458136,0.214751,0.031815,0.230659,335.000000,27.000000,4.000000,0.000000,0.000000,0.000000:
0000
0000
0000
0000
,
0000
0000
0000
0000
,
0000
0000
0000
0000
,
0000
0000
0000
0000
,
0001
0100
0000
0000
,
0001
1000
0000
0000
,
0001
0010
0000
0000
,
0001
1000
0000
0000
,
1100
0000
0001
0000
0100
0010
1000
0000
,
0110
0000
0010
0000
0100
0010
1000
0000
,
1010
0000
1000
0000
0100
1000
0100
0000
,
0100
0010
0100
0000
1000
0000
1100
0000
,
0100
1000
0010
0000
0100
0000
0011
0000
,
0001
0010
1000
0000
0010
0000
1100
0000
,
1000
0010
0001
0000
0001
0010
0100
0000
,
0010
0000
1000
0000
0000
0010
0000
0000
0100
0000
0000
0001
0000
0000
1000
0000
,
0100
0000
0000
0100
0000
0000
0000
0000
1000
0000
0000
0100
0000
0000
0010
0000
,
0001
0000
0000
1000
0000
0000
0000
0000
0001
0000
0000
0100
0000
0000
1000
0000
,
0100
0000
0000
0010
0000
0000
0000
0000
1000
0000
0000
0010
0000
0000
0100
0000
,
0001
0000
0000
1000
0000
0000
0000
0000
0100
0000
0000
1000
0000
0000
0010
0000
,
0100
0000
0000
0100
0000
0000
0000
0000
0010
0000
0000
1000
0000
0000
0010
0000
,
0100
0000
0000
0001
0000
0000
0000
0000
0010
0000
0000
0100
0000
0000
0010
0000
,
0100
0000
0000
1000
0000
0000
0000
0000
0100
0000
0000
1000
0000
0000
0001
0000
,
0100
0000
0000
0001
0000
0000
0000
0000
1000
0000
0000
0010
0000
0000
0100
0000
,
0001
0000
0000
1000
0000
0000
0000
0000
0100
0000
0000
1000
0000
0000
0010
0000
,
0100
0000
0000
0001
0000
0000
0000
0000
0010
0000
0000
0100
0000
0000
0010
0000
,
0001
0000
0000
1000
0000
0000
0000
0000
0001
0000
0000
0100
0000
0000
1000
0000
,
0100
0000
0000
0010
0000
0000
0000
0000
0100
0000
0000
0010
0000
0000
1000
0000
,
0010
1000
0200
0000
1000
0000
1300
0000
,
0100
0010
0002
0000
0010
0000
0103
0000
,
0010
1000
0200
0000
1000
0000
0310
0000
,
0100
1000
0020
0000
0100
0000
0001
0000
,
0130
0010
1000
0000
1010
0000
0101
0000
,
0001
0010
0100
0000
1100
0000
0011
0000
,
1001
0000
0101
0000
0001
0100
0010
0000
,
0100
0010
0001
0000
0010
0000
1010
0000
,
1000
0100
0010
0000
0100
0000
1100
0000
,
0100
0010
0001
0000
0010
0000
0011
0000
,
0001
0100
0010
0000
0100
0010
0001
0000
,
0100
0000
0010
0000
0000
1000
0000
0000
0001
0000
0000
0100
0000
0000
0010
0000
,
1000
0000
0000
0000
1000
0000
0000
0000
1000
0000
0000
0010
1000
0010
0000
0000
,
0100
0000
0000
0000
0100
0000
0000
0000
0100
0000
0000
0010
0100
0010
0000
0000
,
0010
0000
0000
0000
0010
0000
0000
0000
0010
0000
0000
1000
0010
1000
0000
0000
,
1000
0000
0000
0000
1000
0000
0000
0000
1000
0000
0000
1000
0001
1000
0000
0000
,
0001
0000
0000
0000
0001
0000
0000
0000
0001
0000
0000
0100
0001
0100
0000
0000
,
0010
0000
0000
0000
0010
0000
0000
0000
0010
0000
0000
0100
0010
0100
0000
0000
,
0100
0000
0000
0000
0100
0000
0000
0000
0100
0000
0000
0001
0100
0001
0000
0000
,
0001
0000
0000
0000
0001
0000
0000
0000
0001
0000
0000
0001
1000
0001
0000
0000
,
1000
0000
0000
0100
0000
0000
1000
0000
0001
0000
0010
0000
0100
0000
1000
0000
,
0100
0000
0000
1000
0000
0000
0010
0000
0100
0000
0001
0000
1000
0000
0010
0000
,
0100
0000
0000
0001
0000
0000
0010
0000
0001
0000
0010
0000
0100
0000
1000
0000
,
0001
0000
0000
1000
0000
0000
0100
0000
0010
0000
0100
0000
1000
0000
0001
0000
,
0100
0000
0000
0010
0000
0000
1000
0000
0010
0000
0100
0000
0001
0000
0010
0000
,
0100
0000
0000
0010
0000
0000
0001
0000
1000
0000
0100
0000
0010
0000
0001
0000
,
0010
0000
0000
0001
0000
0000
0100
0000
0010
0000
1000
0000
0001
0000
0010
0000
,
0100
0000
0000
0010
0000
0000
0001
0000
1000
0000
0100
0000
0010
0000
0001
0000
,
1001
0000
0000
0101
0000
0000
0001
0000
0100
0000
0010
0000
1000
0000
0100
0000
,
0110
0000
0000
0110
0000
0000
0100
0000
0010
0000
0001
0000
1000
0000
0010
0000
,
1010
0000
0000
1010
0000
0000
1000
0000
0010
0000
0100
0000
0001
0000
0010
0000
,
0100
1000
0100
0010
0100
0001
0100
0010
,
0110
0000
0000
1100
0000
0000
0100
0000
0010
0000
0001
0000
1000
0000
0010
0000
,
0110
0000
0000
0101
0000
0000
0100
0000
0010
0000
1000
0000
0001
0000
0010
0000
,
0110
0000
0000
1100
0000
0000
0100
0000
0010
0000
0001
0000
1000
0000
0010
0000
,
0100
0100
0001
1000
0001
1000
0100
0010
,
0001
0000
0000
0000
;

//---------------dance-single - ----------------
#NOTES:
     dance-single:
     :
     Medium:
     5:
     0.345420,0.407232,0.103399,0.127260,0.015907,275.000000,13.000000,16.000000,0.000000,0.000000,0.000000,0.345420,0.407232,0.103399,0.127260,0.015907,275.000000,13.000000,16.000000,0.000000,0.000000,0.000000:
0000
0000
0000
0000
,
0000
0000
0000
0000
,
0000
0000
0000
0000
,
0000
0000
0000
0000
,
0001
0010
0000
0000
,
0001
0010
0000
0000
,
0001
0010
0000
0000
,
0001
0010
0000
0000
,
0001
0000
1000
0000
0010
0100
0001
0000
,
1000
0000
0100
0000
1000
0010
0100
0000
,
0010
0000
1000
0000
0001
0100
0010
0000
,
0100
0010
1000
0000
0001
0000
1000
0000
,
0100
1000
0010
0000
0100
0000
0001
0000
,
1000
0001
0100
0000
0001
0000
1000
0000
,
0100
1000
0010
0000
0010
0100
0001
0000
,
1000
0000
0001
0000
0000
0100
0000
0000
0001
0000
0000
1000
0000
0000
0100
0000
,
0010
0000
0100
0000
0100
1000
0100
0000
,
1000
0000
0010
0000
0010
0100
0010
0000
,
0100
0000
0001
0000
0001
1000
0001
0000
,
1000
0000
0100
0000
0100
0010
0100
0000
,
0010
0000
0001
0000
1000
0001
0100
0000
,
0010
0000
1000
0000
0010
0100
0001
0000
,
1000
0000
0100
0000
1000
0010
1000
0000
,
0010
0000
0100
0000
0001
1000
0010
0000
,
0100
0010
2000
0000
0000
0000
3000
0000
,
1000
0100
0020
0000
0000
0000
0030
0000
,
0010
0001
0200
0000
0000
0000
0300
0000
,
0010
0100
0002
0000
0000
0000
0003
0000
,
1000
0001
0200
0000
0000
0000
0300
0000
,
0001
1000
0020
0000
0000
0000
0030
0000
,
0100
0010
2000
0000
0000
0000
3000
0000
,
0010
0100
0002
0000
0000
0000
0003
0000
,
1000
0001
0200
0000
0010
0000
0310
0000
,
0100
0010
2000
0000
0010
0000
3010
0000
,
0100
0000
0010
0000
0100
0001
2000
0000
,
3001
1000
0200
0000
1000
0000
0310
0000
,
0100
1000
0020
0000
0100
0000
0130
0000
,
0100
0001
2000
0000
0001
0000
3001
0000
,
0100
1000
0020
0000
0130
0001
0020
0000
,
0130
0000
1000
0000
0000
0100
0000
0000
1000
0000
0000
0010
0000
0000
0100
0000
,
0001
1000
0001
1000
,
0001
0100
0001
0100
,
0010
0100
0010
0100
,
0010
0100
0010
0100
,
0010
1000
0010
1000
,
0001
1000
0001
1000
,
0100
1000
0100
1000
,
0100
0010
0100
0010
,
0100
0000
1000
0000
0010
0100
0010
0000
,
0100
0000
0001
0000
0010
0100
0010
0000
,
0100
0000
1000
0000
0001
1000
0001
0000
,
1000
0000
0010
0000
0100
0001
0100
0000
,
0010
0000
1000
0000
1000
0100
0010
0001
,
0010
0000
0100
0000
0100
0010
0001
1000
,
0010
0000
0100
0000
0001
0010
0100
1000
,
0100
1000
0100
1000
,
1100
0000
1100
0000
1000
0100
0010
0001
,
0011
0000
0011
0000
0001
0010
0100
1000
,
1100
0000
1100
0000
1000
0100
0010
0001
,
0010
0001
0010
0001
,
0101
0000
0101
0000
0001
0100
0010
1000
,
1010
0000
1010
0000
1000
0010
0100
0001
,
0101
0000
0101
0000
0001
0100
0010
1000
,
0010
0100
0010
1000
,
1001
0000
0000
0000
;

//---------------dance-single - ----------------
#NOTES:
     dance-single:
     :
     Easy:
     2:
     0.165892,0.178164,0.031815,0.127260,0.000000,126.000000,4.000000,16.000000,0.000000,0.000000,0.000000,0.165892,0.178164,0.031815,0.127260,0.000000,126.000000,4.000000,16.000000,0.000000,0.000000,0.000000:
0000
0000
0000
0000
,
0000
0000
0000
0000
,
0000
0000
0000
0000
,
0000
0000
0000
0000
,
1000
0000
0000
0000
,
0100
0000
0000
0000
,
1000
0000
0000
0000
,
0001
0000
0000
0000
,
0100
0000
0001
1000
,
0000
0000
0100
1000
,
0000
0000
0100
0010
,
0100
0010
0100
0100
,
0001
1000
0000
0000
,
1000
0100
0000
0000
,
0100
0010
0100
0010
,
0100
0000
0010
0000
,
1001
0000
0001
0000
,
1000
0000
0100
0000
,
1000
0000
0010
0000
,
0100
0000
0001
0000
,
1001
0000
0001
0000
,
1000
0000
0100
0000
,
1000
0000
0010
0000
,
0100
0000
0001
0000
,
1000
2000
0000
3000
,
0001
0002
0000
0003
,
0100
0200
0000
0300
,
0010
0020
0000
0030
,
0100
0020
0000
0030
,
1000
0200
0000
0300
,
0010
0002
0000
0003
,
0010
0200
0000
0300
,
1000
0100
0000
0000
,
0100
0010
0000
0000
,
0000
0000
0010
0001
,
0010
0001
0010
0100
,
1000
0010
0000
0000
,
0100
0001
0000
0000
,
0100
0001
0100
0001
,
0100
0000
0010
0100
,
0002
0000
0000
0003
,
2000
0000
0000
3000
,
0002
0000
0000
0003
,
0002
0000
0000
0003
,
2000
0000
0000
3000
,
0020
0000
0000
0030
,
2000
0000
0000
3000
,
2000
0000
0000
3000
,
0010
0000
1000
0000
,
0001
0000
0010
0000
,
0100
0000
0010
0000
,
0001
0000
0001
0000
,
1000
0000
0100
0000
,
1000
0000
0010
0000
,
0100
0000
0001
0000
,
1000
0000
0000
0000
,
1001
0000
0001
1000
,
0010
0000
0100
0001
,
0010
0000
0100
0010
,
0001
0000
1000
1000
,
0100
0000
1000
0010
,
0100
0000
0010
0100
,
0001
0000
1000
0001
,
0100
0000
0010
0100
,
1001
0000
0000
0000
;

//---------------dance-single - ----------------
#NOTES:
     dance-single:
     :
     Beginner:
     1:
     0.088627,0.127260,0.047722,0.000000,0.000000,72.000000,6.000000,0.000000,0.000000,0.000000,0.000000,0.088627,0.127260,0.047722,0.000000,0.000000,72.000000,6.000000,0.000000,0.000000,0.000000,0.000000:
0000
0000
0000
0000
,
0000
0000
0000
0000
,
0000
0000
0000
0000
,
0000
0000
0000
0000
,
0001
0000
0000
0000
,
1000
0000
0000
0000
,
0001
0000
0000
0000
,
1000
0000
0000
0000
,
0110
0000
0100
0000
,
0000
0000
0010
0000
,
0000
0000
1000
0000
,
1000
0000
1000
0000
,
0001
0000
0000
0000
,
0100
0000
0000
0000
,
0001
0000
0001
0000
,
1001
0000
0000
0000
,
0010
0000
0000
0000
,
0100
0000
0000
0000
,
0001
0000
0000
0000
,
0001
0000
0000
0000
,
1000
0000
0000
0000
,
1000
0000
0000
0000
,
0010
0000
0000
0000
,
0100
0000
0000
0000
,
0010
0000
0000
0000
,
0010
0000
0000
0000
,
1000
0000
0000
0000
,
1000
0000
0000
0000
,
0001
0000
0000
0000
,
0001
0000
0000
0000
,
0100
0000
0000
0000
,
0100
0000
0000
0000
,
0010
0010
0000
0000
,
0010
0010
0000
0000
,
0000
0000
0100
0000
,
0100
0000
0000
0000
,
0001
0001
0000
0000
,
1000
1000
0000
0000
,
1000
0000
1000
0000
,
1001
0000
0010
0000
,
0100
0000
0000
0000
,
0001
0000
0000
0000
,
1000
0000
0000
0000
,
1000
0000
0000
0000
,
1000
0000
0000
0000
,
0010
0000
0000
0000
,
0100
0000
0000
0000
,
0100
0000
0000
0000
,
0010
0000
0000
0000
,
0100
0000
0000
0000
,
0001
0000
0000
0000
,
1000
0000
0000
0000
,
0100
0000
0000
0000
,
1000
0000
0000
0000
,
0001
0000
0000
0000
,
0100
0000
0000
0000
,
0110
0000
0000
0000
,
0100
0000
0000
0000
,
0001
0000
0000
0000
,
1000
0000
0001
0000
,
1001
0000
0000
0000
,
1000
0000
0000
0000
,
0010
0000
0000
0000
,
0100
0000
0010
0000
,
1001
0000
0000
0000
;

//---------------dance-single - ----------------
#NOTES:
     dance-single:
     :
     Challenge:
     9:
     0.615847,0.585395,0.310196,0.397687,0.612438,453.000000,39.000000,50.000000,0.000000,0.000000,0.000000,0.615847,0.585395,0.310196,0.397687,0.612438,453.000000,39.000000,50.000000,0.000000,0.000000,0.000000:
// measure 0
0000
0000
0000
0000
,  // measure 1
0000
0000
0000
0000
,  // measure 2
0000
0000
0000
0000
,  // measure 3
0000
0000
0000
0000
,  // measure 4
1000
0100
0002
0000
0100
0000
0103
0000
,  // measure 5
0001
0100
2000
0000
0010
0000
3010
0000
,  // measure 6
1000
0010
0002
0000
0010
0000
0013
0000
,  // measure 7
0010
0100
0002
0000
1000
0000
1003
0000
,  // measure 8
0101
0000
0000
0000
0011
0000
0000
0000
0010
0100
1000
0001
1000
0000
0000
0000
,  // measure 9
1100
0000
0000
0000
1010
0000
0000
0000
0010
0100
0001
1000
0001
0000
0000
0000
,  // measure 10
0011
0000
0000
0000
1010
0000
0000
0000
1000
0100
1000
0001
0100
0000
0000
0000
,  // measure 11
0001
0100
0001
1000
0001
0000
0000
0000
1000
0000
0100
0000
0010
0000
0001
0000
,  // measure 12
1000
0001
0100
0001
0010
0000
0000
0000
1100
0000
0000
0000
0011
0000
0000
0000
,  // measure 13
0010
0001
0100
0010
1000
0000
0000
0000
1010
0000
0000
0000
1100
0000
0000
0000
,  // measure 14
0100
0010
0001
1000
0001
0000
0000
0000
0001
0010
0100
1000
0001
0000
0000
0000
,  // measure 15
0100
0000
0101
0000
0000
0011
0000
0000
0110
0000
0000
1001
0000
0000
1010
0000
,  // measure 16
1000
0000
0000
1001
0000
0000
1000
0001
0100
0000
0100
0010
0000
1000
0000
0010
,  // measure 17
0100
0000
0000
1001
0000
0000
0001
0000
1000
0000
0100
0010
0000
0001
0000
1000
,  // measure 18
0010
0000
0000
1010
0000
0000
1000
0001
0010
0000
0100
0010
0000
0001
0000
0100
,  // measure 19
0010
0000
1000
0000
0000
0001
0000
0000
0010
0000
0000
0100
0000
0000
1000
0000
,  // measure 20
1010
0000
0000
0101
0000
0000
0001
0100
0001
0000
0100
0010
0000
1000
0000
0001
,  // measure 21
0010
0000
0000
0011
0000
0000
0010
0100
1000
0000
0001
1000
0000
0001
0000
1000
,  // measure 22
0010
0000
0000
1010
0000
0000
1000
0001
0010
0000
0100
0010
0000
0001
0000
1000
,  // measure 23
0002
0100
0103
0000
2000
0100
3100
0000
,  // measure 24
2000
0000
0200
3000
0020
0300
0200
0030
2000
0300
0000
3000
0000
0000
0000
0000
0000
0000
0000
0000
0000
0000
0000
0000
0000
0000
0000
0000
0000
0000
0000
0000
,  // measure 25
0002
0000
0020
0003
0200
0030
0020
0300
0002
0030
0000
0003
0000
0000
0000
0000
0000
0000
0000
0000
0000
0000
0000
0000
0000
0000
0000
0000
0000
0000
0000
0000
,  // measure 26
0002
0000
0200
0003
2000
0300
0200
3000
0002
0300
0000
0003
0000
0000
0000
0000
0000
0000
0000
0000
0000
0000
0000
0000
0000
0000
0000
0000
0000
0000
0000
0000
,  // measure 27
0002
0000
0020
0003
2000
0030
0020
3000
0002
0030
0000
0003
0000
0000
0000
0000
0000
0000
0000
0000
0000
0000
0000
0000
0000
0000
0000
0000
0000
0000
0000
0000
,  // measure 28
0002
0000
0200
0003
0020
0300
0200
0030
0002
0300
0000
0003
0000
0000
0000
0000
0000
0000
0000
0000
0000
0000
0000
0000
0000
0000
0000
0000
0000
0000
0000
0000
,  // measure 29
0200
0000
0020
0300
2000
0030
0020
3000
0200
0000
0030
0300
0000
0000
0000
0000
0000
0000
0000
0000
0000
0000
0000
0000
0000
0000
0000
0000
0000
0000
0000
0000
,  // measure 30
2000
0000
0002
3000
0020
0003
0002
0030
2000
0000
0003
3000
0000
0000
0000
0000
0000
0000
0000
0000
0000
0000
0000
0000
0000
0000
0000
0000
0000
0000
0000
0000
,  // measure 31
2000
0000
0002
3000
0200
0003
0002
0300
2000
0003
0000
0000
3000
0000
0000
0000
0000
0000
0000
0000
0000
0000
0000
0000
0000
0000
0000
0000
0000
0000
0000
0000
,  // measure 32
0001
0100
0010
1000
0001
0000
1000
0001
0000
0010
0000
0100
1000
0000
0010
0000
,  // measure 33
0100
0010
1000
0001
0010
0000
0100
0010
0000
0001
0000
0010
0001
0000
0100
0000
,  // measure 34
0010
0000
1000
0000
0001
0000
0010
0000
0100
0010
0001
0100
0020
0000
0000
0000
,  // measure 35
0130
0001
1000
0100
0020
0000
0000
0130
0000
0110
0000
0010
0100
0000
1000
0000
,  // measure 36
0100
0010
0001
1000
0001
0000
1000
0001
0000
1000
0000
0100
1000
0000
0010
0000
,  // measure 37
0100
0010
0100
0001
1000
0000
0100
1000
0000
0100
0000
0010
0001
0000
1000
0000
,  // measure 38
0001
0100
0001
1000
0200
0000
0000
0000
0310
0001
1000
0010
0200
0000
0000
0000
,  // measure 39
0310
0000
1010
0000
0000
0101
0000
0000
0011
0000
0000
1100
0000
0000
1001
0000
,  // measure 40
0001
0000
1000
0000
0001
0000
1000
0000
0001
0000
1000
0001
1000
0001
0000
0000
,  // measure 41
0001
0000
0100
0000
0001
0000
0100
0000
0001
0000
0100
0001
0100
0001
0000
0000
,  // measure 42
1000
0000
0001
0000
1000
0000
0001
0000
1000
0000
0001
1000
0001
1000
0000
0000
,  // measure 43
0010
0000
1000
0000
0010
0000
1000
0000
0010
0000
1000
0010
1000
0010
0000
0000
,  // measure 44
1000
0000
0000
0000
1000
0000
0000
0000
1000
0000
0000
1000
1000
1000
0000
0000
,  // measure 45
0001
0000
0000
0000
0001
0000
0000
0000
0001
0000
0000
0001
0001
0001
0000
0000
,  // measure 46
0100
0000
0000
0000
0100
0000
0000
0000
0100
0000
0000
0100
0100
0100
0000
0000
,  // measure 47
0010
0000
0000
0000
0010
0000
0000
0000
0010
0000
0000
0010
0010
0010
0000
0000
,  // measure 48
1000
0000
0000
0010
0000
0000
0001
0000
0010
0000
0100
0000
0001
1000
0001
0000
,  // measure 49
1000
0000
0000
0010
0000
0000
0001
0000
0100
0000
0010
0000
1000
0100
1000
0000
,  // measure 50
0100
0000
0000
0010
0000
0000
0100
0000
1000
0000
0010
0000
0100
0001
0100
0000
,  // measure 51
0001
0000
0000
0010
0000
0000
0001
0000
1000
0000
0100
0000
1000
0001
1000
0000
,  // measure 52
0001
0000
0000
0100
0000
0000
0010
0000
0100
0000
0001
0000
0010
0100
0010
0000
,  // measure 53
0100
0000
0000
1000
0000
0000
0010
0000
0100
0000
0001
0000
1000
0100
1000
0000
,  // measure 54
0100
0000
0000
1000
0000
0000
0010
0000
0100
0000
0001
0000
0010
0100
0010
0000
,  // measure 55
0100
0000
0000
0100
0000
0000
1000
0000
0100
0000
0001
0000
0100
0010
0100
0000
,  // measure 56
0110
0000
0000
1100
0000
0000
1000
0000
1001
0000
0001
0100
0000
0010
0000
1000
,  // measure 57
0010
0000
0000
1010
0000
0000
1000
0000
0001
0000
0010
0100
0000
0010
0000
0001
,  // measure 58
0100
0000
0000
1010
0000
0000
1000
0000
0001
0000
0010
0100
0000
0010
0000
0001
,  // measure 59
1000
0100
1000
0010
1000
0001
1000
0100
,  // measure 60
1100
0000
0000
1001
0000
0000
1000
0000
1001
0000
0001
1000
0000
0100
0000
0100
,  // measure 61
0010
0000
0000
1100
0000
0000
1000
0000
1000
0000
0100
1000
0000
0100
0000
1000
,  // measure 62
0010
0000
0000
1010
0000
0000
1000
0000
0001
0000
1000
0010
0000
1000
0000
0001
,  // measure 63
0100
1000
0100
0001
0010
1000
0010
0001
,  // measure 64
1001
0000
0000
0000
;
