#TITLE:Bebikukorica Nigiri;
#SUBTITLE:;
#ARTIST:Venetian Snares;
#TITLETRANSLIT:;
#SUBTITLETRANSLIT:;
#ARTISTTRANSLIT:;
#CREDIT:;
#BANNER:bn.png;
#BACKGROUND:bg.png;
#LYRICSPATH:;
#CDTITLE:;
#MUSIC:Bebikukorica Nigiri.mp3;
#OFFSET:-4.848;
#SAMPLESTART:57.960;
#SAMPLELENGTH:12.000;
#SELECTABLE:YES;
#BPMS:0.000=174.001,154.000=87.001,178.500=1392.008,230.500=174.000,272.000=174.000,324.000=87.000;
#STOPS:;
#BGCHANGES:;

//---------------dance-single - ----------------
#NOTES:
     dance-single:
     :
     Hard:
     11:
     0.816,1.000,0.205,0.324,0.563:
2000
0000
0000
3010
1000
0001
0010
0001
,
0100
0200
0001
0000
0301
0000
0100
0000
,
0010
0100
0000
0100
0001
0000
1000
0100
,
0010
0000
0110
0000
2200
3300
1000
0001
,
0100
0010
0100
0001
0010
0001
1000
0001
,
0100
0100
0020
0000
0130
0020
0000
0130
,
0002
0000
1003
0100
0001
0100
0010
0000
,
0011
0000
0100
0100
0010
0001
2000
0000
,
3001
0010
0001
0010
0200
0000
2300
0000
,
3001
0000
0100
0000
1000
0000
0100
0000
0010
0000
1000
0010
0100
0000
0010
0000
,
1000
1000
0001
0001
0021
0000
0130
0100
,
0010
0001
0001
0100
0010
0010
1000
0010
,
0010
0100
0001
0001
1000
0100
0100
0010
,
0010
0010
0100
1000
1000
0001
0100
0100
,
0001
0010
0010
0010
0100
1000
0100
0100
,
1000
0001
0100
0000
0010
1000
0001
1000
0001
1000
0100
0000
0100
0000
0010
0000
,
0010
0000
0001
0000
0010
0000
0100
0000
1000
0000
0001
0000
1000
0000
0001
0010
,
0100
0010
0100
0010
0200
0000
0302
0000
0023
0000
0000
0000
1030
0000
0010
0000
,
0010
0000
0001
0000
1000
0000
0001
0000
0100
0000
1000
0000
0100
0001
0100
0001
,
0100
0001
0010
0000
0100
0000
0100
0000
0010
0000
0100
0000
0100
0000
0001
0000
,
0100
0100
1000
0010
0100
0001
1000
0100
,
0010
0001
0001
0100
0010
0010
0100
0001
,
0001
1000
0100
0100
0010
0010
0100
1000
,
0001
0010
0100
0010
2001
0000
3010
0100
,
0002
0000
0000
0000
0023
0000
0000
0000
0130
0000
0000
0100
0010
0000
0001
0000
,
1000
0000
0000
0000
0000
0000
0000
0000
0000
1000
0000
0000
0010
0000
0000
0000
0000
0000
0100
0000
0000
0000
0000
0000
0100
0000
0000
0000
0000
0000
0001
0000
0000
0000
0000
0000
0001
0000
0000
0000
0000
0000
0001
0000
1000
0000
0000
0000
,
0001
0000
1000
0000
0000
0000
0001
0000
1000
0000
0000
0000
0100
0000
0000
0010
0000
0000
0001
0000
0000
0000
0000
0000
1000
0000
0000
0000
0000
0000
0001
0000
0000
0000
0000
0000
1000
0000
0000
0000
0000
0000
1000
0000
0000
0000
0000
0000
,
0001
0100
1000
0100
0010
1000
0001
1000
,
0100
0000
0100
0000
0100
0000
0010
0000
0001
0010
0001
0010
0001
1000
0001
1000
,
0001
0100
0001
0100
0001
0100
0010
1000
0010
0000
0000
0000
0100
0010
0000
1000
,
0000
0010
0000
0100
0000
0001
0000
1000
0000
0001
0000
1000
0000
1000
0001
1000
,
0001
0010
1000
0010
0001
0100
0010
1000
,
0001
0000
0000
0010
0000
0000
1000
0000
0000
0010
0000
0000
0001
0000
0000
0100
0000
0000
0010
1000
0000
1000
0010
0000
,
0010
0000
1000
0000
0000
0000
1000
0000
0010
0000
0000
0000
0100
0000
0000
0010
0000
0000
0100
0000
0000
0000
0000
0000
0010
0000
0000
0000
0000
0000
1000
0000
0000
0001
0000
0000
1000
0000
0000
0000
0000
0000
0010
0000
0000
0000
0000
0000
,
0010
0000
0100
0000
0001
0000
0010
0100
0010
0000
0100
0000
1000
0001
1000
0001
,
1000
0000
1000
0100
0000
0000
0010
0001
0000
0000
0001
0100
0001
0100
0001
0100
,
0001
1000
0001
1000
0001
0100
0001
0100
0001
0000
1000
0000
0100
0000
1000
0000
,
0010
0000
0100
0000
0100
0010
0100
0010
0100
0001
0100
0000
0100
1000
0100
0000
,
0010
0000
1000
0000
0001
0010
0100
1000
0001
0000
0000
1100
0000
0100
0100
0000
,
0000
0010
0000
0000
0010
0000
0001
0000
0001
0100
0000
0100
1000
0100
0001
0010
,
0100
0000
0010
0000
0001
0000
0000
1000
0001
1000
0010
0010
1000
0010
0001
0000
,
0010
0000
0100
0000
0001
0100
0000
0100
0010
0000
0100
0001
1000
0000
1001
0000
,
1010
0000
1000
0100
0001
0100
1000
0010
0100
0001
1000
1000
0010
0000
0100
0000
,
0010
0100
0000
0100
0001
0000
0001
0010
0100
0010
0002
0000
1003
0000
0100
0100
,
0010
0100
0200
0000
0301
0100
1000
0010
0100
0000
2002
0000
0000
0000
0000
0000
,
0000
0000
0000
0000
,
0000
0000
0000
0000
,
0000
0000
0000
0000
,
0000
0000
0000
0000
,
0000
0000
0000
0000
,
0000
0000
0000
0000
,
0000
0000
0000
0000
,
0000
0000
0000
0000
,
0000
0000
0000
0000
,
0000
0000
0000
0000
,
0000
0000
0000
0000
,
0000
0000
0000
0000
,
0000
0000
0000
0000
0000
3003
1001
0000
,
0000
0001
0100
0001
0100
0010
0000
0100
,
0010
1000
0100
0010
0000
0100
1000
0010
,
1010
0011
1100
1001
,
0101
0000
0101
0000
0100
0010
0010
1000
,
0001
0000
0001
0010
0010
0100
1000
0000
,
0100
0001
0100
1000
0010
0000
0000
0100
,
0001
1000
0100
0000
0020
0000
0032
0000
,
1003
0000
0100
0010
0001
1000
1010
0000
,
1000
0001
0010
0100
1100
0000
0100
0010
,
0001
0011
0020
0000
0130
0100
0100
0010
,
0001
1000
0100
1000
1010
0000
0000
0100
,
0001
0001
1000
0100
0000
0100
0010
0010
,
0001
1000
0000
1000
0010
0010
0100
0001
,
0000
0001
0010
0010
0100
0000
0210
0000
,
2300
0000
3010
0010
0100
0001
0010
0100
,
1100
0100
0010
0001
1000
1000
1010
0010
,
0100
0001
0010
0100
1000
0100
1000
0100
,
2000
3020
0230
0301
,
0000
0000
0001
0000
0100
0010
1000
0001
1000
0000
0000
0000
0000
0000
1000
0100
,
0010
0100
1000
0010
0100
0001
1000
0000
0000
0000
1000
0100
0010
0001
0010
0100
,
1000
0000
0000
0000
0000
0000
1000
0000
0010
0100
0010
1000
0001
0010
0100
1000
,
0002
0000
0000
0000
0203
0000
0000
0000
0310
0000
0000
0000
0100
0010
1000
0000
,
0001
0000
1000
0100
1000
0100
0010
0000
0000
0000
0010
0100
1000
0000
0001
0000
,
0100
0010
0100
0000
0010
1000
0001
0000
0010
0000
0100
1000
0001
0000
0000
0000
0100
0000
1000
0000
0100
0000
0010
0000
1000
0000
0001
0000
1002
0000
0000
0000
,
0203
0000
0001
0000
0301
0000
0100
0000
0010
1000
0010
0100
0002
0000
0000
0000
0003
0000
0010
0100
1000
0100
0010
0001
2000
0000
0000
0000
3000
0000
1000
0100
,
0010
0100
1000
0010
0200
0000
0000
0000
0300
0000
0010
1000
0010
0100
0001
2000
0002
0000
0000
0000
3003
0000
0000
0000
0000
0000
0000
0000
0000
0000
0000
0000
;

//---------------dance-single - ----------------
#NOTES:
     dance-single:
     :
     Medium:
     9:
     0.568,0.714,0.231,0.034,0.102:
0101
0000
0000
0001
0100
0000
0010
0000
,
1000
0010
1000
0000
0010
0000
0100
0000
,
0010
0100
0000
0100
0010
0000
1000
0100
,
0010
0000
0100
0000
1000
0000
0010
0100
,
0000
0100
0010
1000
0001
0010
0100
0010
,
0100
0000
0010
0000
0100
1000
0000
0100
,
1000
0000
0100
0010
0001
1000
0010
0000
,
0100
0000
0010
0100
0001
0000
0100
0000
,
0010
0100
0001
1000
0100
0000
0010
0000
,
0100
1000
0000
0100
0010
0001
0010
0010
,
0001
0100
0010
1000
0001
0000
0100
0010
,
1000
0000
0010
0100
0001
0000
1000
0100
,
0010
0000
0100
1000
0010
0100
0001
0100
,
0001
1000
0100
1000
,
0010
0000
0100
0000
0001
0100
0000
0100
,
0010
0000
0100
0010
1000
0010
1000
0010
,
0100
0010
0100
0010
1000
0001
0010
0100
,
1000
0100
0100
1000
0010
0010
0100
0001
,
1000
0000
0100
1000
0010
0100
0001
0100
,
0010
1000
0001
0010
0100
0010
0001
0100
,
0010
1000
0001
0010
0100
0010
0001
0100
,
0010
1000
0010
0000
0100
0001
0100
0000
,
0010
0100
0010
0000
0100
0001
0100
0010
,
1000
0100
0010
0000
1100
0000
0000
0100
,
0010
0001
0010
0000
0011
0000
0001
0100
,
0010
0000
0100
0010
1000
0001
1000
0010
,
0010
0010
1000
0001
0010
0000
0001
0100
,
0010
0000
0100
0010
1000
0010
0100
0001
,
0010
0000
0100
0010
0001
0000
0001
0100
,
0010
0000
0100
0000
1001
0000
0001
1000
,
0001
1000
0001
1000
0001
1000
0001
1000
,
0001
0100
0010
1000
0001
0100
0010
1000
,
0001
0100
0010
1000
0100
0010
0001
0001
,
0001
0001
1000
0001
0100
0001
1000
0100
,
1000
0001
0100
0001
0010
0100
0010
0001
,
0100
0010
1000
0010
0100
0010
1000
0001
,
0010
0100
0010
0001
0100
0010
1000
0100
,
0010
0100
1000
0100
0010
0000
0000
0100
,
0010
0000
0001
0000
1000
0000
0000
0000
0101
0000
0000
0010
0000
0000
0100
0000
,
0000
0010
0000
0000
1000
0000
0001
0000
0000
0100
0000
0000
0001
0000
0000
1000
,
0100
0000
0100
0000
0010
0000
0000
0100
0000
0000
0010
0000
0000
0001
0000
0000
,
0010
0000
0001
0000
0000
0100
0000
0000
0010
0000
0000
1000
0010
0000
0100
0000
,
0001
0000
0000
1000
0000
0000
0100
0000
0000
1000
0000
0000
0010
0000
0100
0000
,
0000
0010
0000
0000
1000
0000
0000
0010
0100
0000
0001
0000
1000
0000
0000
0100
,
0000
0000
0010
0000
0000
0001
0000
0000
1000
0000
2002
0000
0000
0000
0000
0000
,
0000
0000
0000
0000
,
0000
0000
0000
0000
,
0000
0000
0000
0000
,
0000
0000
0000
0000
,
0000
0000
0000
0000
,
0000
0000
0000
0000
,
0000
0000
0000
0000
,
0000
0000
0000
0000
,
0000
0000
0000
0000
,
0000
0000
0000
0000
,
0000
0000
0000
0000
,
0000
0000
0000
0000
,
0000
0000
0000
0000
0000
3003
1001
0000
,
0000
0001
0100
0000
0110
0000
0000
0100
,
0010
0000
0110
0000
0000
0010
0100
0000
,
0101
1100
0101
1010
,
0011
0000
1001
0000
0000
0001
0100
0000
,
1010
0000
0000
1000
0100
0000
0011
0000
,
0000
0001
0010
0100
1000
0000
0000
0100
,
1000
1100
0011
1100
,
0011
0000
0000
0001
0010
0100
1000
0000
,
0000
0100
1000
0010
0100
0000
0000
0010
,
0100
0001
1000
0000
1001
0000
0110
0000
,
1001
0000
0110
0000
1001
0000
0000
0001
,
0100
0010
1000
0000
0000
1000
0010
0100
,
0001
0000
0000
1000
0100
0001
0100
0010
,
0000
0010
0001
0100
0001
0000
1000
0000
,
0100
0000
1000
0000
0010
0100
0001
0100
,
0010
0000
0100
0010
1000
0010
0100
0000
,
0010
0100
0001
1000
0100
0000
1000
0000
,
0100
0010
0001
0010
,
0001
0100
0010
1000
0010
0000
0100
0010
,
1000
0001
0010
0000
0100
0001
0100
1000
,
0100
0000
0100
1000
0010
0100
0010
0000
,
0100
0000
0001
0000
1000
0000
0000
1000
,
0100
0010
0001
0000
0000
0001
0010
0100
,
1000
0000
0000
1000
0100
0010
0100
0000
0010
0000
0100
0000
0010
0000
0001
0000
,
0100
0000
0000
0010
0100
0100
0010
0000
0000
1000
0010
0010
0100
0000
0000
0001
,
0010
0010
0100
0000
0000
0100
0010
0001
2002
0000
3003
0000
0000
0000
0000
0000
;

//---------------dance-single - ----------------
#NOTES:
     dance-single:
     :
     Easy:
     7:
     0.406,0.643,0.043,0.026,0.098:
0001
0000
1000
0100
,
1000
0010
0010
0100
,
0010
1000
0000
0010
0100
0000
0100
0010
,
0100
0001
1000
0100
,
1000
0010
0100
0001
,
0010
0000
0001
0000
0000
1000
0000
0000
,
0100
0000
1000
0000
0010
1000
0010
0000
,
0100
0010
1000
0010
,
0100
0001
1000
0100
,
1000
0010
0100
0001
,
0100
0010
1000
0010
1000
0000
0010
0000
,
0100
0001
1000
0100
,
1000
0010
0100
0100
,
0001
1000
0100
0001
,
0100
0000
0010
0000
0000
0100
0000
0000
,
0010
0001
0100
0010
,
0010
1000
1000
0001
,
0010
0100
1000
0100
,
1000
0010
0001
0010
,
0100
0010
1000
0010
,
0100
0001
1000
0100
,
1000
0010
0100
0001
,
0010
1000
0010
0100
,
1000
0000
0100
0000
1100
0000
0100
0010
,
0001
0010
0011
0001
,
0100
0000
0010
0000
1000
0000
0001
0100
,
0001
0100
0001
0000
0100
0000
0010
0000
,
0010
0100
0001
0010
,
1000
0010
0100
0010
,
0001
1000
0001
0100
,
0100
0001
0001
1000
,
0100
0010
0100
1000
,
0010
0000
0100
0000
0001
0000
0010
0100
,
1000
0001
1000
0000
0100
0000
1000
0000
,
0010
0100
0010
1000
,
0001
0010
0100
1000
,
0100
0010
0001
1000
,
0001
0000
0100
0000
0101
0000
0001
0100
,
0010
0000
0000
0000
1000
0000
0000
0000
1001
0000
0000
0001
0000
0000
0100
0000
,
0000
0001
0000
0000
1000
0000
0100
0000
0000
1000
0000
0000
0010
0000
0000
0000
,
0100
0000
0010
0000
1000
0000
0000
0001
0000
0000
0100
0000
0000
0001
0000
0000
,
1000
0000
0100
0000
0000
1000
0000
0000
0010
0000
0000
0100
0000
0000
0001
0000
,
0100
0000
0000
0001
0000
0000
1000
0000
0000
0100
0000
0000
1000
0000
0010
0000
,
0000
0010
0000
0000
0100
0000
0000
0100
0000
0000
0001
0000
1000
0000
0000
0001
,
0000
0000
0100
0000
0000
0010
0000
0000
1000
0000
2002
0000
0000
0000
0000
0000
,
0000
0000
0000
0000
,
0000
0000
0000
0000
,
0000
0000
0000
0000
,
0000
0000
0000
0000
,
0000
0000
0000
0000
,
0000
0000
0000
0000
,
0000
0000
0000
0000
,
0000
0000
0000
0000
,
0000
0000
0000
0000
,
0000
0000
0000
0000
,
0000
0000
0000
0000
,
0000
0000
0000
0000
,
0000
0000
0000
0000
0000
3003
0000
0000
,
0000
0001
0100
0000
0010
0000
0000
0100
,
0010
0000
1000
0000
0000
0010
0100
0000
,
0001
1000
0100
0100
,
1000
0000
0100
0000
0000
0010
0001
0000
,
0100
0000
0000
0010
1000
0000
0010
0000
,
0000
0100
0001
0000
1000
0000
0000
0100
,
0010
0001
0010
0001
,
0100
0000
0000
0001
0100
0000
0010
0000
,
0000
0100
0010
0000
1000
0000
0000
1000
,
0100
0010
0100
1000
,
0010
0000
0100
0000
0001
0000
0000
1000
,
0001
0000
0100
0000
0000
0001
1000
0000
,
0100
0000
0000
1000
0001
0000
0100
0000
,
0000
0001
1000
0000
0100
0000
1000
0000
,
0010
0000
0100
0000
0000
0001
0100
0001
,
0100
0000
0000
0010
0100
0010
0100
0000
,
0000
0010
1000
0010
1000
0000
0010
0000
,
0100
0001
1000
0001
,
0000
0100
0010
1000
0001
0000
0000
0001
,
0010
0100
1000
0000
0000
1000
0100
0010
,
0001
0000
0000
0001
0010
0100
1000
0000
,
0001
0000
0100
0000
0001
0000
0000
0100
,
0010
1000
0010
0000
0000
0010
0100
0001
,
1000
0000
0000
0001
0100
0001
0100
0000
0010
0000
1000
0000
0001
0000
0010
0000
,
0001
0000
0000
1000
0100
0010
0001
0000
0000
0001
0010
0100
1000
0000
0000
1000
,
0100
0010
0001
0000
0000
0001
0010
0100
0020
0000
0030
0000
0000
0000
0000
0000
;

//---------------dance-single - ----------------
#NOTES:
     dance-single:
     :
     Beginner:
     4:
     0.237,0.428,0.248,0.000,0.000: // measure 1
1001
0000
0001
0000
,  // measure 2
0001
0000
0100
0100
,  // measure 3
0000
0010
0000
0100
,  // measure 4
0000
0000
0010
0000
,  // measure 5
0000
1000
0000
0000
,  // measure 6
1000
0001
0000
0000
,  // measure 7
0000
0100
0000
0010
,  // measure 8
0010
0000
0000
0100
,  // measure 9
0000
0000
0001
0001
,  // measure 10
0000
1000
0001
0000
,  // measure 11
0001
0100
0010
0000
,  // measure 12
0010
0000
0010
0000
,  // measure 13
0100
0000
0010
0000
,  // measure 14
1000
0000
0001
0000
,  // measure 15
1000
0000
1000
0000
,  // measure 16
1000
0000
0100
0000
,  // measure 17
1000
0000
0010
0000
,  // measure 18
0100
0000
0010
0010
,  // measure 19
0100
0010
0000
0000
,  // measure 20
0100
0000
0010
0000
,  // measure 21
0100
0000
0010
0000
,  // measure 22
1000
0000
0001
0000
,  // measure 23
0100
0000
0001
0000
,  // measure 24
1000
0000
1001
0000
,  // measure 25
0001
0100
0110
0000
,  // measure 26
0010
0000
0100
0000
,  // measure 27
1001
1001
0000
0001
,  // measure 28
0000
1000
0000
0100
,  // measure 29
0000
0000
1000
0000
,  // measure 30
0000
1000
0000
0010
,  // measure 31
0000
0100
0000
0001
,  // measure 32
0000
1000
1000
0001
,  // measure 33
0000
0100
0000
0010
,  // measure 34
0000
0100
0000
0010
,  // measure 35
0000
1000
0000
0010
,  // measure 36
0010
0100
0000
0010
,  // measure 37
0000
1000
0000
0001
,  // measure 38
0000
1000
1001
0000
,  // measure 39
0001
1000
0010
0000
,  // measure 40
0000
0100
0000
0000
,  // measure 41
0001
1000
0000
0000
,  // measure 42
0100
0000
1000
0000
,  // measure 43
0010
0000
0100
0000
,  // measure 44
0001
0000
1000
0000
,  // measure 45
0010
0000
0100
0000
,  // measure 46
0000
0000
0000
0000
,  // measure 47
0000
0000
0000
0000
,  // measure 48
0000
0000
0000
0000
,  // measure 49
0000
0000
0000
0000
,  // measure 50
0000
0000
0000
0000
,  // measure 51
0000
0000
0000
0000
,  // measure 52
0000
0000
0000
0000
,  // measure 53
0000
0000
0000
0000
,  // measure 54
0000
0000
0000
0000
,  // measure 55
0000
0000
0000
0000
,  // measure 56
0000
0000
0000
0000
,  // measure 57
0000
0000
0000
0000
,  // measure 58
0000
0000
0000
0000
,  // measure 59
0000
0001
0000
0000
,  // measure 60
1000
0000
0000
0001
,  // measure 61
0100
0000
0001
1000
,  // measure 62
0100
1000
0000
0100
,  // measure 63
0100
0000
0010
0010
,  // measure 64
0000
0001
0001
0000
,  // measure 65
1000
1000
0000
0001
,  // measure 66
1001
0000
0000
0110
,  // measure 67
0000
0000
1001
0000
,  // measure 68
0000
1001
0001
1000
,  // measure 69
0001
0010
1001
0000
,  // measure 70
0000
1001
0000
0000
,  // measure 71
0110
0000
0000
1001
,  // measure 72
0000
0000
0110
0100
,  // measure 73
0010
0001
0000
1000
,  // measure 74
1001
0000
0001
1001
,  // measure 75
0000
0010
0110
0000
,  // measure 76
0100
0010
0010
0110
,  // measure 77
0000
0001
1001
0000
,  // measure 78
1001
1001
0000
1000
,  // measure 79
1001
0000
0001
0110
,  // measure 80
0100
0010
0110
0000
,  // measure 81
0100
1001
0000
0010
,  // measure 82
1001
0000
0001
1001
0000
1000
0000
0010
,  // measure 83
0100
0000
0010
0010
0000
1000
1000
0000
,  // measure 84
0001
0001
0000
0100
1001
0000
0000
0000
;
