#TITLE:BabeL;
#SUBTITLE:-roof garden-;
#ARTIST:Capital Wage Association;
#TITLETRANSLIT:;
#SUBTITLETRANSLIT:;
#ARTISTTRANSLIT:;
#GENRE:;
#CREDIT:;
#BANNER:BabeL -roof garden-.png;
#BACKGROUND:BabeL -roof garden--bg.png;
#LYRICSPATH:;
#CDTITLE:;
#MUSIC:BabeL -roof garden-.ogg;
#OFFSET:-3.881001;
#SAMPLESTART:3.881001;
#SAMPLELENGTH:19.354839;
#SELECTABLE:YES;
#BPMS:0.000000=62.000000
,20.000000=60.000000
,22.000000=58.000000
,24.000000=61.000000
,30.000000=65.000000
,46.000000=60.000000
,50.000000=62.999996
,54.000000=65.000000
,82.000000=62.000000
,92.000000=64.000000
,96.000000=62.999996
,98.000000=62.000000
,100.000000=60.000000
,102.000000=57.000000
,104.000000=60.000000
,106.000000=58.000000
,107.000000=56.000000
,108.000000=54.000000
,109.000000=52.000000
,110.000000=62.999996
,111.500000=3.000000
;
#STOPS:
;
#BGCHANGES:;
#KEYSOUNDS:;
#ATTACKS:;

//---------------dance-single - ----------------
#NOTES:
     dance-single:
     :
     Hard:
     8:
     0.420182,0.529713,0.040402,0.161608,0.593911,339.000000,5.000000,20.000000,0.000000,0.000000,0.000000,0.420182,0.529713,0.040402,0.161608,0.593911,339.000000,5.000000,20.000000,0.000000,0.000000,0.000000:
0100
0000
0100
0010
0000
0010
0001
0000
,
0100
0000
0010
0000
0000
0000
0000
0000
0010
0000
0100
0001
1000
0000
0100
0000
,
0100
1000
0100
0000
1000
0000
0010
0100
0010
0000
0100
0000
0001
0010
0001
0000
,
1000
0100
0001
0000
0100
0000
0010
0001
0100
0000
1000
0000
0010
0001
0100
0001
,
1000
0100
0001
0100
1000
0001
0100
0000
1010
0000
0000
0000
0100
0000
0101
0000
,
0000
0001
1001
0000
0100
0101
0000
0000
,
0001
0000
0010
0010
0000
0000
0100
0000
,
1000
0000
1000
0000
0000
0000
0020
0000
0130
0000
0001
0100
0001
0010
0100
0010
,
0001
0000
1000
0000
0100
0000
1000
0000
0001
0000
0100
0000
0001
0000
1000
0000
0100
0000
0000
0000
1000
0100
1000
0010
0100
0001
1000
0100
1000
0000
0000
0000
,
0010
0000
0000
0000
0100
0001
1000
0100
1000
0001
0010
0100
0010
0000
0001
0000
0100
0000
0010
0000
1000
0000
0010
0000
0100
0000
0001
0000
0100
0000
0010
0000
,
1000
0000
0100
0000
0001
0000
0100
0000
0010
0000
0001
0000
1000
0000
0010
0000
0100
0000
0000
0000
0010
1000
0001
0010
0100
1000
0100
0010
0001
0000
0000
0000
,
1000
0000
0000
0000
0001
0100
0010
1000
0001
0000
1000
0000
0100
0000
0000
0000
1000
0000
0000
0000
0000
0000
0010
0100
0001
0000
0000
0000
1000
0000
0000
0000
,
0100
0000
1000
0000
0010
0000
1000
0000
0001
0100
0010
0100
1000
0100
0010
1000
,
0001
0010
0001
1000
0100
0000
1000
0000
0001
0100
0010
0010
0100
0001
0010
0010
,
0100
1000
0100
0001
0100
0100
0010
0001
1000
1000
0001
0100
0001
0001
0010
0100
,
0010
0010
0100
1000
0001
0000
0100
0000
0001
0000
0010
0000
0100
0000
1000
0001
,
0100
0001
0100
0000
0010
0000
1000
0010
1000
0000
0010
0000
0100
0001
1000
0000
0100
0010
0100
0000
1000
0000
0001
0100
0001
0000
0100
0000
0010
1000
0010
1000
,
0001
0010
0001
0000
0010
0000
0100
1000
0100
0000
1000
0000
0010
1000
0010
1000
0010
0100
0010
0000
0100
0000
0001
0100
0001
0000
0010
0000
0100
1000
0100
1000
,
0002
0023
0032
2003
3020
2030
3002
0203
,
0302
0000
0000
0000
0003
0000
1000
0001
0200
0000
0000
0000
0320
0000
0000
0000
1030
0000
0001
0100
0010
0000
0100
0000
0010
1000
0001
0000
0010
0000
0100
0000
,
1000
0000
0010
1000
0010
0000
0100
0000
0001
0100
0001
0000
0010
0000
0100
0000
1000
0000
0000
0000
0010
0000
0000
0000
0100
0000
0100
0000
0001
0000
1000
0000
,
0100
0000
1000
0000
1000
0000
0000
0000
0010
0010
0100
0001
0010
0010
0100
1000
,
0001
1000
0010
0100
0001
0000
0000
0000
1000
0000
0001
0000
1000
0000
0001
0000
,
1000
0100
0010
0100
1000
0001
0010
0100
1000
0000
0100
0000
0200
0000
0000
0000
,
0310
0001
0010
0010
0100
1000
0001
0001
0100
0001
1000
1000
0100
0010
0100
0100
,
1000
0100
0010
0001
0010
0100
0010
0001
1000
0000
0000
0000
0020
0000
0230
0000
,
0310
1000
0001
0200
0000
0300
0000
0000
0000
0001
0100
0020
0000
0030
0000
0000
,
0000
0000
0000
0100
0000
0000
0010
0000
0000
2000
0000
0000
0000
0000
0000
3000
0000
0000
0000
0000
0000
0000
0000
0000
0000
0000
0000
0000
0000
0000
0000
0000
0000
0000
0000
0000
0000
0000
0000
0000
0000
0000
2002
3003
0000
0000
0000
0000
;

//---------------dance-single - ----------------
#NOTES:
     dance-single:
     :
     Medium:
     5:
     0.290895,0.270492,0.064643,0.153528,0.238372,225.000000,8.000000,19.000000,0.000000,0.000000,0.000000,0.290895,0.270492,0.064643,0.153528,0.238372,225.000000,8.000000,19.000000,0.000000,0.000000,0.000000:
0010
0000
0100
0001
0000
0001
1000
0000
,
1000
0001
0000
0000
1000
0000
0100
0010
,
0000
0010
0100
0000
1000
0001
0000
0000
,
0001
0000
0001
1000
0000
0001
0010
0000
,
0010
0100
0000
0000
1000
0000
1000
0100
,
0000
1000
0001
0000
0000
0100
0000
0000
,
0010
0000
1000
0001
0000
0000
0010
0000
,
0100
0000
1000
0000
0000
0000
0020
0000
0130
0000
0001
0100
0001
0000
0100
0000
,
0010
0000
1000
0000
0100
0000
0010
0000
0001
0000
1000
0100
0010
0001
0010
0000
,
0100
0000
0100
0010
0001
1000
0010
0000
1000
0000
0010
0100
0010
0000
0100
0001
,
0100
0000
0001
1000
0001
0000
1000
0000
0100
0000
1000
0100
0010
0100
1000
0000
,
0001
0000
0001
0100
0010
0100
0001
0000
0001
0000
0000
1000
0001
0000
0100
0000
,
0001
0000
0010
0000
0100
0000
0010
0000
0100
0010
0100
0010
0001
0010
0001
1000
,
0001
0100
0010
1000
0101
0001
1001
1000
,
1100
0100
0110
0010
0011
0001
1001
1000
,
1010
0000
0010
0000
0100
0000
0001
0000
1000
0000
0100
0000
0010
0000
0001
0010
,
0100
0000
0010
0001
0000
0010
0100
1000
0001
0000
0100
0001
0000
0001
0100
0010
,
1000
0000
0010
0100
0000
0100
0010
1000
0001
0000
1000
0100
0000
1000
0010
0100
,
0020
1030
0020
0130
0200
0301
0200
0310
,
0200
0000
0000
0310
1000
0000
0001
0000
2000
0000
0000
0000
0000
0000
0000
0000
,
0002
0000
0000
0000
0000
0000
3003
0000
0001
0000
1000
0000
0100
1000
0100
0010
,
0100
0000
0100
0000
0100
0000
0000
0000
0010
0001
0001
0010
0001
0010
0100
0010
,
0001
1000
0010
1000
0001
0000
0000
0000
0020
0000
0230
0000
2300
0000
3020
0000
,
0130
0000
0001
0000
1000
1000
0001
0100
0001
0000
1000
0000
0200
0000
0000
0000
,
1300
0100
0010
0001
0000
0010
0100
1000
0000
0100
1000
0010
0000
0100
0010
1000
,
0001
0010
0100
0010
0001
1000
0010
0100
0001
0000
0000
0000
0020
0000
0030
0000
,
0000
0100
0010
0002
0000
0003
0000
0000
0000
0010
0100
2000
0000
3000
0000
0000
,
0000
0000
0000
1000
0000
0000
0001
0000
0000
0200
0000
0000
0000
0000
0000
0300
0000
0000
0000
0000
0000
0000
0000
0000
0000
0000
0000
0000
0000
0000
0000
0000
0000
0000
0000
0000
0000
0000
0000
0000
0000
0000
2002
3003
0000
0000
0000
0000
;

//---------------dance-single - ----------------
#NOTES:
     dance-single:
     :
     Easy:
     2:
     0.161608,0.180193,0.008080,0.161608,0.000000,119.000000,1.000000,20.000000,0.000000,0.000000,0.000000,0.161608,0.180193,0.008080,0.161608,0.000000,119.000000,1.000000,20.000000,0.000000,0.000000,0.000000:
0001
0000
0000
0010
0000
0000
0001
0000
,
0000
0100
0000
0000
0010
0000
0000
0010
,
0000
0000
0100
0000
0000
0100
0000
0000
,
0001
0000
0000
1000
0000
0000
0100
0000
,
0000
1000
0000
0000
0010
0000
0000
0100
,
0000
0000
0001
0000
0000
1000
0000
0000
,
0010
0000
0010
1000
0000
0000
0010
0000
,
0010
1000
0000
0000
0100
0000
0010
0000
,
1000
0000
0001
0000
0010
0001
0010
0001
,
0000
0100
0010
0100
0010
0000
1000
0000
,
0100
0000
1000
0000
0010
0100
0001
0010
,
0000
0100
1000
0010
0200
0300
0002
0003
,
2000
3000
0020
0030
0100
0010
1000
0001
,
2000
3000
1001
0001
,
0100
0010
0100
0001
,
1000
0000
0001
0000
0100
0010
1000
0001
,
2000
0000
0000
3010
0200
0000
0000
0310
,
1000
0001
0010
0001
2000
0000
0000
0001
,
3001
0010
0100
0010
0001
1000
0100
1000
,
0010
0000
0100
0001
2000
0000
0000
0000
,
0002
0000
0000
3003
0001
0000
0100
0000
,
0010
0010
0010
0000
0100
0000
0001
0000
,
1000
0001
0010
0000
0100
0010
0001
1000
,
0010
1000
0100
0100
1000
0001
2000
3000
,
0002
0003
0200
0300
0020
0030
2000
3000
,
0020
0030
0200
0300
0002
0003
2000
0000
,
0002
0000
0000
0000
0000
3000
0000
0000
,
0000
0000
0003
0000
0000
0000
0000
0010
;

//---------------dance-single - ----------------
#NOTES:
     dance-single:
     :
     Beginner:
     1:
     0.070415,0.078835,0.008080,0.000000,0.000000,60.000000,1.000000,0.000000,0.000000,0.000000,0.000000,0.070415,0.078835,0.008080,0.000000,0.000000,60.000000,1.000000,0.000000,0.000000,0.000000,0.000000:
// measure 0
1000
0000
0000
0001
,  // measure 1
0000
0000
1000
0000
,  // measure 2
0000
0100
0000
0000
,  // measure 3
1000
0000
0000
0010
0000
0000
0100
0000
,  // measure 4
0000
0001
0000
0000
1000
0000
0000
0001
,  // measure 5
0000
0000
0100
0000
0000
0010
0000
0000
,  // measure 6
1000
0000
0000
1000
,  // measure 7
0000
0000
0001
0000
,  // measure 8
0100
0000
0001
0000
,  // measure 9
1000
0000
0100
0000
,  // measure 10
0010
0000
0001
0000
,  // measure 11
0100
0000
0010
0000
,  // measure 12
0000
0000
1000
0000
,  // measure 13
0100
0000
1000
0001
,  // measure 14
1000
0010
0100
0001
,  // measure 15
1000
0000
0001
0000
,  // measure 16
0100
0000
0001
0000
,  // measure 17
1000
0001
0100
0000
,  // measure 18
0100
0001
0010
0100
,  // measure 19
1000
0100
1000
0000
,  // measure 20
0001
0000
0000
0000
,  // measure 21
0000
0000
0000
0000
,  // measure 22
0000
0000
1000
0001
,  // measure 23
1001
0000
0010
0000
,  // measure 24
0100
0010
1000
0001
,  // measure 25
0100
0000
0010
0000
,  // measure 26
1000
0000
0001
0000
,  // measure 27
1000
0000
0000
0000
0000
0000
0000
0010
;
