#TITLE:BLACK.by X-Cross Fade;
#SUBTITLE:;
#ARTIST:DJ Mass MAD Izm*;
#TITLETRANSLIT:;
#SUBTITLETRANSLIT:;
#ARTISTTRANSLIT:;
#CREDIT:;
#BANNER:BLACK.by X-Cross Fade.png;
#BACKGROUND:BLACK.by X-Cross Fade-background.png;
#JACKET:BLACK.by X-Cross Fade-jacket.png;
#LYRICSPATH:;
#CDTITLE:cdtitle.png;
#MUSIC:10 BLACK.by X-Cross Fade.mp3;
#OFFSET:2.499;
#SAMPLESTART:29.860;
#SAMPLELENGTH:12.000;
#SELECTABLE:YES;
#BPMS:0.000=163.000;
#STOPS:;
#BGCHANGES:;

//---------------dance-single - ----------------
#NOTES:
     dance-single:
     :
     Hard:
     9:
     0.550,0.625,0.624,0.093,0.017:
0000
0000
0000
0000
,
0000
0000
0000
0000
,
0000
0000
0000
0000
,
0000
0000
0000
0000
,
0000
0000
0000
0000
,
0000
0000
0000
0000
,
1000
0010
0010
1000
0100
0100
1000
0000
,
0001
0100
0100
0001
0010
0010
0001
0000
,
0001
0100
0100
1000
0100
0100
0010
0000
,
1000
0010
0010
0100
0010
0010
1000
0000
,
1000
0001
0010
0100
0010
0001
1000
0000
,
1000
0001
0100
0010
0100
0001
1000
0000
,
0001
0100
0010
1000
0100
0010
0100
0000
,
0010
0001
0100
0010
1000
0100
1000
0000
,
0100
0000
1000
0010
0100
0000
0101
0000
,
0001
0000
0100
0010
1000
0000
0011
0000
,
0001
0000
0100
0010
1000
0000
1100
0000
,
1000
0000
0010
0100
0001
0000
1010
0000
,
0100
0000
0010
1000
0001
0000
0011
0000
,
0001
0000
0001
0010
0100
0000
1100
0000
,
1000
0000
0010
0100
0001
0000
1001
0000
,
0010
0000
0100
0001
1000
0000
1100
0000
,
1001
0000
0110
0000
1001
0000
0100
0010
,
1001
0000
0110
0000
1001
0000
0010
0100
,
1001
0000
0100
0010
1001
0000
0010
0100
,
1001
0110
1001
0110
,
1001
0000
0110
0000
1001
0000
0010
0100
,
1001
0000
0110
0000
1001
0000
0100
0010
,
1001
0000
1000
0001
0110
0000
0010
0100
,
1001
0101
1001
1100
,
1002
1000
0100
0013
,
2001
0001
0010
3100
,
2100
3100
0102
0103
,
0101
1100
0101
1100
,
1020
1000
0100
0031
,
0201
0001
0010
1300
,
0010
1010
0010
0011
,
0001
0010
0100
1000
0100
0010
0001
0010
,
0100
0010
0000
0010
0100
1000
0001
0000
,
0100
0001
0000
0100
0010
1000
0010
0000
,
0100
0001
0000
0010
0100
1000
0100
0000
,
0010
0001
0000
0001
0010
0100
1000
0000
,
0001
0100
0000
1000
0100
0010
1000
0000
,
0100
0010
0000
0100
0001
1000
0001
0000
,
0001
0010
0000
0100
1000
0010
0100
0000
,
0001
1000
0001
1000
0001
0000
1001
0000
,
0110
0000
0000
1010
0000
0000
0000
0000
,
0101
0000
0000
0011
0000
0100
0100
0100
,
1100
0000
0000
0011
0000
0000
0000
0000
,
0110
0000
0000
1100
0000
1000
0020
0000
,
0130
0001
0100
0001
0100
0001
0100
0001
,
0100
0010
0100
0010
0100
0010
0100
0010
,
1000
0010
1000
0010
1000
0010
1000
0010
,
1010
1010
0101
0101
,
1001
0000
0001
0100
0000
0100
0000
0010
,
1000
0000
0000
0010
0000
0100
0000
0001
,
0010
0000
0000
0100
0000
0100
0000
0100
,
1000
0000
0001
0100
0000
1000
0100
0000
,
0010
0000
0001
0010
0000
0000
0100
1000
0000
0000
1000
0010
0000
0000
0100
0001
,
0100
1000
0100
0001
0100
1000
0100
0010
,
0110
0000
0010
1000
0000
1000
0010
0000
,
0100
0000
0100
0001
0000
0001
0010
0000
,
0100
0000
1000
0000
0100
1000
0100
0000
,
1000
0010
0100
0000
0010
1000
0001
0000
,
0001
0001
0100
0100
0010
0010
0000
0000
,
0100
1001
0010
1001
,
1000
1100
0100
1100
,
1000
0010
0100
0000
0010
0000
0010
0000
,
0020
0130
0200
0301
,
1010
0001
0010
0100
,
1100
1000
0001
0100
,
0110
1000
0001
0010
,
0011
0001
0001
1000
,
1001
1000
0100
0001
,
0101
0001
0100
0010
,
1010
1000
0011
0100
,
1010
0100
0011
2002
,
0000
0000
0000
0000
,
3003
0000
0000
0000
;

//---------------dance-single - ----------------
#NOTES:
     dance-single:
     :
     Medium:
     7:
     0.432,0.550,0.438,0.000,0.000:
0000
0000
0000
0000
,
0000
0000
0000
0000
,
0000
0000
0000
0000
,
0000
0000
0000
0000
,
0000
0000
0000
0000
,
0000
0000
0000
0000
,
0010
0100
0000
0010
1000
0010
1000
0000
,
0001
0100
0000
0001
0010
0001
0010
0000
,
0010
0100
0000
1000
0100
1000
0100
0000
,
1000
0010
0000
0100
0010
0100
0010
0000
,
0010
1000
0000
0010
0100
0010
0100
0000
,
0010
1000
0000
0001
0010
0001
0010
0000
,
0010
0100
0000
1000
0100
1000
0100
0000
,
1000
0010
0000
0100
0010
1000
0001
0000
,
1000
0001
0100
0101
,
0001
1000
0100
1100
,
1000
0010
0100
0110
,
0010
1000
0001
0011
,
0001
0010
1000
1010
,
1000
0010
0001
0101
,
0001
0100
1000
1100
,
1000
0100
0010
1000
,
1001
0000
0000
0110
,
0101
0000
0000
0000
0000
0000
0010
1000
,
1010
0000
0101
1100
,
0011
0011
1100
1100
,
1001
0000
0000
0000
0000
0000
0010
0100
,
0110
0000
0000
0000
0000
0000
0001
0001
,
1001
0000
1000
1000
1001
0000
0001
0001
,
1001
0110
1001
0110
,
0001
0100
1000
0100
,
0001
0010
1000
0010
,
0110
0010
0011
0001
,
0101
1100
0101
1100
,
1001
0000
1000
0000
0001
1000
0001
1000
,
1010
0000
0010
0000
0100
0010
0100
0010
,
1000
0000
0010
0000
0010
0001
0010
0000
,
0100
0000
0010
0000
1000
0001
0010
0000
,
0100
0000
0000
0010
0000
0000
0000
0000
,
0010
0000
0000
0100
0000
1000
0100
0000
,
1000
0000
0000
0010
0000
0000
0000
0000
,
0100
0000
0000
0010
0000
1000
0010
0000
,
0100
0001
0000
0010
1000
0000
0000
0000
,
0100
0010
0000
0010
1000
0000
0001
0000
,
0010
0100
0000
0100
1000
0000
0000
0000
,
1000
0100
0010
0001
,
0011
0000
0000
1100
0000
0000
0000
0000
,
0110
0000
0000
1001
0000
0001
0100
0001
,
0100
0000
0000
0010
0000
0000
0000
0000
,
0100
0000
0000
0100
0000
0100
0010
0000
,
1000
0001
0010
0001
,
0100
0010
1000
0010
,
0100
0001
1000
0010
,
0101
1010
0011
1100
,
1000
0000
0000
0100
0000
0100
0000
1000
,
0010
0000
0000
0100
0000
0100
0000
0100
,
0010
0000
0000
0100
0000
0001
0000
1000
,
0001
0000
0000
0010
0000
0100
0000
0000
,
1000
0100
0000
0100
0000
0100
0000
0100
,
0010
0100
0010
0100
0010
0100
0010
0100
,
0010
0000
0001
0000
0010
1000
0010
0000
,
0010
0000
0001
0000
0100
0010
1000
0000
,
0001
1000
0010
0100
,
0001
0100
0010
0000
0100
0010
1000
0000
,
0001
1000
0001
1000
0001
1000
0000
0000
,
0001
0001
1000
1000
,
0010
0000
0010
0000
0100
0010
0100
0000
,
0010
1000
0010
0001
,
0010
0010
0100
0100
,
0110
0010
1000
0001
,
1001
0001
0010
0100
,
1100
1000
0100
0010
,
0011
0001
0010
0100
,
1100
1000
0010
0100
,
0110
0010
1000
0001
,
0011
0100
0110
0100
,
1100
1000
1010
0101
;

//---------------dance-single - ----------------
#NOTES:
     dance-single:
     :
     Easy:
     4:
     0.289,0.485,0.337,0.059,0.000:
0000
0000
0000
0000
,
0000
0000
0000
0000
,
0000
0000
0000
0000
,
0000
0000
0000
0000
,
0000
0000
0000
0000
,
0000
0000
0000
0000
,
0001
0000
1000
0010
,
0100
0000
0100
0010
,
1000
0000
1000
0001
,
0010
0000
0010
0100
,
1000
0000
1000
0010
,
0100
0000
0100
0001
,
1000
0000
1000
0010
,
0100
0000
0100
0010
,
1000
0001
1000
1001
,
0001
0100
0001
0101
,
0001
0100
0010
0110
,
0010
1000
0100
1100
,
1000
1000
1000
1001
,
0001
0001
0001
0101
,
0100
0100
0100
0110
,
0010
0010
0010
0110
,
1001
0000
0000
0101
,
1010
0000
0000
1100
,
1100
0000
0011
0000
,
1100
0110
0011
0110
,
1100
0000
0000
0000
,
0101
0000
0000
0010
,
1001
0100
1001
0010
,
1001
0110
1001
0110
,
2000
0000
0000
3000
,
0020
0000
0000
0030
,
0100
0000
0001
0000
,
1000
1000
0001
0001
,
0100
0000
0020
0100
,
0130
0000
0200
0010
,
0310
0000
1001
0000
,
0010
0010
0100
0100
,
0001
0001
1000
0000
,
1000
1000
0010
0000
,
0100
0100
0001
0000
,
1000
1000
0100
0000
,
1000
1000
0010
0010
,
0100
0100
0001
0001
,
1000
1000
0010
0010
,
0100
0001
1000
0100
,
0010
0000
0000
0010
0000
0000
0000
0000
,
0100
0000
0000
0100
0000
0000
0000
0000
,
1000
0000
0000
1000
0000
0000
0000
0000
,
0001
0000
0000
0001
0000
0000
0000
0000
,
1000
0000
0000
0001
0000
0000
0000
0000
,
0001
0000
0000
0100
0000
0000
0010
0000
,
1000
0000
0000
0010
0000
0000
0000
0000
,
0100
0100
0100
0100
,
0100
0000
0000
0000
,
1001
0000
0000
0000
,
0101
0000
0000
0000
,
1100
0000
0000
0000
,
1000
0010
0100
0010
,
2000
0000
0000
0000
,
3100
0100
1000
1000
,
0100
1000
0010
0001
,
0010
0010
0100
0100
,
0010
1000
0001
0010
,
0100
0100
0100
0000
,
0010
0000
0001
0000
,
1000
0000
0010
1000
,
0010
0000
0100
0000
,
0001
0010
0100
1000
,
1001
0000
0000
0000
,
0101
0000
0000
0000
,
1100
0000
0000
0000
,
1010
0000
0000
0000
,
0011
0000
0000
0000
,
0110
0000
0000
0000
,
1100
0000
0110
0000
,
0011
0000
2002
3003
;

//---------------dance-single - ----------------
#NOTES:
     dance-single:
     :
     Beginner:
     1:
     0.132,0.324,0.084,0.000,0.000: // measure 1
0000
0000
0000
0000
,  // measure 2
0000
0000
0000
0000
,  // measure 3
0000
0000
0000
0000
,  // measure 4
0000
0000
0000
0000
,  // measure 5
0000
0000
0000
0000
,  // measure 6
0000
0000
0000
0000
,  // measure 7
1000
0000
0000
0000
,  // measure 8
0001
0000
0000
0000
,  // measure 9
1000
0000
0000
0000
,  // measure 10
0001
0000
0000
0000
,  // measure 11
0100
0000
0000
0000
,  // measure 12
0001
0000
0000
0000
,  // measure 13
1000
0000
0000
0000
,  // measure 14
0100
0000
0000
0000
,  // measure 15
1000
0000
0000
0010
,  // measure 16
0000
0000
0000
0100
,  // measure 17
0000
0000
0000
0001
,  // measure 18
0000
0000
0000
1000
,  // measure 19
0000
0000
0000
0001
,  // measure 20
0000
0000
0000
0100
,  // measure 21
0000
0000
0000
0001
,  // measure 22
0000
0000
0000
1000
,  // measure 23
1000
0000
0000
0000
,  // measure 24
0001
0000
0000
0100
,  // measure 25
0100
0000
0010
0000
,  // measure 26
0100
0000
0000
0000
,  // measure 27
0001
0000
0000
0000
,  // measure 28
1000
0000
0000
0010
,  // measure 29
0010
0000
0100
0000
,  // measure 30
0010
0010
0010
0010
,  // measure 31
1001
0000
0000
0000
,  // measure 32
0110
0000
0000
0000
,  // measure 33
1001
0000
1001
0000
,  // measure 34
0001
0001
1000
1000
,  // measure 35
1001
0000
0000
0000
,  // measure 36
0100
0000
0000
0000
,  // measure 37
0010
0000
0010
0000
,  // measure 38
0100
0100
0100
0100
,  // measure 39
0001
0000
0000
0000
,  // measure 40
0001
0000
0000
0000
,  // measure 41
1000
0000
0000
0000
,  // measure 42
1000
0000
0000
0000
,  // measure 43
0100
0000
0000
0000
,  // measure 44
0100
0000
0000
0000
,  // measure 45
0010
0000
0000
0000
,  // measure 46
0010
0000
0100
0000
,  // measure 47
1001
0000
0000
0000
,  // measure 48
0001
0000
0000
0000
,  // measure 49
0100
0000
0000
0000
,  // measure 50
0001
0000
0000
1000
,  // measure 51
1000
0000
0000
0000
,  // measure 52
0100
0000
0000
0000
,  // measure 53
1000
0000
0000
0000
,  // measure 54
0010
0000
0100
0000
,  // measure 55
1001
0000
0000
0000
,  // measure 56
0001
0000
0000
0000
,  // measure 57
0001
0000
0000
0000
,  // measure 58
0001
0000
0000
0000
,  // measure 59
0100
0000
0010
0000
,  // measure 60
0100
0100
0100
0100
,  // measure 61
0110
0000
0000
0000
,  // measure 62
0010
0000
0000
0000
,  // measure 63
1000
0000
0000
0000
,  // measure 64
1000
0000
0000
0000
,  // measure 65
0100
0100
0100
0000
,  // measure 66
1001
0000
0000
0000
,  // measure 67
1000
0000
0000
0000
,  // measure 68
0001
0000
0000
0000
,  // measure 69
0100
0000
0010
0000
,  // measure 70
0100
0000
0000
0000
,  // measure 71
0001
0000
0000
0000
,  // measure 72
0001
0000
0000
0000
,  // measure 73
0010
0000
0000
0000
,  // measure 74
0100
0000
0000
0000
,  // measure 75
1000
0000
0000
0000
,  // measure 76
0001
0000
0010
0000
,  // measure 77
0100
0000
1000
1001
;
